  0
SECTION
  2
HEADER
  9
$ACADVER
  1
AC1021
  9
$ACADMAINTVER
 70
    50
  9
$DWGCODEPAGE
  3
ANSI_1252
  9
$INSBASE
 10
0.0
 20
0.0
 30
0.0
  9
$EXTMIN
 10
3434.383747041728
 20
2307.914752766331
 30
0.0
  9
$EXTMAX
 10
3909.532279943114
 20
2587.776873390296
 30
0.0
  9
$LIMMIN
 10
0.0
 20
0.0
  9
$LIMMAX
 10
12.0
 20
9.0
  9
$ORTHOMODE
 70
     0
  9
$REGENMODE
 70
     1
  9
$FILLMODE
 70
     1
  9
$QTEXTMODE
 70
     0
  9
$MIRRTEXT
 70
     0
  9
$LTSCALE
 40
1.0
  9
$ATTMODE
 70
     1
  9
$TEXTSIZE
 40
0.2
  9
$TRACEWID
 40
0.05
  9
$TEXTSTYLE
  7
Standard
  9
$CLAYER
  8
0
  9
$CELTYPE
  6
ByLayer
  9
$CECOLOR
 62
   256
  9
$CELTSCALE
 40
1.0
  9
$DISPSILH
 70
     0
  9
$DIMSCALE
 40
1.0
  9
$DIMASZ
 40
0.18
  9
$DIMEXO
 40
0.0625
  9
$DIMDLI
 40
0.38
  9
$DIMRND
 40
0.0
  9
$DIMDLE
 40
0.0
  9
$DIMEXE
 40
0.18
  9
$DIMTP
 40
0.0
  9
$DIMTM
 40
0.0
  9
$DIMTXT
 40
0.18
  9
$DIMCEN
 40
0.09
  9
$DIMTSZ
 40
0.0
  9
$DIMTOL
 70
     0
  9
$DIMLIM
 70
     0
  9
$DIMTIH
 70
     1
  9
$DIMTOH
 70
     1
  9
$DIMSE1
 70
     0
  9
$DIMSE2
 70
     0
  9
$DIMTAD
 70
     0
  9
$DIMZIN
 70
     0
  9
$DIMBLK
  1

  9
$DIMASO
 70
     1
  9
$DIMSHO
 70
     1
  9
$DIMPOST
  1

  9
$DIMAPOST
  1

  9
$DIMALT
 70
     0
  9
$DIMALTD
 70
     2
  9
$DIMALTF
 40
25.4
  9
$DIMLFAC
 40
1.0
  9
$DIMTOFL
 70
     0
  9
$DIMTVP
 40
0.0
  9
$DIMTIX
 70
     0
  9
$DIMSOXD
 70
     0
  9
$DIMSAH
 70
     0
  9
$DIMBLK1
  1

  9
$DIMBLK2
  1

  9
$DIMSTYLE
  2
Standard
  9
$DIMCLRD
 70
     0
  9
$DIMCLRE
 70
     0
  9
$DIMCLRT
 70
     0
  9
$DIMTFAC
 40
1.0
  9
$DIMGAP
 40
0.09
  9
$DIMJUST
 70
     0
  9
$DIMSD1
 70
     0
  9
$DIMSD2
 70
     0
  9
$DIMTOLJ
 70
     1
  9
$DIMTZIN
 70
     0
  9
$DIMALTZ
 70
     0
  9
$DIMALTTZ
 70
     0
  9
$DIMUPT
 70
     0
  9
$DIMDEC
 70
     4
  9
$DIMTDEC
 70
     4
  9
$DIMALTU
 70
     2
  9
$DIMALTTD
 70
     2
  9
$DIMTXSTY
  7
Standard
  9
$DIMAUNIT
 70
     1
  9
$DIMADEC
 70
     0
  9
$DIMALTRND
 40
0.0
  9
$DIMAZIN
 70
     0
  9
$DIMDSEP
 70
    46
  9
$DIMATFIT
 70
     3
  9
$DIMFRAC
 70
     0
  9
$DIMLDRBLK
  1

  9
$DIMLUNIT
 70
     2
  9
$DIMLWD
 70
    -2
  9
$DIMLWE
 70
    -2
  9
$DIMTMOVE
 70
     0
  9
$DIMFXL
 40
1.0
  9
$DIMFXLON
 70
     0
  9
$DIMJOGANG
 40
0.7853981633974483
  9
$DIMTFILL
 70
     0
  9
$DIMTFILLCLR
 70
     0
  9
$DIMARCSYM
 70
     0
  9
$DIMLTYPE
  6

  9
$DIMLTEX1
  6

  9
$DIMLTEX2
  6

  9
$LUNITS
 70
     2
  9
$LUPREC
 70
     4
  9
$SKETCHINC
 40
0.1
  9
$FILLETRAD
 40
0.0
  9
$AUNITS
 70
     0
  9
$AUPREC
 70
     0
  9
$MENU
  1
.
  9
$ELEVATION
 40
0.0
  9
$PELEVATION
 40
0.0
  9
$THICKNESS
 40
0.0
  9
$LIMCHECK
 70
     0
  9
$CHAMFERA
 40
0.0
  9
$CHAMFERB
 40
0.0
  9
$CHAMFERC
 40
0.0
  9
$CHAMFERD
 40
0.0
  9
$SKPOLY
 70
     0
  9
$TDCREATE
 40
2459772.756354167
  9
$TDUCREATE
 40
2459772.256354167
  9
$TDUPDATE
 40
2459772.756354167
  9
$TDUUPDATE
 40
2459772.256354167
  9
$TDINDWG
 40
0.0000231481
  9
$TDUSRTIMER
 40
0.0000231481
  9
$USRTIMER
 70
     1
  9
$ANGBASE
 50
0.0
  9
$ANGDIR
 70
     0
  9
$PDMODE
 70
     0
  9
$PDSIZE
 40
0.0
  9
$PLINEWID
 40
0.0
  9
$SPLFRAME
 70
     0
  9
$SPLINETYPE
 70
     6
  9
$SPLINESEGS
 70
     8
  9
$HANDSEED
  5
34D
  9
$SURFTAB1
 70
     6
  9
$SURFTAB2
 70
     6
  9
$SURFTYPE
 70
     6
  9
$SURFU
 70
     6
  9
$SURFV
 70
     6
  9
$UCSBASE
  2

  9
$UCSNAME
  2

  9
$UCSORG
 10
0.0
 20
0.0
 30
0.0
  9
$UCSXDIR
 10
1.0
 20
0.0
 30
0.0
  9
$UCSYDIR
 10
0.0
 20
1.0
 30
0.0
  9
$UCSORTHOREF
  2

  9
$UCSORTHOVIEW
 70
     0
  9
$UCSORGTOP
 10
0.0
 20
0.0
 30
0.0
  9
$UCSORGBOTTOM
 10
0.0
 20
0.0
 30
0.0
  9
$UCSORGLEFT
 10
0.0
 20
0.0
 30
0.0
  9
$UCSORGRIGHT
 10
0.0
 20
0.0
 30
0.0
  9
$UCSORGFRONT
 10
0.0
 20
0.0
 30
0.0
  9
$UCSORGBACK
 10
0.0
 20
0.0
 30
0.0
  9
$PUCSBASE
  2

  9
$PUCSNAME
  2

  9
$PUCSORG
 10
0.0
 20
0.0
 30
0.0
  9
$PUCSXDIR
 10
1.0
 20
0.0
 30
0.0
  9
$PUCSYDIR
 10
0.0
 20
1.0
 30
0.0
  9
$PUCSORTHOREF
  2

  9
$PUCSORTHOVIEW
 70
     0
  9
$PUCSORGTOP
 10
0.0
 20
0.0
 30
0.0
  9
$PUCSORGBOTTOM
 10
0.0
 20
0.0
 30
0.0
  9
$PUCSORGLEFT
 10
0.0
 20
0.0
 30
0.0
  9
$PUCSORGRIGHT
 10
0.0
 20
0.0
 30
0.0
  9
$PUCSORGFRONT
 10
0.0
 20
0.0
 30
0.0
  9
$PUCSORGBACK
 10
0.0
 20
0.0
 30
0.0
  9
$USERI1
 70
     0
  9
$USERI2
 70
     0
  9
$USERI3
 70
     0
  9
$USERI4
 70
     0
  9
$USERI5
 70
     0
  9
$USERR1
 40
0.0
  9
$USERR2
 40
0.0
  9
$USERR3
 40
0.0
  9
$USERR4
 40
0.0
  9
$USERR5
 40
0.0
  9
$WORLDVIEW
 70
     1
  9
$SHADEDGE
 70
     3
  9
$SHADEDIF
 70
    70
  9
$TILEMODE
 70
     0
  9
$MAXACTVP
 70
    64
  9
$PINSBASE
 10
0.0
 20
0.0
 30
0.0
  9
$PLIMCHECK
 70
     0
  9
$PEXTMIN
 10
-3.179323264254881
 20
-3.79528158292931
 30
0.0
  9
$PEXTMAX
 10
293.8206767356985
 20
202.4547184170706
 30
0.0
  9
$PLIMMIN
 10
0.0
 20
0.0
  9
$PLIMMAX
 10
12.0
 20
9.0
  9
$UNITMODE
 70
     0
  9
$VISRETAIN
 70
     1
  9
$PLINEGEN
 70
     0
  9
$PSLTSCALE
 70
     1
  9
$TREEDEPTH
 70
  3020
  9
$CMLSTYLE
  2
Standard
  9
$CMLJUST
 70
     0
  9
$CMLSCALE
 40
1.0
  9
$PROXYGRAPHICS
 70
     1
  9
$MEASUREMENT
 70
     1
  9
$CELWEIGHT
370
    -1
  9
$ENDCAPS
280
     0
  9
$JOINSTYLE
280
     0
  9
$LWDISPLAY
290
     0
  9
$INSUNITS
 70
     4
  9
$HYPERLINKBASE
  1

  9
$STYLESHEET
  1

  9
$XEDIT
290
     1
  9
$CEPSNTYPE
380
     0
  9
$PSTYLEMODE
290
     1
  9
$FINGERPRINTGUID
  2
{859B9B0A-DA04-3046-A03E-028CE56E3662}
  9
$VERSIONGUID
  2
{0AF13E1B-A714-F743-830F-EEEB49662B8F}
  9
$EXTNAMES
290
     1
  9
$PSVPSCALE
 40
0.0
  9
$OLESTARTUP
290
     0
  9
$SORTENTS
280
   127
  9
$INDEXCTL
280
     0
  9
$HIDETEXT
280
     1
  9
$XCLIPFRAME
290
     0
  9
$HALOGAP
280
     0
  9
$OBSCOLOR
 70
   257
  9
$OBSLTYPE
280
     0
  9
$INTERSECTIONDISPLAY
280
     0
  9
$INTERSECTIONCOLOR
 70
   257
  9
$DIMASSOC
280
     2
  9
$PROJECTNAME
  1

  9
$CAMERADISPLAY
290
     0
  9
$LENSLENGTH
 40
50.0
  9
$CAMERAHEIGHT
 40
0.0
  9
$STEPSPERSEC
 40
2.0
  9
$STEPSIZE
 40
6.0
  9
$3DDWFPREC
 40
2.0
  9
$PSOLWIDTH
 40
0.25
  9
$PSOLHEIGHT
 40
4.0
  9
$LOFTANG1
 40
1.570796326794896
  9
$LOFTANG2
 40
1.570796326794896
  9
$LOFTMAG1
 40
0.0
  9
$LOFTMAG2
 40
0.0
  9
$LOFTPARAM
 70
     7
  9
$LOFTNORMALS
280
     1
  9
$LATITUDE
 40
0.0
  9
$LONGITUDE
 40
0.0
  9
$NORTHDIRECTION
 40
0.0
  9
$TIMEZONE
 70
     0
  9
$LIGHTGLYPHDISPLAY
280
     1
  9
$TILEMODELIGHTSYNCH
280
     1
  9
$CMATERIAL
347
11
  9
$SOLIDHIST
280
     0
  9
$SHOWHIST
280
     1
  9
$DWFFRAME
280
     2
  9
$DGNFRAME
280
     0
  9
$REALWORLDSCALE
290
     1
  9
$INTERFERECOLOR
 62
     1
  9
$INTERFEREOBJVS
345
33
  9
$INTERFEREVPVS
346
30
  9
$CSHADOW
280
     0
  9
$SHADOWPLANELOCATION
 40
0.0
  0
ENDSEC
  0
SECTION
  2
CLASSES
  0
CLASS
  1
ACDBDICTIONARYWDFLT
  2
AcDbDictionaryWithDefault
  3
ObjectDBX Classes
 90
        0
 91
        1
280
     0
281
     0
  0
CLASS
  1
MATERIAL
  2
AcDbMaterial
  3
ObjectDBX Classes
 90
     1153
 91
        3
280
     0
281
     0
  0
CLASS
  1
VISUALSTYLE
  2
AcDbVisualStyle
  3
ObjectDBX Classes
 90
     4095
 91
       24
280
     0
281
     0
  0
CLASS
  1
SCALE
  2
AcDbScale
  3
ObjectDBX Classes
 90
     1153
 91
       17
280
     0
281
     0
  0
CLASS
  1
TABLESTYLE
  2
AcDbTableStyle
  3
ObjectDBX Classes
 90
     4095
 91
        1
280
     0
281
     0
  0
CLASS
  1
MLEADERSTYLE
  2
AcDbMLeaderStyle
  3
ACDB_MLEADERSTYLE_CLASS
 90
     4095
 91
        1
280
     0
281
     0
  0
CLASS
  1
ACDBSECTIONVIEWSTYLE
  2
AcDbSectionViewStyle
  3
ObjectDBX Classes
 90
     1025
 91
        1
280
     0
281
     0
  0
CLASS
  1
ACDBDETAILVIEWSTYLE
  2
AcDbDetailViewStyle
  3
ObjectDBX Classes
 90
     1025
 91
        1
280
     0
281
     0
  0
CLASS
  1
RASTERVARIABLES
  2
AcDbRasterVariables
  3
ISM
 90
        0
 91
        1
280
     0
281
     0
  0
CLASS
  1
DICTIONARYVAR
  2
AcDbDictionaryVar
  3
ObjectDBX Classes
 90
        0
 91
        6
280
     0
281
     0
  0
CLASS
  1
CELLSTYLEMAP
  2
AcDbCellStyleMap
  3
ObjectDBX Classes
 90
     1152
 91
        2
280
     0
281
     0
  0
CLASS
  1
SORTENTSTABLE
  2
AcDbSortentsTable
  3
ObjectDBX Classes
 90
        0
 91
        1
280
     0
281
     0
  0
CLASS
  1
SUN
  2
AcDbSun
  3
SCENEOE
 90
     1153
 91
        1
280
     0
281
     0
  0
ENDSEC
  0
SECTION
  2
TABLES
  0
TABLE
  2
VPORT
  5
8
330
0
100
AcDbSymbolTable
 70
     1
  0
VPORT
  5
57
330
8
100
AcDbSymbolTableRecord
100
AcDbViewportTableRecord
  2
*Active
 70
     0
 10
0.0
 20
0.0
 11
1.0
 21
1.0
 12
3671.958013492421
 22
2447.845813078314
 13
0.0
 23
0.0
 14
1.0
 24
1.0
 15
0.0
 25
0.0
 16
0.0
 26
0.0
 36
1.0
 17
0.0
 27
0.0
 37
0.0
 40
279.8621206239645
 41
1.69779508510127
 42
50.0
 43
0.0
 44
0.0
 50
0.0
 51
0.0
 71
     0
 72
  1000
 73
     1
 74
     1
 75
     0
 76
     0
 77
     0
 78
     0
281
     0
 65
     1
110
0.0
120
0.0
130
0.0
111
1.0
121
0.0
131
0.0
112
0.0
122
1.0
132
0.0
 79
     0
146
0.0
 60
     3
 61
     5
292
     1
282
     1
141
0.0
142
0.0
 63
   250
421
  3355443
361
30F
  0
ENDTAB
  0
TABLE
  2
LTYPE
  5
5
330
0
100
AcDbSymbolTable
 70
     2
  0
LTYPE
  5
5B
330
5
100
AcDbSymbolTableRecord
100
AcDbLinetypeTableRecord
  2
ByBlock
 70
     0
  3

 72
    65
 73
     0
 40
0.0
  0
LTYPE
  5
5C
330
5
100
AcDbSymbolTableRecord
100
AcDbLinetypeTableRecord
  2
ByLayer
 70
     0
  3

 72
    65
 73
     0
 40
0.0
  0
LTYPE
  5
5D
330
5
100
AcDbSymbolTableRecord
100
AcDbLinetypeTableRecord
  2
Continuous
 70
     0
  3
Solid line
 72
    65
 73
     0
 40
0.0
  0
LTYPE
  5
BD
330
5
100
AcDbSymbolTableRecord
100
AcDbLinetypeTableRecord
  2
Dash
 70
     0
  3

 72
    65
 73
     2
 40
3.4
 49
2.2
 74
     0
 49
-1.199999999999999
 74
     0
  0
ENDTAB
  0
TABLE
  2
LAYER
  5
2
330
0
100
AcDbSymbolTable
 70
     5
  0
LAYER
  5
54
330
2
100
AcDbSymbolTableRecord
100
AcDbLayerTableRecord
  2
0
 70
     0
 62
     7
  6
Continuous
370
    -3
390
F
347
21
  0
LAYER
  5
BC
330
2
100
AcDbSymbolTableRecord
100
AcDbLayerTableRecord
  2
_ARDEX - WELDTEC_
 70
     0
 62
     7
  6
Continuous
370
     9
390
F
347
21
  0
LAYER
  5
C4
330
2
100
AcDbSymbolTableRecord
100
AcDbLayerTableRecord
  2
_ARDEX - BUTYNOL_
 70
     0
 62
     7
  6
Continuous
370
    25
390
F
347
21
  0
LAYER
  5
245
330
2
100
AcDbSymbolTableRecord
100
AcDbLayerTableRecord
  2
_ARDEX - WELDTEC_-2
 70
     0
 62
     7
  6
Continuous
370
     9
390
F
347
21
  0
LAYER
  5
259
330
2
100
AcDbSymbolTableRecord
100
AcDbLayerTableRecord
  2
Defpoints
 70
     0
 62
     7
  6
Continuous
290
     0
370
    -3
390
F
347
21
  0
ENDTAB
  0
TABLE
  2
STYLE
  5
3
330
0
100
AcDbSymbolTable
 70
    11
  0
STYLE
  5
55
330
3
100
AcDbSymbolTableRecord
100
AcDbTextStyleTableRecord
  2
Standard
 70
     0
 40
0.0
 41
1.0
 50
0.0
 71
     0
 42
0.2
  3
txt
  4

  0
STYLE
  5
5A
330
3
100
AcDbSymbolTableRecord
100
AcDbTextStyleTableRecord
  2
Annotative
 70
     0
 40
0.0
 41
1.0
 50
0.0
 71
     0
 42
0.2
  3
txt
  4

1001
AcadAnnotative
1000
AnnotativeData
1002
{
1070
     1
1070
     1
1002
}
  0
STYLE
  5
217
330
3
100
AcDbSymbolTableRecord
100
AcDbTextStyleTableRecord
  2
Swis721 Lt BT
 70
     0
 40
4.0
 41
1.0
 50
0.0
 71
     0
 42
0.2
  3
swissl.ttf
  4

1001
ACAD
1000
Swis721 Lt BT
1071
       34
  0
STYLE
  5
2E7
330
3
100
AcDbSymbolTableRecord
100
AcDbTextStyleTableRecord
  2
Swis721 Lt BT_1
 70
     0
 40
1.5
 41
0.9
 50
0.0
 71
     0
 42
0.2
  3
swissl.ttf
  4

1001
ACAD
1000
Swis721 Lt BT
1071
       34
  0
STYLE
  5
2EB
330
3
100
AcDbSymbolTableRecord
100
AcDbTextStyleTableRecord
  2
Swis721 Lt BT_2
 70
     0
 40
2.1
 41
0.9
 50
0.0
 71
     0
 42
0.2
  3
swissl.ttf
  4

1001
ACAD
1000
Swis721 Lt BT
1071
       34
  0
STYLE
  5
2EE
330
3
100
AcDbSymbolTableRecord
100
AcDbTextStyleTableRecord
  2
Swis721 Lt BT_B
 70
     0
 40
0.7000000000000001
 41
0.9
 50
0.0
 71
     0
 42
0.2
  3

  4

1001
ACAD
1000
Swis721 Lt BT
1071
 33554466
  0
STYLE
  5
2F0
330
3
100
AcDbSymbolTableRecord
100
AcDbTextStyleTableRecord
  2
Swis721 Lt BT_3
 70
     0
 40
0.7000000000000001
 41
0.9
 50
0.0
 71
     0
 42
0.2
  3
swissl.ttf
  4

1001
ACAD
1000
Swis721 Lt BT
1071
       34
  0
STYLE
  5
2FF
330
3
100
AcDbSymbolTableRecord
100
AcDbTextStyleTableRecord
  2
Swis721 Lt BT_4
 70
     0
 40
2.0
 41
1.0
 50
0.0
 71
     0
 42
0.2
  3
swissl.ttf
  4

1001
ACAD
1000
Swis721 Lt BT
1071
       34
  0
STYLE
  5
301
330
3
100
AcDbSymbolTableRecord
100
AcDbTextStyleTableRecord
  2
Arial Black_B
 70
     0
 40
5.0
 41
0.9
 50
0.0
 71
     0
 42
0.2
  3
ariblk.ttf
  4

1001
ACAD
1000
Arial Black
1071
 33554466
  0
STYLE
  5
303
330
3
100
AcDbSymbolTableRecord
100
AcDbTextStyleTableRecord
  2
Swis721 Lt BT_5
 70
     0
 40
3.0
 41
1.0
 50
0.0
 71
     0
 42
0.2
  3
swissl.ttf
  4

1001
ACAD
1000
Swis721 Lt BT
1071
       34
  0
STYLE
  5
305
330
3
100
AcDbSymbolTableRecord
100
AcDbTextStyleTableRecord
  2
Arial
 70
     0
 40
4.0
 41
1.0
 50
0.0
 71
     0
 42
0.2
  3
arial.ttf
  4

1001
ACAD
1000
Arial
1071
       34
  0
ENDTAB
  0
TABLE
  2
VIEW
  5
6
330
0
100
AcDbSymbolTable
 70
     0
  0
ENDTAB
  0
TABLE
  2
UCS
  5
7
330
0
100
AcDbSymbolTable
 70
     0
  0
ENDTAB
  0
TABLE
  2
APPID
  5
9
330
0
100
AcDbSymbolTable
 70
     4
  0
APPID
  5
56
330
9
100
AcDbSymbolTableRecord
100
AcDbRegAppTableRecord
  2
ACAD
 70
     0
  0
APPID
  5
5E
330
9
100
AcDbSymbolTableRecord
100
AcDbRegAppTableRecord
  2
AcadAnnotative
 70
     0
  0
APPID
  5
78
330
9
100
AcDbSymbolTableRecord
100
AcDbRegAppTableRecord
  2
REVIT
 70
     0
  0
APPID
  5
346
330
9
100
AcDbSymbolTableRecord
100
AcDbRegAppTableRecord
  2
ACAD_MLEADERVER
 70
     0
  0
ENDTAB
  0
TABLE
  2
DIMSTYLE
  5
A
330
0
100
AcDbSymbolTable
 70
     3
100
AcDbDimStyleTable
 71
     1
340
252
  0
DIMSTYLE
105
58
330
A
100
AcDbSymbolTableRecord
100
AcDbDimStyleTableRecord
  2
Standard
 70
     0
340
55
  0
DIMSTYLE
105
59
330
A
100
AcDbSymbolTableRecord
100
AcDbDimStyleTableRecord
  2
Annotative
 70
     0
340
55
1001
AcadAnnotative
1000
AnnotativeData
1002
{
1070
     1
1070
     1
1002
}
  0
DIMSTYLE
105
252
102
{ACAD_REACTORS
330
257
102
}
330
A
100
AcDbSymbolTableRecord
100
AcDbDimStyleTableRecord
  2
_ARDEX__-_2mm
 70
     0
  3
<>
 40
304.8
 41
0.0078740157480315
 44
0.0091863517060367
 46
0.0144356955380578
 49
0.0328083989501312
 73
     0
 74
     0
 77
     1
 90
        2
140
4.221260218902058
145
1.0
147
0.0032808398950131
172
     1
173
     1
174
     1
179
     4
271
     0
275
     1
290
     1
340
217
343
253
344
253
  0
ENDTAB
  0
TABLE
  2
BLOCK_RECORD
  5
1
330
0
100
AcDbSymbolTable
 70
    21
  0
BLOCK_RECORD
  5
70
102
{ACAD_XDICTIONARY
360
30D
102
}
330
1
100
AcDbSymbolTableRecord
100
AcDbBlockTableRecord
  2
*Model_Space
340
73
 70
     0
280
     1
281
     0
  0
BLOCK_RECORD
  5
6C
330
1
100
AcDbSymbolTableRecord
100
AcDbBlockTableRecord
  2
*Paper_Space
340
6F
 70
     0
280
     1
281
     0
  0
BLOCK_RECORD
  5
74
330
1
100
AcDbSymbolTableRecord
100
AcDbBlockTableRecord
  2
*Paper_Space0
340
77
 70
     0
280
     1
281
     0
  0
BLOCK_RECORD
  5
BE
330
1
100
AcDbSymbolTableRecord
100
AcDbBlockTableRecord
  2
_ARDEX_ Fillet - _ARDEX_ Fillet 20mm FOR AW03-579000-AB-02 THRESHOLD AT OPENING
340
0
102
{BLKREFS
331
C9
102
}
 70
     0
280
     1
281
     0
  0
BLOCK_RECORD
  5
CA
330
1
100
AcDbSymbolTableRecord
100
AcDbBlockTableRecord
  2
_ARDEX_ Sealant - _ARDEX_ Sealant - CA20P-549056-AB-02 THRESHOLD AT OPENING
340
0
102
{BLKREFS
331
D6
102
}
 70
     0
280
     1
281
     0
  0
BLOCK_RECORD
  5
D7
330
1
100
AcDbSymbolTableRecord
100
AcDbBlockTableRecord
  2
_ARDEX_ Concrete corner - _ARDEX_ Enclosed deck structure-580273-AB-02 THRESHOLD AT OPENING
340
0
102
{BLKREFS
331
E3
102
}
 70
     0
280
     1
281
     0
  0
BLOCK_RECORD
  5
E4
330
1
100
AcDbSymbolTableRecord
100
AcDbBlockTableRecord
  2
_ARDEX_ Lines - Membrane-580593-AB-02 THRESHOLD AT OPENING
340
0
102
{BLKREFS
331
E8
102
}
 70
     0
280
     1
281
     0
  0
BLOCK_RECORD
  5
E9
330
1
100
AcDbSymbolTableRecord
100
AcDbBlockTableRecord
  2
_ARDEX_ Lining - Various - Polyiso Board 35MM-602862-AB-02 THRESHOLD AT OPENING
340
0
102
{BLKREFS
331
F9
102
}
 70
     0
280
     1
281
     0
  0
BLOCK_RECORD
  5
FA
330
1
100
AcDbSymbolTableRecord
100
AcDbBlockTableRecord
  2
_ARDEX_ Lines - Barrier-578936-AB-02 THRESHOLD AT OPENING
340
0
102
{BLKREFS
331
FE
102
}
 70
     0
280
     1
281
     0
  0
BLOCK_RECORD
  5
FF
330
1
100
AcDbSymbolTableRecord
100
AcDbBlockTableRecord
  2
_ARDEX_ Lines - Barrier-580325-AB-02 THRESHOLD AT OPENING
340
0
102
{BLKREFS
331
103
102
}
 70
     0
280
     1
281
     0
  0
BLOCK_RECORD
  5
104
330
1
100
AcDbSymbolTableRecord
100
AcDbBlockTableRecord
  2
_ARDEX_ Lining - Various - Substrate-603615-AB-02 THRESHOLD AT OPENING
340
0
102
{BLKREFS
331
10A
102
}
 70
     0
280
     1
281
     0
  0
BLOCK_RECORD
  5
10B
330
1
100
AcDbSymbolTableRecord
100
AcDbBlockTableRecord
  2
_ARDEX_ Lines - Membrane-580592-AB-02 THRESHOLD AT OPENING
340
0
102
{BLKREFS
331
10F
102
}
 70
     0
280
     1
281
     0
  0
BLOCK_RECORD
  5
110
330
1
100
AcDbSymbolTableRecord
100
AcDbBlockTableRecord
  2
_ARDEX_ Lines - Membrane-580020-AB-02 THRESHOLD AT OPENING
340
0
102
{BLKREFS
331
114
102
}
 70
     0
280
     1
281
     0
  0
BLOCK_RECORD
  5
115
330
1
100
AcDbSymbolTableRecord
100
AcDbBlockTableRecord
  2
_ARDEX_ Lines - Membrane-580021-AB-02 THRESHOLD AT OPENING
340
0
102
{BLKREFS
331
119
102
}
 70
     0
280
     1
281
     0
  0
BLOCK_RECORD
  5
11A
330
1
100
AcDbSymbolTableRecord
100
AcDbBlockTableRecord
  2
RES Fixed Head _ Jamb _ Sill - RES Fixed Head _ Jamb-547261-AB-02 THRESHOLD AT OPENING
340
0
102
{BLKREFS
331
1FA
102
}
 70
     0
280
     1
281
     0
  0
BLOCK_RECORD
  5
1FB
330
1
100
AcDbSymbolTableRecord
100
AcDbBlockTableRecord
  2
_ARDEX_ Flashing - Sill - _ARDEX_ Sill Flashing-602852-AB-02 THRESHOLD AT OPENING
340
0
102
{BLKREFS
331
20A
102
}
 70
     0
280
     1
281
     0
  0
BLOCK_RECORD
  5
20E
330
1
100
AcDbSymbolTableRecord
100
AcDbBlockTableRecord
  2
_ARDEX_ Framing - Packing-540345-AB-02 THRESHOLD AT OPENING
340
0
102
{BLKREFS
331
216
102
}
 70
     0
280
     1
281
     0
  0
BLOCK_RECORD
  5
219
330
1
100
AcDbSymbolTableRecord
100
AcDbBlockTableRecord
  2
_ARDEX_ Level Manual - _ARDEX_ Level Manual-406101-AB-02 THRESHOLD AT OPENING
340
0
102
{BLKREFS
331
21F
102
}
 70
     0
280
     1
281
     0
  0
BLOCK_RECORD
  5
253
330
1
100
AcDbSymbolTableRecord
100
AcDbBlockTableRecord
  2
_Oblique
340
0
102
{BLKREFS
102
}
 70
     0
280
     1
281
     0
  0
BLOCK_RECORD
  5
25A
330
1
100
AcDbSymbolTableRecord
100
AcDbBlockTableRecord
  2
DIMBLOCK1-AB-02 THRESHOLD AT OPENING
340
0
 70
     0
280
     1
281
     0
  0
BLOCK_RECORD
  5
270
330
1
100
AcDbSymbolTableRecord
100
AcDbBlockTableRecord
  2
_ARDEX_ Landscape Title block - ARDEX Logo_dwg-603482-THRESHOLD AT OPENING
340
0
102
{BLKREFS
331
2FB
102
}
 70
     0
280
     1
281
     0
  0
BLOCK_RECORD
  5
2D3
330
1
100
AcDbSymbolTableRecord
100
AcDbBlockTableRecord
  2
_ARDEX_ Landscape Title block - _ARDEX_ Landscape Title block-333213-THRESHOLD AT OPENING
340
0
102
{BLKREFS
331
2FE
102
}
 70
     0
280
     1
281
     0
  0
ENDTAB
  0
ENDSEC
  0
SECTION
  2
BLOCKS
  0
BLOCK
  5
71
330
70
100
AcDbEntity
  8
0
100
AcDbBlockBegin
  2
*Model_Space
 70
     0
 10
0.0
 20
0.0
 30
0.0
  3
*Model_Space
  1

  0
ENDBLK
  5
72
330
70
100
AcDbEntity
  8
0
100
AcDbBlockEnd
  0
BLOCK
  5
6D
330
6C
100
AcDbEntity
 67
     1
  8
0
100
AcDbBlockBegin
  2
*Paper_Space
 70
     0
 10
0.0
 20
0.0
 30
0.0
  3
*Paper_Space
  1

  0
ENDBLK
  5
6E
330
6C
100
AcDbEntity
 67
     1
  8
0
100
AcDbBlockEnd
  0
BLOCK
  5
75
330
74
100
AcDbEntity
 67
     1
  8
0
100
AcDbBlockBegin
  2
*Paper_Space0
 70
     0
 10
0.0
 20
0.0
 30
0.0
  3
*Paper_Space0
  1

  0
ENDBLK
  5
76
330
74
100
AcDbEntity
 67
     1
  8
0
100
AcDbBlockEnd
  0
BLOCK
  5
C7
330
BE
100
AcDbEntity
  8
0
100
AcDbBlockBegin
  2
_ARDEX_ Fillet - _ARDEX_ Fillet 20mm FOR AW03-579000-AB-02 THRESHOLD AT OPENING
 70
     0
 10
0.0
 20
0.0
 30
0.0
  3
_ARDEX_ Fillet - _ARDEX_ Fillet 20mm FOR AW03-579000-AB-02 THRESHOLD AT OPENING
  1

  0
HATCH
  5
C3
330
BE
100
AcDbEntity
  8
_ARDEX - WELDTEC_
 62
     9
420
 12632256
100
AcDbHatch
 10
0.0
 20
0.0
 30
0.0
210
0.0
220
0.0
230
1.0
  2
SOLID
 70
     1
 71
     0
 91
        1
 92
        1
 93
        4
 72
     1
 10
-19.99999999999704
 20
0.0000000000019627
 11
0.0000000000029772
 21
0.0000000000019627
 72
     1
 10
0.0000000000029779
 20
0.0000000000019627
 11
0.0000000000029779
 21
20.00000000000195
 72
     1
 10
0.0000000000029779
 20
20.00000000000195
 11
-16.29059695243235
 21
3.709403047566652
 72
     1
 10
-16.29059695243235
 20
3.709403047566653
 11
-19.99999999999704
 21
0.0000000000019629
 97
        0
 75
     0
 76
     1
 98
        1
 10
0.0
 20
0.0
450
        0
451
        0
460
0.0
461
0.0
452
        0
462
0.0
453
        0
470

1001
REVIT
1002
{
1070
     1
1000
407675
1002
}
1002
{
1070
     5
1000
579000
1002
}
  0
LINE
  5
C5
330
BE
100
AcDbEntity
  8
_ARDEX - BUTYNOL_
100
AcDbLine
 10
-1.999999999999761
 20
0.0
 30
0.0
 11
0.0
 21
0.0
 31
0.0
1001
REVIT
1002
{
1070
     1
1000
407675
1002
}
1002
{
1070
     5
1000
579000
1002
}
1002
{
1070
     3
1000
335610
1002
}
  0
LINE
  5
C6
330
BE
100
AcDbEntity
  8
_ARDEX - BUTYNOL_
100
AcDbLine
 10
0.0
 20
20.0
 30
0.0
 11
-20.0
 21
0.0
 31
0.0
1001
REVIT
1002
{
1070
     1
1000
407675
1002
}
1002
{
1070
     5
1000
579000
1002
}
1002
{
1070
     3
1000
335610
1002
}
  0
ENDBLK
  5
C8
330
BE
100
AcDbEntity
  8
0
100
AcDbBlockEnd
  0
BLOCK
  5
D4
330
CA
100
AcDbEntity
  8
0
100
AcDbBlockBegin
  2
_ARDEX_ Sealant - _ARDEX_ Sealant - CA20P-549056-AB-02 THRESHOLD AT OPENING
 70
     0
 10
0.0
 20
0.0
 30
0.0
  3
_ARDEX_ Sealant - _ARDEX_ Sealant - CA20P-549056-AB-02 THRESHOLD AT OPENING
  1

  0
HATCH
  5
CF
330
CA
100
AcDbEntity
  8
_ARDEX - WELDTEC_
 62
     8
420
  7434356
100
AcDbHatch
 10
0.0
 20
0.0
 30
0.0
210
0.0
220
0.0
230
1.0
  2
SOLID
 70
     1
 71
     0
 91
        1
 92
        1
 93
        4
 72
     1
 10
0.0000000000029102
 20
0.0000000000020642
 11
0.0000000000029102
 21
4.016545267655561
 72
     1
 10
0.0000000000029102
 20
4.016545267655561
 11
-9.025631926090392
 21
4.016545267655561
 72
     1
 10
-9.025631926090392
 20
4.016545267655561
 11
-9.025631926090392
 21
0.0000000000020641
 72
     1
 10
-9.025631926090392
 20
0.0000000000020642
 11
0.0000000000029097
 21
0.0000000000020642
 97
        0
 75
     0
 76
     1
 98
        1
 10
0.0
 20
0.0
450
        0
451
        0
460
0.0
461
0.0
452
        0
462
0.0
453
        0
470

1001
REVIT
1002
{
1070
     1
1000
548877
1002
}
1002
{
1070
     5
1000
474001
1002
}
  0
LINE
  5
D0
330
CA
100
AcDbEntity
  8
_ARDEX - BUTYNOL_
100
AcDbLine
 10
-9.025631926093298
 20
0.0
 30
0.0
 11
0.0
 21
0.0
 31
0.0
1001
REVIT
1002
{
1070
     1
1000
548877
1002
}
1002
{
1070
     5
1000
474001
1002
}
1002
{
1070
     3
1000
335610
1002
}
  0
LINE
  5
D1
330
CA
100
AcDbEntity
  8
_ARDEX - BUTYNOL_
100
AcDbLine
 10
0.0
 20
0.0
 30
0.0
 11
0.0
 21
4.01654526765352
 31
0.0
1001
REVIT
1002
{
1070
     1
1000
548877
1002
}
1002
{
1070
     5
1000
474001
1002
}
1002
{
1070
     3
1000
335610
1002
}
  0
LINE
  5
D2
330
CA
100
AcDbEntity
  8
_ARDEX - BUTYNOL_
100
AcDbLine
 10
0.0
 20
4.01654526765352
 30
0.0
 11
-9.025631926093298
 21
4.01654526765352
 31
0.0
1001
REVIT
1002
{
1070
     1
1000
548877
1002
}
1002
{
1070
     5
1000
474001
1002
}
1002
{
1070
     3
1000
335610
1002
}
  0
LINE
  5
D3
330
CA
100
AcDbEntity
  8
_ARDEX - BUTYNOL_
100
AcDbLine
 10
-9.025631926093298
 20
4.01654526765352
 30
0.0
 11
-9.025631926093298
 21
0.0
 31
0.0
1001
REVIT
1002
{
1070
     1
1000
548877
1002
}
1002
{
1070
     5
1000
474001
1002
}
1002
{
1070
     3
1000
335610
1002
}
  0
ENDBLK
  5
D5
330
CA
100
AcDbEntity
  8
0
100
AcDbBlockEnd
  0
BLOCK
  5
E1
330
D7
100
AcDbEntity
  8
0
100
AcDbBlockBegin
  2
_ARDEX_ Concrete corner - _ARDEX_ Enclosed deck structure-580273-AB-02 THRESHOLD AT OPENING
 70
     0
 10
0.0
 20
0.0
 30
0.0
  3
_ARDEX_ Concrete corner - _ARDEX_ Enclosed deck structure-580273-AB-02 THRESHOLD AT OPENING
  1

  0
HATCH
  5
DD
330
D7
100
AcDbEntity
  8
_ARDEX - WELDTEC_
 62
   254
420
 14803425
100
AcDbHatch
 10
0.0
 20
0.0
 30
0.0
210
0.0
220
0.0
230
1.0
  2
SOLID
 70
     1
 71
     0
 91
        1
 92
        1
 93
        5
 72
     1
 10
0.0000000000028425
 20
-51.99999999999799
 11
228.3685624517926
 21
-51.99999999999786
 72
     1
 10
228.3685624517926
 20
-51.99999999999786
 11
228.3685624517926
 21
103.000000000002
 72
     1
 10
228.3685624517926
 20
103.000000000002
 11
0.0000000000029843
 21
103.000000000002
 72
     1
 10
0.0000000000029779
 20
103.000000000002
 11
0.0000000000028425
 21
-34.03234028539861
 72
     1
 10
0.0000000000028425
 20
-34.0323402853986
 11
0.0000000000028425
 21
-51.99999999999799
 97
        0
 75
     0
 76
     1
 98
        1
 10
0.0
 20
0.0
450
        0
451
        0
460
0.0
461
0.0
452
        0
462
0.0
453
        0
470

1001
REVIT
1002
{
1070
     1
1000
579953
1002
}
1002
{
1070
     5
1000
404702
1002
}
  0
LINE
  5
DE
330
D7
100
AcDbEntity
  8
_ARDEX - BUTYNOL_
370
    50
100
AcDbLine
 10
-0.0000000000001438
 20
0.0
 30
0.0
 11
-0.0000000000001438
 21
-34.03234028540105
 31
0.0
1001
REVIT
1002
{
1070
     1
1000
579953
1002
}
1002
{
1070
     5
1000
404702
1002
}
1002
{
1070
     3
1000
335612
1002
}
  0
LINE
  5
DF
330
D7
100
AcDbEntity
  8
_ARDEX - BUTYNOL_
370
    50
100
AcDbLine
 10
0.0
 20
103.0
 30
0.0
 11
0.0
 21
0.0
 31
0.0
1001
REVIT
1002
{
1070
     1
1000
579953
1002
}
1002
{
1070
     5
1000
404702
1002
}
1002
{
1070
     3
1000
335612
1002
}
  0
LINE
  5
E0
330
D7
100
AcDbEntity
  8
_ARDEX - BUTYNOL_
370
    50
100
AcDbLine
 10
0.0
 20
103.0
 30
0.0
 11
228.3685624517897
 21
103.0
 31
0.0
1001
REVIT
1002
{
1070
     1
1000
579953
1002
}
1002
{
1070
     5
1000
404702
1002
}
1002
{
1070
     3
1000
335612
1002
}
  0
ENDBLK
  5
E2
330
D7
100
AcDbEntity
  8
0
100
AcDbBlockEnd
  0
BLOCK
  5
E6
330
E4
100
AcDbEntity
  8
0
100
AcDbBlockBegin
  2
_ARDEX_ Lines - Membrane-580593-AB-02 THRESHOLD AT OPENING
 70
     0
 10
0.0
 20
0.0
 30
0.0
  3
_ARDEX_ Lines - Membrane-580593-AB-02 THRESHOLD AT OPENING
  1

  0
LINE
  5
E5
330
E4
100
AcDbEntity
  8
_ARDEX - BUTYNOL_
  6
Dash
370
   100
100
AcDbLine
 10
177.287806818042
 20
0.0
 30
0.0
 11
-0.0000000000027072
 21
0.0
 31
0.0
1001
REVIT
1002
{
1070
     1
1000
579955
1002
}
1002
{
1070
     5
1000
569180
1002
}
1002
{
1070
     3
1000
352413
1002
}
  0
ENDBLK
  5
E7
330
E4
100
AcDbEntity
  8
0
100
AcDbBlockEnd
  0
BLOCK
  5
F7
330
E9
100
AcDbEntity
  8
0
100
AcDbBlockBegin
  2
_ARDEX_ Lining - Various - Polyiso Board 35MM-602862-AB-02 THRESHOLD AT OPENING
 70
     0
 10
0.0
 20
0.0
 30
0.0
  3
_ARDEX_ Lining - Various - Polyiso Board 35MM-602862-AB-02 THRESHOLD AT OPENING
  1

  0
HATCH
  5
EE
330
E9
100
AcDbEntity
  8
_ARDEX - WELDTEC_
 62
   254
420
 14737632
100
AcDbHatch
 10
0.0
 20
0.0
 30
0.0
210
0.0
220
0.0
230
1.0
  2
SOLID
 70
     1
 71
     0
 91
        1
 92
        1
 93
        4
 72
     1
 10
196.0000000000031
 20
-31.99999999999807
 11
196.0000000000031
 21
0.0000000000047358
 72
     1
 10
196.0000000000031
 20
0.0000000000047375
 11
0.0000000000031264
 21
0.0000000000047375
 72
     1
 10
0.0000000000031302
 20
0.0000000000047375
 11
0.0000000000031302
 21
-31.99999999999807
 72
     1
 10
0.0000000000031302
 20
-31.99999999999807
 11
196.0000000000031
 21
-31.99999999999807
 97
        0
 75
     0
 76
     1
 98
        1
 10
0.0
 20
0.0
450
        0
451
        0
460
0.0
461
0.0
452
        0
462
0.0
453
        0
470

1001
REVIT
1002
{
1070
     1
1000
579956
1002
}
1002
{
1070
     5
1000
569182
1002
}
  0
HATCH
  5
F3
330
E9
100
AcDbEntity
  8
_ARDEX - WELDTEC_
 62
     8
420
  8421504
100
AcDbHatch
 10
0.0
 20
0.0
 30
0.0
210
0.0
220
0.0
230
1.0
  2
FP_1
 70
     0
 71
     0
 91
        1
 92
        1
 93
        4
 72
     1
 10
196.0000000000031
 20
-31.99999999999807
 11
196.0000000000031
 21
0.0000000000047358
 72
     1
 10
196.0000000000031
 20
0.0000000000047375
 11
0.0000000000031264
 21
0.0000000000047375
 72
     1
 10
0.0000000000031302
 20
0.0000000000047375
 11
0.0000000000031302
 21
-31.99999999999807
 72
     1
 10
0.0000000000031302
 20
-31.99999999999807
 11
196.0000000000031
 21
-31.99999999999807
 97
        0
 75
     0
 76
     2
 52
0.0
 41
1.0
 77
     0
 78
     1
 53
135.0
 43
-3434.438
 44
-2359.947
 45
-2.82842712474619
 46
-2.828427124746189
 79
     0
 98
        1
 10
0.0
 20
0.0
1001
REVIT
1002
{
1070
     1
1000
579956
1002
}
1002
{
1070
     5
1000
569182
1002
}
  0
LINE
  5
F4
330
E9
100
AcDbEntity
  8
_ARDEX - BUTYNOL_
100
AcDbLine
 10
195.9999999999998
 20
0.0
 30
0.0
 11
195.9999999999998
 21
-32.0
 31
0.0
1001
REVIT
1002
{
1070
     1
1000
579956
1002
}
1002
{
1070
     5
1000
569182
1002
}
1002
{
1070
     3
1000
335610
1002
}
  0
LINE
  5
F5
330
E9
100
AcDbEntity
  8
_ARDEX - BUTYNOL_
100
AcDbLine
 10
0.0
 20
-32.0
 30
0.0
 11
195.9999999999998
 21
-32.0
 31
0.0
1001
REVIT
1002
{
1070
     1
1000
579956
1002
}
1002
{
1070
     5
1000
569182
1002
}
1002
{
1070
     3
1000
335610
1002
}
  0
LINE
  5
F6
330
E9
100
AcDbEntity
  8
_ARDEX - BUTYNOL_
100
AcDbLine
 10
0.0
 20
0.0
 30
0.0
 11
195.9999999999998
 21
0.0
 31
0.0
1001
REVIT
1002
{
1070
     1
1000
579956
1002
}
1002
{
1070
     5
1000
569182
1002
}
1002
{
1070
     3
1000
335610
1002
}
  0
ENDBLK
  5
F8
330
E9
100
AcDbEntity
  8
0
100
AcDbBlockEnd
  0
BLOCK
  5
FC
330
FA
100
AcDbEntity
  8
0
100
AcDbBlockBegin
  2
_ARDEX_ Lines - Barrier-578936-AB-02 THRESHOLD AT OPENING
 70
     0
 10
0.0
 20
0.0
 30
0.0
  3
_ARDEX_ Lines - Barrier-578936-AB-02 THRESHOLD AT OPENING
  1

  0
LINE
  5
FB
330
FA
100
AcDbEntity
  8
_ARDEX - BUTYNOL_
  6
Dash
370
    50
100
AcDbLine
 10
197.0860175180174
 20
0.0
 30
0.0
 11
-0.0000000000024365
 21
0.0
 31
0.0
1001
REVIT
1002
{
1070
     1
1000
579957
1002
}
1002
{
1070
     5
1000
569184
1002
}
1002
{
1070
     3
1000
342012
1002
}
  0
ENDBLK
  5
FD
330
FA
100
AcDbEntity
  8
0
100
AcDbBlockEnd
  0
BLOCK
  5
101
330
FF
100
AcDbEntity
  8
0
100
AcDbBlockBegin
  2
_ARDEX_ Lines - Barrier-580325-AB-02 THRESHOLD AT OPENING
 70
     0
 10
0.0
 20
0.0
 30
0.0
  3
_ARDEX_ Lines - Barrier-580325-AB-02 THRESHOLD AT OPENING
  1

  0
LINE
  5
100
330
FF
100
AcDbEntity
  8
_ARDEX - BUTYNOL_
  6
Dash
370
    50
100
AcDbLine
 10
32.99558606872159
 20
0.0
 30
0.0
 11
-0.0000000000024365
 21
0.0
 31
0.0
1001
REVIT
1002
{
1070
     1
1000
579958
1002
}
1002
{
1070
     5
1000
569184
1002
}
1002
{
1070
     3
1000
342012
1002
}
  0
ENDBLK
  5
102
330
FF
100
AcDbEntity
  8
0
100
AcDbBlockEnd
  0
BLOCK
  5
108
330
104
100
AcDbEntity
  8
0
100
AcDbBlockBegin
  2
_ARDEX_ Lining - Various - Substrate-603615-AB-02 THRESHOLD AT OPENING
 70
     0
 10
0.0
 20
0.0
 30
0.0
  3
_ARDEX_ Lining - Various - Substrate-603615-AB-02 THRESHOLD AT OPENING
  1

  0
LINE
  5
105
330
104
100
AcDbEntity
  8
_ARDEX - BUTYNOL_
370
     9
100
AcDbLine
 10
197.9999999999999
 20
0.0
 30
0.0
 11
197.9999999999999
 21
18.0
 31
0.0
1001
REVIT
1002
{
1070
     1
1000
579959
1002
}
1002
{
1070
     5
1000
569186
1002
}
1002
{
1070
     3
1000
335606
1002
}
  0
LINE
  5
106
330
104
100
AcDbEntity
  8
_ARDEX - BUTYNOL_
370
     9
100
AcDbLine
 10
0.0
 20
18.0
 30
0.0
 11
197.9999999999999
 21
18.0
 31
0.0
1001
REVIT
1002
{
1070
     1
1000
579959
1002
}
1002
{
1070
     5
1000
569186
1002
}
1002
{
1070
     3
1000
335606
1002
}
  0
LINE
  5
107
330
104
100
AcDbEntity
  8
_ARDEX - BUTYNOL_
370
     9
100
AcDbLine
 10
0.0
 20
0.0
 30
0.0
 11
197.9999999999999
 21
0.0
 31
0.0
1001
REVIT
1002
{
1070
     1
1000
579959
1002
}
1002
{
1070
     5
1000
569186
1002
}
1002
{
1070
     3
1000
335606
1002
}
  0
ENDBLK
  5
109
330
104
100
AcDbEntity
  8
0
100
AcDbBlockEnd
  0
BLOCK
  5
10D
330
10B
100
AcDbEntity
  8
0
100
AcDbBlockBegin
  2
_ARDEX_ Lines - Membrane-580592-AB-02 THRESHOLD AT OPENING
 70
     0
 10
0.0
 20
0.0
 30
0.0
  3
_ARDEX_ Lines - Membrane-580592-AB-02 THRESHOLD AT OPENING
  1

  0
LINE
  5
10C
330
10B
100
AcDbEntity
  8
_ARDEX - BUTYNOL_
  6
Dash
370
   100
100
AcDbLine
 10
24.85584412271304
 20
0.0
 30
0.0
 11
-0.0000000000027072
 21
0.0
 31
0.0
1001
REVIT
1002
{
1070
     1
1000
407676
1002
}
1002
{
1070
     5
1000
569180
1002
}
1002
{
1070
     3
1000
352413
1002
}
  0
ENDBLK
  5
10E
330
10B
100
AcDbEntity
  8
0
100
AcDbBlockEnd
  0
BLOCK
  5
112
330
110
100
AcDbEntity
  8
0
100
AcDbBlockBegin
  2
_ARDEX_ Lines - Membrane-580020-AB-02 THRESHOLD AT OPENING
 70
     0
 10
0.0
 20
0.0
 30
0.0
  3
_ARDEX_ Lines - Membrane-580020-AB-02 THRESHOLD AT OPENING
  1

  0
LINE
  5
111
330
110
100
AcDbEntity
  8
_ARDEX - BUTYNOL_
  6
Dash
370
   100
100
AcDbLine
 10
83.42426406870989
 20
0.0
 30
0.0
 11
-0.0000000000027072
 21
0.0
 31
0.0
1001
REVIT
1002
{
1070
     1
1000
407679
1002
}
1002
{
1070
     5
1000
569180
1002
}
1002
{
1070
     3
1000
352413
1002
}
  0
ENDBLK
  5
113
330
110
100
AcDbEntity
  8
0
100
AcDbBlockEnd
  0
BLOCK
  5
117
330
115
100
AcDbEntity
  8
0
100
AcDbBlockBegin
  2
_ARDEX_ Lines - Membrane-580021-AB-02 THRESHOLD AT OPENING
 70
     0
 10
0.0
 20
0.0
 30
0.0
  3
_ARDEX_ Lines - Membrane-580021-AB-02 THRESHOLD AT OPENING
  1

  0
LINE
  5
116
330
115
100
AcDbEntity
  8
_ARDEX - BUTYNOL_
  6
Dash
370
   100
100
AcDbLine
 10
95.0145738421086
 20
0.0
 30
0.0
 11
-0.0000000000027072
 21
0.0
 31
0.0
1001
REVIT
1002
{
1070
     1
1000
453742
1002
}
1002
{
1070
     5
1000
569180
1002
}
1002
{
1070
     3
1000
352413
1002
}
  0
ENDBLK
  5
118
330
115
100
AcDbEntity
  8
0
100
AcDbBlockEnd
  0
BLOCK
  5
1F8
330
11A
100
AcDbEntity
  8
0
100
AcDbBlockBegin
  2
RES Fixed Head _ Jamb _ Sill - RES Fixed Head _ Jamb-547261-AB-02 THRESHOLD AT OPENING
 70
     0
 10
0.0
 20
0.0
 30
0.0
  3
RES Fixed Head _ Jamb _ Sill - RES Fixed Head _ Jamb-547261-AB-02 THRESHOLD AT OPENING
  1

  0
HATCH
  5
11F
330
11A
100
AcDbEntity
  8
_ARDEX - WELDTEC_
100
AcDbHatch
 10
0.0
 20
0.0
 30
0.0
210
0.0
220
0.0
230
1.0
  2
FP_2
 70
     0
 71
     0
 91
        1
 92
        1
 93
        4
 72
     1
 10
123.0500000000045
 20
-21.6001635563821
 11
123.0500000000046
 21
-2.600163556382252
 72
     1
 10
123.0500000000046
 20
-2.600163556382254
 11
53.05000000000466
 21
-2.600163556382017
 72
     1
 10
53.05000000000466
 20
-2.600163556382017
 11
53.05000000000445
 21
-21.60016355638186
 72
     1
 10
53.05000000000445
 20
-21.60016355638186
 11
123.0500000000045
 21
-21.6001635563821
 97
        0
 75
     0
 76
     2
 52
0.0
 41
1.0
 77
     0
 78
     3
 53
216.87
 43
-3598.822000000001
 44
-2480.347
 45
38.09995462494677
 46
25.40006806244813
 79
     2
 49
6.349999999999999
 49
-57.14999999999999
 53
206.565
 43
-3591.202000000001
 44
-2484.157
 45
-12.69998302912501
 46
-12.70040755487542
 79
     2
 49
14.199
 49
-14.199
 53
198.435
 43
-3591.202000000001
 44
-2490.507
 45
-25.40035150599142
 46
-12.70004599881748
 79
     2
 49
8.031999999999998
 49
-32.12899999999999
 98
        1
 10
0.0
 20
0.0
1001
REVIT
1002
{
1070
     1
1000
458783
1002
}
1002
{
1070
     5
1000
458781
1002
}
  0
LINE
  5
120
330
11A
100
AcDbEntity
  8
_ARDEX - BUTYNOL_
370
     9
100
AcDbLine
 10
53.05000000000142
 20
-2.600163556384079
 30
0.0
 11
53.05000000000133
 21
-21.60016355638392
 31
0.0
1001
REVIT
1002
{
1070
     1
1000
458783
1002
}
1002
{
1070
     5
1000
458781
1002
}
1002
{
1070
     3
1000
411603
1002
}
  0
LINE
  5
121
330
11A
100
AcDbEntity
  8
_ARDEX - BUTYNOL_
370
     9
100
AcDbLine
 10
53.0500000000012
 20
-21.60016355638392
 30
0.0
 11
123.0500000000012
 21
-21.60016355638415
 31
0.0
1001
REVIT
1002
{
1070
     1
1000
458783
1002
}
1002
{
1070
     5
1000
458781
1002
}
1002
{
1070
     3
1000
411603
1002
}
  0
LINE
  5
122
330
11A
100
AcDbEntity
  8
_ARDEX - BUTYNOL_
370
     9
100
AcDbLine
 10
123.0500000000012
 20
-21.60016355638415
 30
0.0
 11
123.0500000000013
 21
-2.600163556384312
 31
0.0
1001
REVIT
1002
{
1070
     1
1000
458783
1002
}
1002
{
1070
     5
1000
458781
1002
}
1002
{
1070
     3
1000
411603
1002
}
  0
LINE
  5
123
330
11A
100
AcDbEntity
  8
_ARDEX - BUTYNOL_
370
     9
100
AcDbLine
 10
123.0500000000013
 20
-2.600163556384312
 30
0.0
 11
53.05000000000126
 21
-2.600163556384079
 31
0.0
1001
REVIT
1002
{
1070
     1
1000
458783
1002
}
1002
{
1070
     5
1000
458781
1002
}
1002
{
1070
     3
1000
411603
1002
}
  0
LINE
  5
124
330
11A
100
AcDbEntity
  8
_ARDEX - WELDTEC_
100
AcDbLine
 10
123.0500000000013
 20
-2.600163556384312
 30
0.0
 11
53.05000000000127
 21
-2.600163556384079
 31
0.0
1001
REVIT
1002
{
1070
     1
1000
458783
1002
}
1002
{
1070
     5
1000
458781
1002
}
  0
LINE
  5
125
330
11A
100
AcDbEntity
  8
_ARDEX - WELDTEC_
100
AcDbLine
 10
53.05000000000142
 20
-2.600163556384079
 30
0.0
 11
53.05000000000133
 21
-21.60016355638392
 31
0.0
1001
REVIT
1002
{
1070
     1
1000
458783
1002
}
1002
{
1070
     5
1000
458781
1002
}
  0
LINE
  5
126
330
11A
100
AcDbEntity
  8
_ARDEX - WELDTEC_
100
AcDbLine
 10
53.0500000000012
 20
-21.60016355638392
 30
0.0
 11
123.0500000000012
 21
-21.60016355638415
 31
0.0
1001
REVIT
1002
{
1070
     1
1000
458783
1002
}
1002
{
1070
     5
1000
458781
1002
}
  0
LINE
  5
127
330
11A
100
AcDbEntity
  8
_ARDEX - WELDTEC_
100
AcDbLine
 10
123.0500000000012
 20
-21.60016355638415
 30
0.0
 11
123.0500000000013
 21
-2.600163556384312
 31
0.0
1001
REVIT
1002
{
1070
     1
1000
458783
1002
}
1002
{
1070
     5
1000
458781
1002
}
  0
ARC
  5
128
330
11A
100
AcDbEntity
  8
_ARDEX - BUTYNOL_
370
     9
100
AcDbCircle
 10
48.25000399484566
 20
-10.37515982234824
 30
0.0
 40
1.525003812244544
100
AcDbArc
 50
52.0323599344496
 51
127.9676400654708
1001
REVIT
1002
{
1070
     1
1000
458783
1002
}
1002
{
1070
     5
1000
458781
1002
}
1002
{
1070
     3
1000
411603
1002
}
  0
ARC
  5
129
330
11A
100
AcDbEntity
  8
_ARDEX - BUTYNOL_
370
     9
100
AcDbCircle
 10
46.79655426922404
 20
-8.512661727504671
 30
0.0
 40
0.8374980942532193
100
AcDbArc
 50
281.9722404321598
 51
307.9676400654704
1001
REVIT
1002
{
1070
     1
1000
458783
1002
}
1002
{
1070
     5
1000
458781
1002
}
1002
{
1070
     3
1000
411603
1002
}
  0
ARC
  5
12A
330
11A
100
AcDbEntity
  8
_ARDEX - BUTYNOL_
370
     9
100
AcDbCircle
 10
47.07400187518957
 20
-9.821066855160594
 30
0.0
 40
0.5000000000005026
100
AcDbArc
 50
101.9722404321609
 51
154.7717506715013
1001
REVIT
1002
{
1070
     1
1000
458783
1002
}
1002
{
1070
     5
1000
458781
1002
}
1002
{
1070
     3
1000
411603
1002
}
  0
ARC
  5
12B
330
11A
100
AcDbEntity
  8
_ARDEX - BUTYNOL_
370
     9
100
AcDbCircle
 10
48.2500039948457
 20
-10.37515982234816
 30
0.0
 40
1.800000000662985
100
AcDbArc
 50
154.7717506715011
 51
205.2282493285303
1001
REVIT
1002
{
1070
     1
1000
458783
1002
}
1002
{
1070
     5
1000
458781
1002
}
1002
{
1070
     3
1000
411603
1002
}
  0
ARC
  5
12C
330
11A
100
AcDbEntity
  8
_ARDEX - BUTYNOL_
370
     9
100
AcDbCircle
 10
47.07400187518963
 20
-10.9292527895365
 30
0.0
 40
0.5000000000002309
100
AcDbArc
 50
205.2282493285304
 51
258.027759567912
1001
REVIT
1002
{
1070
     1
1000
458783
1002
}
1002
{
1070
     5
1000
458781
1002
}
1002
{
1070
     3
1000
411603
1002
}
  0
ARC
  5
12D
330
11A
100
AcDbEntity
  8
_ARDEX - BUTYNOL_
370
     9
100
AcDbCircle
 10
46.79655426922582
 20
-12.23765791719246
 30
0.0
 40
0.8374980942531559
100
AcDbArc
 50
52.03235993457345
 51
78.02775956791252
1001
REVIT
1002
{
1070
     1
1000
458783
1002
}
1002
{
1070
     5
1000
458781
1002
}
1002
{
1070
     3
1000
411603
1002
}
  0
ARC
  5
12E
330
11A
100
AcDbEntity
  8
_ARDEX - BUTYNOL_
370
     9
100
AcDbCircle
 10
48.25000399484576
 20
-10.37515982234808
 30
0.0
 40
1.525003812244204
100
AcDbArc
 50
232.0323599345733
 51
307.967640065543
1001
REVIT
1002
{
1070
     1
1000
458783
1002
}
1002
{
1070
     5
1000
458781
1002
}
1002
{
1070
     3
1000
411603
1002
}
  0
ARC
  5
12F
330
11A
100
AcDbEntity
  8
_ARDEX - BUTYNOL_
370
     9
100
AcDbCircle
 10
49.70345372000717
 20
-12.23765791659705
 30
0.0
 40
0.8374980935016605
100
AcDbArc
 50
19.09279059247625
 51
127.967640065543
1001
REVIT
1002
{
1070
     1
1000
458783
1002
}
1002
{
1070
     5
1000
458781
1002
}
1002
{
1070
     3
1000
411603
1002
}
  0
ARC
  5
130
330
11A
100
AcDbEntity
  8
_ARDEX - BUTYNOL_
370
     9
100
AcDbCircle
 10
50.96737614746744
 20
-11.8001636337914
 30
0.0
 40
0.5000000000015135
100
AcDbArc
 50
199.0927905924761
 51
269.9999999999997
1001
REVIT
1002
{
1070
     1
1000
458783
1002
}
1002
{
1070
     5
1000
458781
1002
}
1002
{
1070
     3
1000
411603
1002
}
  0
LINE
  5
131
330
11A
100
AcDbEntity
  8
_ARDEX - BUTYNOL_
370
     9
100
AcDbLine
 10
51.65000000000145
 20
-12.30016363381805
 30
0.0
 11
50.96737614746744
 21
-12.30016363381805
 31
0.0
1001
REVIT
1002
{
1070
     1
1000
458783
1002
}
1002
{
1070
     5
1000
458781
1002
}
1002
{
1070
     3
1000
411603
1002
}
  0
LINE
  5
132
330
11A
100
AcDbEntity
  8
_ARDEX - BUTYNOL_
370
     9
100
AcDbLine
 10
53.05000000000148
 20
-21.60016355638392
 30
0.0
 11
53.05000000000148
 21
-13.70016363381804
 31
0.0
1001
REVIT
1002
{
1070
     1
1000
458783
1002
}
1002
{
1070
     5
1000
458781
1002
}
1002
{
1070
     3
1000
411603
1002
}
  0
LINE
  5
133
330
11A
100
AcDbEntity
  8
_ARDEX - BUTYNOL_
370
     9
100
AcDbLine
 10
62.349997
 20
-21.60016355638392
 30
0.0
 11
53.05000000000148
 21
-21.60016355638392
 31
0.0
1001
REVIT
1002
{
1070
     1
1000
458783
1002
}
1002
{
1070
     5
1000
458781
1002
}
1002
{
1070
     3
1000
411603
1002
}
  0
LINE
  5
134
330
11A
100
AcDbEntity
  8
_ARDEX - BUTYNOL_
370
     9
100
AcDbLine
 10
60.54999999999997
 20
-23.00016355638407
 30
0.0
 11
62.349997
 21
-23.00016355638407
 31
0.0
1001
REVIT
1002
{
1070
     1
1000
458783
1002
}
1002
{
1070
     5
1000
458781
1002
}
1002
{
1070
     3
1000
411603
1002
}
  0
LINE
  5
135
330
11A
100
AcDbEntity
  8
_ARDEX - BUTYNOL_
370
     9
100
AcDbLine
 10
60.15000000000013
 20
-22.60016355638425
 30
0.0
 11
60.54999999999997
 21
-23.00016355638407
 31
0.0
1001
REVIT
1002
{
1070
     1
1000
458783
1002
}
1002
{
1070
     5
1000
458781
1002
}
1002
{
1070
     3
1000
411603
1002
}
  0
LINE
  5
136
330
11A
100
AcDbEntity
  8
_ARDEX - BUTYNOL_
370
     9
100
AcDbLine
 10
52.74992578529927
 20
-22.60016355638425
 30
0.0
 11
60.15000000000013
 21
-22.60016355638425
 31
0.0
1001
REVIT
1002
{
1070
     1
1000
458783
1002
}
1002
{
1070
     5
1000
458781
1002
}
1002
{
1070
     3
1000
411603
1002
}
  0
LINE
  5
137
330
11A
100
AcDbEntity
  8
_ARDEX - BUTYNOL_
370
     9
100
AcDbLine
 10
51.74992578529925
 20
-13.70016355638426
 30
0.0
 11
51.74992578529925
 21
-21.60016355638425
 31
0.0
1001
REVIT
1002
{
1070
     1
1000
458783
1002
}
1002
{
1070
     5
1000
458781
1002
}
1002
{
1070
     3
1000
411603
1002
}
  0
LINE
  5
138
330
11A
100
AcDbEntity
  8
_ARDEX - BUTYNOL_
370
     9
100
AcDbLine
 10
45.15905615362004
 20
-13.70016355638426
 30
0.0
 11
51.74992578529925
 21
-13.70016355638426
 31
0.0
1001
REVIT
1002
{
1070
     1
1000
458783
1002
}
1002
{
1070
     5
1000
458781
1002
}
1002
{
1070
     3
1000
411603
1002
}
  0
LINE
  5
139
330
11A
100
AcDbEntity
  8
_ARDEX - BUTYNOL_
370
     9
100
AcDbLine
 10
44.95905615362011
 20
-8.850163556384302
 30
0.0
 11
44.95905615362011
 21
-13.50016355638426
 31
0.0
1001
REVIT
1002
{
1070
     1
1000
458783
1002
}
1002
{
1070
     5
1000
458781
1002
}
1002
{
1070
     3
1000
411603
1002
}
  0
LINE
  5
13A
330
11A
100
AcDbEntity
  8
_ARDEX - BUTYNOL_
370
     9
100
AcDbLine
 10
36.09999999999796
 20
-8.35016355638433
 30
0.0
 11
44.4590561536201
 21
-8.35016355638433
 31
0.0
1001
REVIT
1002
{
1070
     1
1000
458783
1002
}
1002
{
1070
     5
1000
458781
1002
}
1002
{
1070
     3
1000
411603
1002
}
  0
LINE
  5
13B
330
11A
100
AcDbEntity
  8
_ARDEX - BUTYNOL_
370
     9
100
AcDbLine
 10
35.09999999999794
 20
-11.0001635588603
 30
0.0
 11
35.09999999999794
 21
-9.350163556384332
 31
0.0
1001
REVIT
1002
{
1070
     1
1000
458783
1002
}
1002
{
1070
     5
1000
458781
1002
}
1002
{
1070
     3
1000
411603
1002
}
  0
LINE
  5
13C
330
11A
100
AcDbEntity
  8
_ARDEX - BUTYNOL_
370
     9
100
AcDbLine
 10
18.39899999999874
 20
-12.40016355886026
 30
0.0
 11
33.69999999999793
 21
-12.40016355886026
 31
0.0
1001
REVIT
1002
{
1070
     1
1000
458783
1002
}
1002
{
1070
     5
1000
458781
1002
}
1002
{
1070
     3
1000
411603
1002
}
  0
LINE
  5
13D
330
11A
100
AcDbEntity
  8
_ARDEX - BUTYNOL_
370
     9
100
AcDbLine
 10
17.89899999999875
 20
-14.55016355884199
 30
0.0
 11
17.89899999999875
 21
-12.90016355886027
 31
0.0
1001
REVIT
1002
{
1070
     1
1000
458783
1002
}
1002
{
1070
     5
1000
458781
1002
}
1002
{
1070
     3
1000
411603
1002
}
  0
LINE
  5
13E
330
11A
100
AcDbEntity
  8
_ARDEX - BUTYNOL_
370
     9
100
AcDbLine
 10
1.900000000000075
 20
-15.95016355884199
 30
0.0
 11
16.49899999999873
 21
-15.95016355884199
 31
0.0
1001
REVIT
1002
{
1070
     1
1000
458783
1002
}
1002
{
1070
     5
1000
458781
1002
}
1002
{
1070
     3
1000
411603
1002
}
  0
LINE
  5
13F
330
11A
100
AcDbEntity
  8
_ARDEX - BUTYNOL_
370
     9
100
AcDbLine
 10
1.400000000000087
 20
-22.60752287173992
 30
0.0
 11
1.400000000000087
 21
-16.45016355884198
 31
0.0
1001
REVIT
1002
{
1070
     1
1000
458783
1002
}
1002
{
1070
     5
1000
458781
1002
}
1002
{
1070
     3
1000
411603
1002
}
  0
LINE
  5
140
330
11A
100
AcDbEntity
  8
_ARDEX - BUTYNOL_
370
     9
100
AcDbLine
 10
-3.631370849898438
 20
-29.46143339608006
 30
0.0
 11
0.1112698372208853
 21
-25.71879270896071
 31
0.0
1001
REVIT
1002
{
1070
     1
1000
458783
1002
}
1002
{
1070
     5
1000
458781
1002
}
1002
{
1070
     3
1000
411603
1002
}
  0
LINE
  5
141
330
11A
100
AcDbEntity
  8
_ARDEX - BUTYNOL_
370
     9
100
AcDbLine
 10
-4.099999999999948
 20
-39.34251902783979
 30
0.0
 11
-4.099999999999948
 21
-30.59280424597851
 31
0.0
1001
REVIT
1002
{
1070
     1
1000
458783
1002
}
1002
{
1070
     5
1000
458781
1002
}
1002
{
1070
     3
1000
411603
1002
}
  0
LINE
  5
142
330
11A
100
AcDbEntity
  8
_ARDEX - BUTYNOL_
370
     9
100
AcDbLine
 10
2.799731758041743
 20
-43.80016355636631
 30
0.0
 11
0.8046489773377533
 21
-43.80016355636631
 31
0.0
1001
REVIT
1002
{
1070
     1
1000
458783
1002
}
1002
{
1070
     5
1000
458781
1002
}
1002
{
1070
     3
1000
411603
1002
}
  0
LINE
  5
143
330
11A
100
AcDbEntity
  8
_ARDEX - BUTYNOL_
370
     9
100
AcDbLine
 10
3.049720907905294
 20
-44.75016355638447
 30
0.0
 11
3.049720907905294
 21
-44.05249270867972
 31
0.0
1001
REVIT
1002
{
1070
     1
1000
458783
1002
}
1002
{
1070
     5
1000
458781
1002
}
1002
{
1070
     3
1000
411603
1002
}
  0
LINE
  5
144
330
11A
100
AcDbEntity
  8
_ARDEX - BUTYNOL_
370
     9
100
AcDbLine
 10
-5.000000000000014
 20
-45.0001635563663
 30
0.0
 11
2.79972090795347
 21
-45.0001635563663
 31
0.0
1001
REVIT
1002
{
1070
     1
1000
458783
1002
}
1002
{
1070
     5
1000
458781
1002
}
1002
{
1070
     3
1000
411603
1002
}
  0
LINE
  5
145
330
11A
100
AcDbEntity
  8
_ARDEX - BUTYNOL_
370
     9
100
AcDbLine
 10
-5.500000000000035
 20
-30.59280424595398
 30
0.0
 11
-5.500000000000035
 21
-42.57147455636639
 31
0.0
1001
REVIT
1002
{
1070
     1
1000
458783
1002
}
1002
{
1070
     5
1000
458781
1002
}
1002
{
1070
     3
1000
411603
1002
}
  0
LINE
  5
146
330
11A
100
AcDbEntity
  8
_ARDEX - BUTYNOL_
370
     9
100
AcDbLine
 10
-0.8786796564403525
 20
-24.72884321528144
 30
0.0
 11
-4.621320343564168
 21
-28.47148390240524
 31
0.0
1001
REVIT
1002
{
1070
     1
1000
458783
1002
}
1002
{
1070
     5
1000
458781
1002
}
1002
{
1070
     3
1000
411603
1002
}
  0
LINE
  5
147
330
11A
100
AcDbEntity
  8
_ARDEX - BUTYNOL_
370
     9
100
AcDbLine
 10
0.0
 20
-11.20004802522908
 30
0.0
 11
0.0
 21
-22.60752287172179
 31
0.0
1001
REVIT
1002
{
1070
     1
1000
458783
1002
}
1002
{
1070
     5
1000
458781
1002
}
1002
{
1070
     3
1000
411603
1002
}
  0
LINE
  5
148
330
11A
100
AcDbEntity
  8
_ARDEX - BUTYNOL_
370
     9
100
AcDbLine
 10
1.589580445926661
 20
-11.05863717656066
 30
0.0
 11
0.1999999999999712
 21
-11.00004802522908
 31
0.0
1001
REVIT
1002
{
1070
     1
1000
458783
1002
}
1002
{
1070
     5
1000
458781
1002
}
1002
{
1070
     3
1000
411603
1002
}
  0
LINE
  5
149
330
11A
100
AcDbEntity
  8
_ARDEX - BUTYNOL_
370
     9
100
AcDbLine
 10
2.589431863023706
 20
-12.05863717656052
 30
0.0
 11
1.58958044592666
 21
-11.05863717656066
 31
0.0
1001
REVIT
1002
{
1070
     1
1000
458783
1002
}
1002
{
1070
     5
1000
458781
1002
}
1002
{
1070
     3
1000
411603
1002
}
  0
LINE
  5
14A
330
11A
100
AcDbEntity
  8
_ARDEX - BUTYNOL_
370
     9
100
AcDbLine
 10
1.699683723288262
 20
-13.89713248706435
 30
0.0
 11
2.621231178468881
 21
-12.30000280903477
 31
0.0
1001
REVIT
1002
{
1070
     1
1000
458783
1002
}
1002
{
1070
     5
1000
458781
1002
}
1002
{
1070
     3
1000
411603
1002
}
  0
LINE
  5
14B
330
11A
100
AcDbEntity
  8
_ARDEX - BUTYNOL_
370
     9
100
AcDbLine
 10
1.630999999998184
 20
-14.55016355884198
 30
0.0
 11
1.630999999998184
 21
-14.15004802522892
 31
0.0
1001
REVIT
1002
{
1070
     1
1000
458783
1002
}
1002
{
1070
     5
1000
458781
1002
}
1002
{
1070
     3
1000
411603
1002
}
  0
LINE
  5
14C
330
11A
100
AcDbEntity
  8
_ARDEX - BUTYNOL_
370
     9
100
AcDbLine
 10
16.49899999999873
 20
-14.55016355884198
 30
0.0
 11
1.630999999998184
 21
-14.55016355884198
 31
0.0
1001
REVIT
1002
{
1070
     1
1000
458783
1002
}
1002
{
1070
     5
1000
458781
1002
}
1002
{
1070
     3
1000
411603
1002
}
  0
LINE
  5
14D
330
11A
100
AcDbEntity
  8
_ARDEX - BUTYNOL_
370
     9
100
AcDbLine
 10
16.49899999999873
 20
-12.20004802522909
 30
0.0
 11
16.49899999999873
 21
-14.55016355884198
 31
0.0
1001
REVIT
1002
{
1070
     1
1000
458783
1002
}
1002
{
1070
     5
1000
458781
1002
}
1002
{
1070
     3
1000
411603
1002
}
  0
LINE
  5
14E
330
11A
100
AcDbEntity
  8
_ARDEX - BUTYNOL_
370
     9
100
AcDbLine
 10
14.25199999930953
 20
-12.20004802522909
 30
0.0
 11
16.49899999999873
 21
-12.20004802522909
 31
0.0
1001
REVIT
1002
{
1070
     1
1000
458783
1002
}
1002
{
1070
     5
1000
458781
1002
}
1002
{
1070
     3
1000
411603
1002
}
  0
LINE
  5
14F
330
11A
100
AcDbEntity
  8
_ARDEX - BUTYNOL_
370
     9
100
AcDbLine
 10
33.49999999999825
 20
-11.00017695561717
 30
0.0
 11
14.26443783845901
 21
-11.00017695561717
 31
0.0
1001
REVIT
1002
{
1070
     1
1000
458783
1002
}
1002
{
1070
     5
1000
458781
1002
}
1002
{
1070
     3
1000
411603
1002
}
  0
LINE
  5
150
330
11A
100
AcDbEntity
  8
_ARDEX - BUTYNOL_
370
     9
100
AcDbLine
 10
33.49999999999825
 20
-7.150163556365949
 30
0.0
 11
33.49999999999825
 21
-11.00017695561717
 31
0.0
1001
REVIT
1002
{
1070
     1
1000
458783
1002
}
1002
{
1070
     5
1000
458781
1002
}
1002
{
1070
     3
1000
411603
1002
}
  0
LINE
  5
151
330
11A
100
AcDbEntity
  8
_ARDEX - BUTYNOL_
370
     9
100
AcDbLine
 10
33.6999999999981
 20
-6.950163556366206
 30
0.0
 11
33.49999999999825
 21
-7.150163556365949
 31
0.0
1001
REVIT
1002
{
1070
     1
1000
458783
1002
}
1002
{
1070
     5
1000
458781
1002
}
1002
{
1070
     3
1000
411603
1002
}
  0
LINE
  5
152
330
11A
100
AcDbEntity
  8
_ARDEX - BUTYNOL_
370
     9
100
AcDbLine
 10
33.6999999999981
 20
-0.1001635588421491
 30
0.0
 11
33.6999999999981
 21
-6.950163556366206
 31
0.0
1001
REVIT
1002
{
1070
     1
1000
458783
1002
}
1002
{
1070
     5
1000
458781
1002
}
1002
{
1070
     3
1000
411603
1002
}
  0
LINE
  5
153
330
11A
100
AcDbEntity
  8
_ARDEX - BUTYNOL_
370
     9
100
AcDbLine
 10
32.49999999999823
 20
-0.1001635588421491
 30
0.0
 11
33.6999999999981
 21
-0.1001635588421491
 31
0.0
1001
REVIT
1002
{
1070
     1
1000
458783
1002
}
1002
{
1070
     5
1000
458781
1002
}
1002
{
1070
     3
1000
411603
1002
}
  0
LINE
  5
154
330
11A
100
AcDbEntity
  8
_ARDEX - BUTYNOL_
370
     9
100
AcDbLine
 10
31.49999999999823
 20
1.949836441157799
 30
0.0
 11
31.49999999999823
 21
0.899836441157835
 31
0.0
1001
REVIT
1002
{
1070
     1
1000
458783
1002
}
1002
{
1070
     5
1000
458781
1002
}
1002
{
1070
     3
1000
411603
1002
}
  0
LINE
  5
155
330
11A
100
AcDbEntity
  8
_ARDEX - BUTYNOL_
370
     9
100
AcDbLine
 10
32.49999999999823
 20
1.199836441157792
 30
0.0
 11
32.49999999999823
 21
1.949836441157799
 31
0.0
1001
REVIT
1002
{
1070
     1
1000
458783
1002
}
1002
{
1070
     5
1000
458781
1002
}
1002
{
1070
     3
1000
411603
1002
}
  0
LINE
  5
156
330
11A
100
AcDbEntity
  8
_ARDEX - BUTYNOL_
370
     9
100
AcDbLine
 10
33.9999999999983
 20
1.199836441157792
 30
0.0
 11
32.49999999999823
 21
1.199836441157792
 31
0.0
1001
REVIT
1002
{
1070
     1
1000
458783
1002
}
1002
{
1070
     5
1000
458781
1002
}
1002
{
1070
     3
1000
411603
1002
}
  0
LINE
  5
157
330
11A
100
AcDbEntity
  8
_ARDEX - BUTYNOL_
370
     9
100
AcDbLine
 10
33.9999999999983
 20
6.699836441157785
 30
0.0
 11
33.9999999999983
 21
1.199836441157792
 31
0.0
1001
REVIT
1002
{
1070
     1
1000
458783
1002
}
1002
{
1070
     5
1000
458781
1002
}
1002
{
1070
     3
1000
411603
1002
}
  0
LINE
  5
158
330
11A
100
AcDbEntity
  8
_ARDEX - BUTYNOL_
370
     9
100
AcDbLine
 10
32.49999999999834
 20
6.699836441157785
 30
0.0
 11
33.9999999999983
 21
6.699836441157785
 31
0.0
1001
REVIT
1002
{
1070
     1
1000
458783
1002
}
1002
{
1070
     5
1000
458781
1002
}
1002
{
1070
     3
1000
411603
1002
}
  0
LINE
  5
159
330
11A
100
AcDbEntity
  8
_ARDEX - BUTYNOL_
370
     9
100
AcDbLine
 10
32.49999999999834
 20
5.949836441158116
 30
0.0
 11
32.49999999999834
 21
6.699836441157785
 31
0.0
1001
REVIT
1002
{
1070
     1
1000
458783
1002
}
1002
{
1070
     5
1000
458781
1002
}
1002
{
1070
     3
1000
411603
1002
}
  0
LINE
  5
15A
330
11A
100
AcDbEntity
  8
_ARDEX - BUTYNOL_
370
     9
100
AcDbLine
 10
31.49999999999823
 20
7.799836441157823
 30
0.0
 11
31.49999999999823
 21
5.949836441158116
 31
0.0
1001
REVIT
1002
{
1070
     1
1000
458783
1002
}
1002
{
1070
     5
1000
458781
1002
}
1002
{
1070
     3
1000
411603
1002
}
  0
LINE
  5
15B
330
11A
100
AcDbEntity
  8
_ARDEX - BUTYNOL_
370
     9
100
AcDbLine
 10
34.79999999999829
 20
7.999836441157811
 30
0.0
 11
31.69999999999817
 21
7.999836441157811
 31
0.0
1001
REVIT
1002
{
1070
     1
1000
458783
1002
}
1002
{
1070
     5
1000
458781
1002
}
1002
{
1070
     3
1000
411603
1002
}
  0
LINE
  5
15C
330
11A
100
AcDbEntity
  8
_ARDEX - BUTYNOL_
370
     9
100
AcDbLine
 10
34.99999999999827
 20
-5.95016355636618
 30
0.0
 11
34.99999999999827
 21
7.799836441157806
 31
0.0
1001
REVIT
1002
{
1070
     1
1000
458783
1002
}
1002
{
1070
     5
1000
458781
1002
}
1002
{
1070
     3
1000
411603
1002
}
  0
LINE
  5
15D
330
11A
100
AcDbEntity
  8
_ARDEX - BUTYNOL_
370
     9
100
AcDbLine
 10
48.85000000000913
 20
-6.950163556366206
 30
0.0
 11
35.99999999999832
 21
-6.950163556366206
 31
0.0
1001
REVIT
1002
{
1070
     1
1000
458783
1002
}
1002
{
1070
     5
1000
458781
1002
}
1002
{
1070
     3
1000
411603
1002
}
  0
LINE
  5
15E
330
11A
100
AcDbEntity
  8
_ARDEX - BUTYNOL_
370
     9
100
AcDbLine
 10
51.85000000000029
 20
-2.100048022753232
 30
0.0
 11
51.85000000000029
 21
-3.950163556375103
 31
0.0
1001
REVIT
1002
{
1070
     1
1000
458783
1002
}
1002
{
1070
     5
1000
458781
1002
}
1002
{
1070
     3
1000
411603
1002
}
  0
LINE
  5
15F
330
11A
100
AcDbEntity
  8
_ARDEX - BUTYNOL_
370
     9
100
AcDbLine
 10
56.28881065350348
 20
-0.7028430677267237
 30
0.0
 11
52.85384531264682
 21
-1.004258683463966
 31
0.0
1001
REVIT
1002
{
1070
     1
1000
458783
1002
}
1002
{
1070
     5
1000
458781
1002
}
1002
{
1070
     3
1000
411603
1002
}
  0
LINE
  5
160
330
11A
100
AcDbEntity
  8
_ARDEX - BUTYNOL_
370
     9
100
AcDbLine
 10
53.05000000000141
 20
-2.10016355636626
 30
0.0
 11
56.3500000000012
 21
-2.10016355636626
 31
0.0
1001
REVIT
1002
{
1070
     1
1000
458783
1002
}
1002
{
1070
     5
1000
458781
1002
}
1002
{
1070
     3
1000
411603
1002
}
  0
LINE
  5
161
330
11A
100
AcDbEntity
  8
_ARDEX - BUTYNOL_
370
     9
100
AcDbLine
 10
53.05000000000141
 20
-3.950163556383681
 30
0.0
 11
53.05000000000141
 21
-2.10016355636626
 31
0.0
1001
REVIT
1002
{
1070
     1
1000
458783
1002
}
1002
{
1070
     5
1000
458781
1002
}
1002
{
1070
     3
1000
411603
1002
}
  0
ARC
  5
162
330
11A
100
AcDbEntity
  8
_ARDEX - BUTYNOL_
370
     9
100
AcDbCircle
 10
51.65000000000145
 20
-13.70016363381804
 30
0.0
 40
1.399999999999998
100
AcDbArc
 50
0.0
 51
90.0
1001
REVIT
1002
{
1070
     1
1000
458783
1002
}
1002
{
1070
     5
1000
458781
1002
}
1002
{
1070
     3
1000
411603
1002
}
  0
ARC
  5
163
330
11A
100
AcDbEntity
  8
_ARDEX - BUTYNOL_
370
     9
100
AcDbCircle
 10
62.349997
 20
-22.30016355638399
 30
0.0
 40
0.700000000000081
100
AcDbArc
 50
269.9999999999997
 51
90.0
1001
REVIT
1002
{
1070
     1
1000
458783
1002
}
1002
{
1070
     5
1000
458781
1002
}
1002
{
1070
     3
1000
411603
1002
}
  0
ARC
  5
164
330
11A
100
AcDbEntity
  8
_ARDEX - BUTYNOL_
370
     9
100
AcDbCircle
 10
52.74992578529927
 20
-21.60016355638425
 30
0.0
 40
1.0
100
AcDbArc
 50
180.0
 51
269.9999999999997
1001
REVIT
1002
{
1070
     1
1000
458783
1002
}
1002
{
1070
     5
1000
458781
1002
}
1002
{
1070
     3
1000
411603
1002
}
  0
ARC
  5
165
330
11A
100
AcDbEntity
  8
_ARDEX - BUTYNOL_
370
     9
100
AcDbCircle
 10
45.15905615362004
 20
-13.50016355638426
 30
0.0
 40
0.2000000000000028
100
AcDbArc
 50
180.0
 51
269.9999999999997
1001
REVIT
1002
{
1070
     1
1000
458783
1002
}
1002
{
1070
     5
1000
458781
1002
}
1002
{
1070
     3
1000
411603
1002
}
  0
ARC
  5
166
330
11A
100
AcDbEntity
  8
_ARDEX - BUTYNOL_
370
     9
100
AcDbCircle
 10
44.4590561536201
 20
-8.850163556384302
 30
0.0
 40
0.5000000000000009
100
AcDbArc
 50
359.9999999999996
 51
90.0000000000001
1001
REVIT
1002
{
1070
     1
1000
458783
1002
}
1002
{
1070
     5
1000
458781
1002
}
1002
{
1070
     3
1000
411603
1002
}
  0
ARC
  5
167
330
11A
100
AcDbEntity
  8
_ARDEX - BUTYNOL_
370
     9
100
AcDbCircle
 10
36.09999999999796
 20
-9.350163556384332
 30
0.0
 40
1.000000000000007
100
AcDbArc
 50
90.0
 51
180.0
1001
REVIT
1002
{
1070
     1
1000
458783
1002
}
1002
{
1070
     5
1000
458781
1002
}
1002
{
1070
     3
1000
411603
1002
}
  0
ARC
  5
168
330
11A
100
AcDbEntity
  8
_ARDEX - BUTYNOL_
370
     9
100
AcDbCircle
 10
33.69999999999793
 20
-11.0001635588603
 30
0.0
 40
1.400000000000003
100
AcDbArc
 50
269.9999999999996
 51
0.0000000000000382
1001
REVIT
1002
{
1070
     1
1000
458783
1002
}
1002
{
1070
     5
1000
458781
1002
}
1002
{
1070
     3
1000
411603
1002
}
  0
ARC
  5
169
330
11A
100
AcDbEntity
  8
_ARDEX - BUTYNOL_
370
     9
100
AcDbCircle
 10
18.39899999999874
 20
-12.90016355886027
 30
0.0
 40
0.5
100
AcDbArc
 50
90.0
 51
180.0
1001
REVIT
1002
{
1070
     1
1000
458783
1002
}
1002
{
1070
     5
1000
458781
1002
}
1002
{
1070
     3
1000
411603
1002
}
  0
ARC
  5
16A
330
11A
100
AcDbEntity
  8
_ARDEX - BUTYNOL_
370
     9
100
AcDbCircle
 10
16.49899999999873
 20
-14.55016355884199
 30
0.0
 40
1.399999999999997
100
AcDbArc
 50
269.9999999999996
 51
0.0000000000000382
1001
REVIT
1002
{
1070
     1
1000
458783
1002
}
1002
{
1070
     5
1000
458781
1002
}
1002
{
1070
     3
1000
411603
1002
}
  0
ARC
  5
16B
330
11A
100
AcDbEntity
  8
_ARDEX - BUTYNOL_
370
     9
100
AcDbCircle
 10
1.900000000000075
 20
-16.45016355884198
 30
0.0
 40
0.499999999999998
100
AcDbArc
 50
89.99999999999996
 51
180.0
1001
REVIT
1002
{
1070
     1
1000
458783
1002
}
1002
{
1070
     5
1000
458781
1002
}
1002
{
1070
     3
1000
411603
1002
}
  0
ARC
  5
16C
330
11A
100
AcDbEntity
  8
_ARDEX - BUTYNOL_
370
     9
100
AcDbCircle
 10
-2.999999999999927
 20
-22.60752287173992
 30
0.0
 40
4.400000000000016
100
AcDbArc
 50
314.9999999999997
 51
0.0
1001
REVIT
1002
{
1070
     1
1000
458783
1002
}
1002
{
1070
     5
1000
458781
1002
}
1002
{
1070
     3
1000
411603
1002
}
  0
ARC
  5
16D
330
11A
100
AcDbEntity
  8
_ARDEX - BUTYNOL_
370
     9
100
AcDbCircle
 10
-2.499999999999972
 20
-30.59280424597851
 30
0.0
 40
1.599999999999982
100
AcDbArc
 50
135.0000000000002
 51
180.0
1001
REVIT
1002
{
1070
     1
1000
458783
1002
}
1002
{
1070
     5
1000
458781
1002
}
1002
{
1070
     3
1000
411603
1002
}
  0
ARC
  5
16E
330
11A
100
AcDbEntity
  8
_ARDEX - BUTYNOL_
370
     9
100
AcDbCircle
 10
-3.974921596132845
 20
-40.08201574377985
 30
0.0
 40
0.7500000000000534
100
AcDbArc
 50
321.5837980439428
 51
99.60014285885741
1001
REVIT
1002
{
1070
     1
1000
458783
1002
}
1002
{
1070
     5
1000
458781
1002
}
1002
{
1070
     3
1000
411603
1002
}
  0
ARC
  5
16F
330
11A
100
AcDbEntity
  8
_ARDEX - BUTYNOL_
370
     9
100
AcDbCircle
 10
-2.199921596132944
 20
-41.50501574377976
 30
0.0
 40
1.524999999999969
100
AcDbArc
 50
141.1323712020497
 51
218.8676287979891
1001
REVIT
1002
{
1070
     1
1000
458783
1002
}
1002
{
1070
     5
1000
458781
1002
}
1002
{
1070
     3
1000
411603
1002
}
  0
ARC
  5
170
330
11A
100
AcDbEntity
  8
_ARDEX - BUTYNOL_
370
     9
100
AcDbCircle
 10
-3.974921596133386
 20
-42.92801574377985
 30
0.0
 40
0.7500000000005934
100
AcDbArc
 50
11.2890208719059
 51
38.41620195595103
1001
REVIT
1002
{
1070
     1
1000
458783
1002
}
1002
{
1070
     5
1000
458781
1002
}
1002
{
1070
     3
1000
411603
1002
}
  0
ARC
  5
171
330
11A
100
AcDbEntity
  8
_ARDEX - BUTYNOL_
370
     9
100
AcDbCircle
 10
-2.749106360980293
 20
-42.68331795206899
 30
0.0
 40
0.5000000000000665
100
AcDbArc
 50
191.2890208719053
 51
245.0106482959301
1001
REVIT
1002
{
1070
     1
1000
458783
1002
}
1002
{
1070
     5
1000
458781
1002
}
1002
{
1070
     3
1000
411603
1002
}
  0
ARC
  5
172
330
11A
100
AcDbEntity
  8
_ARDEX - BUTYNOL_
370
     9
100
AcDbCircle
 10
-2.199921596132978
 20
-41.50501574377972
 30
0.0
 40
1.799999999999971
100
AcDbArc
 50
245.0106482959297
 51
294.9618148039828
1001
REVIT
1002
{
1070
     1
1000
458783
1002
}
1002
{
1070
     5
1000
458781
1002
}
1002
{
1070
     3
1000
411603
1002
}
  0
ARC
  5
173
330
11A
100
AcDbEntity
  8
_ARDEX - BUTYNOL_
370
     9
100
AcDbCircle
 10
-1.651303198011068
 20
-42.68358175942849
 30
0.0
 40
0.4999999999999511
100
AcDbArc
 50
294.9618148039832
 51
348.8230001408191
1001
REVIT
1002
{
1070
     1
1000
458783
1002
}
1002
{
1070
     5
1000
458781
1002
}
1002
{
1070
     3
1000
411603
1002
}
  0
ARC
  5
174
330
11A
100
AcDbEntity
  8
_ARDEX - BUTYNOL_
370
     9
100
AcDbCircle
 10
-0.4372748017888519
 20
-42.92345944318722
 30
0.0
 40
0.737499999999753
100
AcDbArc
 50
141.1755413074325
 51
168.8230001408197
1001
REVIT
1002
{
1070
     1
1000
458783
1002
}
1002
{
1070
     5
1000
458781
1002
}
1002
{
1070
     3
1000
411603
1002
}
  0
ARC
  5
175
330
11A
100
AcDbEntity
  8
_ARDEX - BUTYNOL_
370
     9
100
AcDbCircle
 10
-2.199921596132978
 20
-41.50501574377976
 30
0.0
 40
1.525000000000311
100
AcDbArc
 50
321.175541307432
 51
38.8244586925547
1001
REVIT
1002
{
1070
     1
1000
458783
1002
}
1002
{
1070
     5
1000
458781
1002
}
1002
{
1070
     3
1000
411603
1002
}
  0
ARC
  5
176
330
11A
100
AcDbEntity
  8
_ARDEX - BUTYNOL_
370
     9
100
AcDbCircle
 10
-0.4372748017884458
 20
-40.08657204437263
 30
0.0
 40
0.7374999999998774
100
AcDbArc
 50
38.82445869255472
 51
218.8244586925543
1001
REVIT
1002
{
1070
     1
1000
458783
1002
}
1002
{
1070
     5
1000
458781
1002
}
1002
{
1070
     3
1000
411603
1002
}
  0
ARC
  5
177
330
11A
100
AcDbEntity
  8
_ARDEX - BUTYNOL_
370
     9
100
AcDbCircle
 10
-2.199921596132944
 20
-41.50501574377974
 30
0.0
 40
3.000000000000042
100
AcDbArc
 50
329.142850627446
 51
38.82445869255499
1001
REVIT
1002
{
1070
     1
1000
458783
1002
}
1002
{
1070
     5
1000
458781
1002
}
1002
{
1070
     3
1000
411603
1002
}
  0
ARC
  5
178
330
11A
100
AcDbEntity
  8
_ARDEX - BUTYNOL_
370
     9
100
AcDbCircle
 10
0.8046489773377533
 20
-43.3001635563663
 30
0.0
 40
0.5000000000000048
100
AcDbArc
 50
149.1428506274465
 51
269.9999999999997
1001
REVIT
1002
{
1070
     1
1000
458783
1002
}
1002
{
1070
     5
1000
458781
1002
}
1002
{
1070
     3
1000
411603
1002
}
  0
ARC
  5
179
330
11A
100
AcDbEntity
  8
_ARDEX - BUTYNOL_
370
     9
100
AcDbCircle
 10
2.799731758041743
 20
-44.05016355636631
 30
0.0
 40
0.2499999999999997
100
AcDbArc
 50
359.46618988782
 51
90.0
1001
REVIT
1002
{
1070
     1
1000
458783
1002
}
1002
{
1070
     5
1000
458781
1002
}
1002
{
1070
     3
1000
411603
1002
}
  0
ARC
  5
17A
330
11A
100
AcDbEntity
  8
_ARDEX - BUTYNOL_
370
     9
100
AcDbCircle
 10
2.79972090795347
 20
-44.75016355638447
 30
0.0
 40
0.2499999999818518
100
AcDbArc
 50
269.9999999999997
 51
0.0
1001
REVIT
1002
{
1070
     1
1000
458783
1002
}
1002
{
1070
     5
1000
458781
1002
}
1002
{
1070
     3
1000
411603
1002
}
  0
ARC
  5
17B
330
11A
100
AcDbEntity
  8
_ARDEX - BUTYNOL_
370
     9
100
AcDbCircle
 10
-5.000000000000014
 20
-44.50016355636631
 30
0.0
 40
0.4999999999999984
100
AcDbArc
 50
179.9999999999988
 51
269.9999999999993
1001
REVIT
1002
{
1070
     1
1000
458783
1002
}
1002
{
1070
     5
1000
458781
1002
}
1002
{
1070
     3
1000
411603
1002
}
  0
ARC
  5
17C
330
11A
100
AcDbEntity
  8
_ARDEX - BUTYNOL_
370
     9
100
AcDbCircle
 10
-4.750000000000036
 20
-44.42887455636621
 30
0.0
 40
0.7499999999999849
100
AcDbArc
 50
101.7631056751401
 51
180.0
1001
REVIT
1002
{
1070
     1
1000
458783
1002
}
1002
{
1070
     5
1000
458781
1002
}
1002
{
1070
     3
1000
411603
1002
}
  0
ARC
  5
17D
330
11A
100
AcDbEntity
  8
_ARDEX - BUTYNOL_
370
     9
100
AcDbCircle
 10
-4.947791712926036
 20
-43.50019336744924
 30
0.0
 40
0.1995473615156821
100
AcDbArc
 50
283.0011952679011
 51
77.97719197767465
1001
REVIT
1002
{
1070
     1
1000
458783
1002
}
1002
{
1070
     5
1000
458781
1002
}
1002
{
1070
     3
1000
411603
1002
}
  0
ARC
  5
17E
330
11A
100
AcDbEntity
  8
_ARDEX - BUTYNOL_
370
     9
100
AcDbCircle
 10
-4.750000000000036
 20
-42.57147455636639
 30
0.0
 40
0.7499999999999699
100
AcDbArc
 50
179.9999999999999
 51
257.9771919776732
1001
REVIT
1002
{
1070
     1
1000
458783
1002
}
1002
{
1070
     5
1000
458781
1002
}
1002
{
1070
     3
1000
411603
1002
}
  0
ARC
  5
17F
330
11A
100
AcDbEntity
  8
_ARDEX - BUTYNOL_
370
     9
100
AcDbCircle
 10
-2.500000000015437
 20
-30.59280424595398
 30
0.0
 40
2.999999999984581
100
AcDbArc
 50
134.9999999999998
 51
180.0
1001
REVIT
1002
{
1070
     1
1000
458783
1002
}
1002
{
1070
     5
1000
458781
1002
}
1002
{
1070
     3
1000
411603
1002
}
  0
ARC
  5
180
330
11A
100
AcDbEntity
  8
_ARDEX - BUTYNOL_
370
     9
100
AcDbCircle
 10
-2.999999999999994
 20
-22.60752287172179
 30
0.0
 40
3.000000000000001
100
AcDbArc
 50
314.9999999999995
 51
0.0000000000000572
1001
REVIT
1002
{
1070
     1
1000
458783
1002
}
1002
{
1070
     5
1000
458781
1002
}
1002
{
1070
     3
1000
411603
1002
}
  0
ARC
  5
181
330
11A
100
AcDbEntity
  8
_ARDEX - BUTYNOL_
370
     9
100
AcDbCircle
 10
0.1999999999999884
 20
-11.20004802522908
 30
0.0
 40
0.1999999999999996
100
AcDbArc
 50
90.00000000000495
 51
179.9999999999998
1001
REVIT
1002
{
1070
     1
1000
458783
1002
}
1002
{
1070
     5
1000
458781
1002
}
1002
{
1070
     3
1000
411603
1002
}
  0
ARC
  5
182
330
11A
100
AcDbEntity
  8
_ARDEX - BUTYNOL_
370
     9
100
AcDbCircle
 10
2.447999999998514
 20
-12.20004802522895
 30
0.0
 40
0.1999999999997657
100
AcDbArc
 50
330.0149562697389
 51
44.995743097137
1001
REVIT
1002
{
1070
     1
1000
458783
1002
}
1002
{
1070
     5
1000
458781
1002
}
1002
{
1070
     3
1000
411603
1002
}
  0
ARC
  5
183
330
11A
100
AcDbEntity
  8
_ARDEX - BUTYNOL_
370
     9
100
AcDbCircle
 10
2.130999999998139
 20
-14.15004802522892
 30
0.0
 40
0.4999999999999455
100
AcDbArc
 50
149.6134633862583
 51
180.0
1001
REVIT
1002
{
1070
     1
1000
458783
1002
}
1002
{
1070
     5
1000
458781
1002
}
1002
{
1070
     3
1000
411603
1002
}
  0
ARC
  5
184
330
11A
100
AcDbEntity
  8
_ARDEX - BUTYNOL_
370
     9
100
AcDbCircle
 10
14.25199999930953
 20
-11.60004802522907
 30
0.0
 40
0.600000000000023
100
AcDbArc
 50
88.8121887690329
 51
269.9999999999992
1001
REVIT
1002
{
1070
     1
1000
458783
1002
}
1002
{
1070
     5
1000
458781
1002
}
1002
{
1070
     3
1000
411603
1002
}
  0
ARC
  5
185
330
11A
100
AcDbEntity
  8
_ARDEX - BUTYNOL_
370
     9
100
AcDbCircle
 10
32.49999999999823
 20
0.899836441157835
 30
0.0
 40
0.9999999999999822
100
AcDbArc
 50
180.0
 51
269.9999999999997
1001
REVIT
1002
{
1070
     1
1000
458783
1002
}
1002
{
1070
     5
1000
458781
1002
}
1002
{
1070
     3
1000
411603
1002
}
  0
ARC
  5
186
330
11A
100
AcDbEntity
  8
_ARDEX - BUTYNOL_
370
     9
100
AcDbCircle
 10
31.99999999999822
 20
1.949836441157799
 30
0.0
 40
0.4999999999999965
100
AcDbArc
 50
0.0
 51
180.0
1001
REVIT
1002
{
1070
     1
1000
458783
1002
}
1002
{
1070
     5
1000
458781
1002
}
1002
{
1070
     3
1000
411603
1002
}
  0
ARC
  5
187
330
11A
100
AcDbEntity
  8
_ARDEX - BUTYNOL_
370
     9
100
AcDbCircle
 10
31.99999999999828
 20
5.949836441158116
 30
0.0
 40
0.5000000000000498
100
AcDbArc
 50
180.0
 51
0.0
1001
REVIT
1002
{
1070
     1
1000
458783
1002
}
1002
{
1070
     5
1000
458781
1002
}
1002
{
1070
     3
1000
411603
1002
}
  0
ARC
  5
188
330
11A
100
AcDbEntity
  8
_ARDEX - BUTYNOL_
370
     9
100
AcDbCircle
 10
31.69999999999818
 20
7.799836441157823
 30
0.0
 40
0.1999999999999673
100
AcDbArc
 50
90.0
 51
180.0
1001
REVIT
1002
{
1070
     1
1000
458783
1002
}
1002
{
1070
     5
1000
458781
1002
}
1002
{
1070
     3
1000
411603
1002
}
  0
ARC
  5
189
330
11A
100
AcDbEntity
  8
_ARDEX - BUTYNOL_
370
     9
100
AcDbCircle
 10
34.79999999999829
 20
7.799836441157806
 30
0.0
 40
0.2000000000000028
100
AcDbArc
 50
0.0
 51
90.0
1001
REVIT
1002
{
1070
     1
1000
458783
1002
}
1002
{
1070
     5
1000
458781
1002
}
1002
{
1070
     3
1000
411603
1002
}
  0
ARC
  5
18A
330
11A
100
AcDbEntity
  8
_ARDEX - BUTYNOL_
370
     9
100
AcDbCircle
 10
35.99999999999832
 20
-5.95016355636618
 30
0.0
 40
1.000000000000028
100
AcDbArc
 50
180.0
 51
269.9999999999997
1001
REVIT
1002
{
1070
     1
1000
458783
1002
}
1002
{
1070
     5
1000
458781
1002
}
1002
{
1070
     3
1000
411603
1002
}
  0
ARC
  5
18B
330
11A
100
AcDbEntity
  8
_ARDEX - BUTYNOL_
370
     9
100
AcDbCircle
 10
48.85000000000913
 20
-3.950163556375103
 30
0.0
 40
2.999999999991107
100
AcDbArc
 50
269.9999999999996
 51
0.0000000000000636
1001
REVIT
1002
{
1070
     1
1000
458783
1002
}
1002
{
1070
     5
1000
458781
1002
}
1002
{
1070
     3
1000
411603
1002
}
  0
ARC
  5
18C
330
11A
100
AcDbEntity
  8
_ARDEX - BUTYNOL_
370
     9
100
AcDbCircle
 10
52.95000000000031
 20
-2.100048022753232
 30
0.0
 40
1.100000000000034
100
AcDbArc
 50
95.01481647922702
 51
180.0
1001
REVIT
1002
{
1070
     1
1000
458783
1002
}
1002
{
1070
     5
1000
458781
1002
}
1002
{
1070
     3
1000
411603
1002
}
  0
ARC
  5
18D
330
11A
100
AcDbEntity
  8
_ARDEX - BUTYNOL_
370
     9
100
AcDbCircle
 10
56.3500000000012
 20
-1.400163556365793
 30
0.0
 40
0.7000000000004646
100
AcDbArc
 50
269.9999999999996
 51
95.01481647922707
1001
REVIT
1002
{
1070
     1
1000
458783
1002
}
1002
{
1070
     5
1000
458781
1002
}
1002
{
1070
     3
1000
411603
1002
}
  0
ARC
  5
18E
330
11A
100
AcDbEntity
  8
_ARDEX - BUTYNOL_
370
     9
100
AcDbCircle
 10
48.85000000000013
 20
-3.950163556383681
 30
0.0
 40
4.200000000001296
100
AcDbArc
 50
297.0430859389128
 51
359.9999999999996
1001
REVIT
1002
{
1070
     1
1000
458783
1002
}
1002
{
1070
     5
1000
458781
1002
}
1002
{
1070
     3
1000
411603
1002
}
  0
ARC
  5
18F
330
11A
100
AcDbEntity
  8
_ARDEX - BUTYNOL_
370
     9
100
AcDbCircle
 10
50.98690388301378
 20
-8.136288470283584
 30
0.0
 40
0.500000000000007
100
AcDbArc
 50
117.0430859389128
 51
196.343836641201
1001
REVIT
1002
{
1070
     1
1000
458783
1002
}
1002
{
1070
     5
1000
458781
1002
}
1002
{
1070
     3
1000
411603
1002
}
  0
ARC
  5
190
330
11A
100
AcDbEntity
  8
_ARDEX - BUTYNOL_
370
     9
100
AcDbCircle
 10
49.70345372000737
 20
-8.512661728099358
 30
0.0
 40
0.8374980935014065
100
AcDbArc
 50
232.0323599344489
 51
16.34383664120129
1001
REVIT
1002
{
1070
     1
1000
458783
1002
}
1002
{
1070
     5
1000
458781
1002
}
1002
{
1070
     3
1000
411603
1002
}
  0
LINE
  5
191
330
11A
100
AcDbEntity
  8
_ARDEX - BUTYNOL_
370
     9
100
AcDbLine
 10
15.49998565864834
 20
94.72961678217847
 30
0.0
 11
15.49998565864834
 21
-5.000000000000014
 31
0.0
1001
REVIT
1002
{
1070
     1
1000
458783
1002
}
1002
{
1070
     5
1000
458781
1002
}
1002
{
1070
     3
1000
453781
1002
}
  0
LINE
  5
192
330
11A
100
AcDbEntity
  8
_ARDEX - BUTYNOL_
 62
     8
420
  8421504
370
     9
100
AcDbLine
 10
13.49998565864914
 20
94.72961678217847
 30
0.0
 11
13.49998565864914
 21
-5.000000000000014
 31
0.0
1001
REVIT
1002
{
1070
     1
1000
458783
1002
}
1002
{
1070
     5
1000
458781
1002
}
1002
{
1070
     3
1000
453783
1002
}
  0
LINE
  5
193
330
11A
100
AcDbEntity
  8
_ARDEX - BUTYNOL_
 62
     8
420
  8421504
370
     9
100
AcDbLine
 10
11.49998565864915
 20
94.72961678217847
 30
0.0
 11
11.49998565864915
 21
-5.000000000000014
 31
0.0
1001
REVIT
1002
{
1070
     1
1000
458783
1002
}
1002
{
1070
     5
1000
458781
1002
}
1002
{
1070
     3
1000
453783
1002
}
  0
LINE
  5
194
330
11A
100
AcDbEntity
  8
_ARDEX - BUTYNOL_
370
     9
100
AcDbLine
 10
9.499985658648355
 20
94.72961678217847
 30
0.0
 11
9.499985658648355
 21
-5.000000000000014
 31
0.0
1001
REVIT
1002
{
1070
     1
1000
458783
1002
}
1002
{
1070
     5
1000
458781
1002
}
1002
{
1070
     3
1000
453781
1002
}
  0
LINE
  5
195
330
11A
100
AcDbEntity
  8
_ARDEX - BUTYNOL_
370
     9
100
AcDbLine
 10
15.49998565864834
 20
-5.000000000000017
 30
0.0
 11
23.49998567474666
 21
-5.000000000000017
 31
0.0
1001
REVIT
1002
{
1070
     1
1000
458783
1002
}
1002
{
1070
     5
1000
458781
1002
}
1002
{
1070
     3
1000
411603
1002
}
  0
LINE
  5
196
330
11A
100
AcDbEntity
  8
_ARDEX - BUTYNOL_
370
     9
100
AcDbLine
 10
9.499985658648355
 20
-5.000000000000017
 30
0.0
 11
15.49998565864834
 21
-5.000000000000017
 31
0.0
1001
REVIT
1002
{
1070
     1
1000
458783
1002
}
1002
{
1070
     5
1000
458781
1002
}
1002
{
1070
     3
1000
453781
1002
}
  0
LINE
  5
197
330
11A
100
AcDbEntity
  8
_ARDEX - BUTYNOL_
370
     9
100
AcDbLine
 10
29.49998567474684
 20
94.72961678217858
 30
0.0
 11
29.49998567474684
 21
-5.000000000000014
 31
0.0
1001
REVIT
1002
{
1070
     1
1000
458783
1002
}
1002
{
1070
     5
1000
458781
1002
}
1002
{
1070
     3
1000
453781
1002
}
  0
LINE
  5
198
330
11A
100
AcDbEntity
  8
_ARDEX - BUTYNOL_
 62
     8
420
  8421504
370
     9
100
AcDbLine
 10
27.49998567474662
 20
94.72961678217858
 30
0.0
 11
27.49998567474662
 21
-5.000000000000014
 31
0.0
1001
REVIT
1002
{
1070
     1
1000
458783
1002
}
1002
{
1070
     5
1000
458781
1002
}
1002
{
1070
     3
1000
453783
1002
}
  0
LINE
  5
199
330
11A
100
AcDbEntity
  8
_ARDEX - BUTYNOL_
 62
     8
420
  8421504
370
     9
100
AcDbLine
 10
25.49998567474665
 20
94.72961678217851
 30
0.0
 11
25.49998567474665
 21
-5.000000000000014
 31
0.0
1001
REVIT
1002
{
1070
     1
1000
458783
1002
}
1002
{
1070
     5
1000
458781
1002
}
1002
{
1070
     3
1000
453783
1002
}
  0
LINE
  5
19A
330
11A
100
AcDbEntity
  8
_ARDEX - BUTYNOL_
370
     9
100
AcDbLine
 10
23.49998567474666
 20
94.72961678217862
 30
0.0
 11
23.49998567474666
 21
-5.000000000000014
 31
0.0
1001
REVIT
1002
{
1070
     1
1000
458783
1002
}
1002
{
1070
     5
1000
458781
1002
}
1002
{
1070
     3
1000
453781
1002
}
  0
LINE
  5
19B
330
11A
100
AcDbEntity
  8
_ARDEX - BUTYNOL_
370
     9
100
AcDbLine
 10
23.49998567474666
 20
-4.999999999999998
 30
0.0
 11
29.49998567474684
 21
-4.999999999999998
 31
0.0
1001
REVIT
1002
{
1070
     1
1000
458783
1002
}
1002
{
1070
     5
1000
458781
1002
}
1002
{
1070
     3
1000
453781
1002
}
  0
LINE
  5
19C
330
11A
100
AcDbEntity
  8
_ARDEX - WELDTEC_
100
AcDbLine
 10
31.70814102145908
 20
4.950000000000375
 30
0.0
 11
29.98184348403815
 21
9.055698610759186
 31
0.0
1001
REVIT
1002
{
1070
     1
1000
458783
1002
}
1002
{
1070
     5
1000
458781
1002
}
  0
LINE
  5
19D
330
11A
100
AcDbEntity
  8
_ARDEX - WELDTEC_
100
AcDbLine
 10
33.00008830835775
 20
4.950000000000375
 30
0.0
 11
31.70814102145908
 21
4.950000000000375
 31
0.0
1001
REVIT
1002
{
1070
     1
1000
458783
1002
}
1002
{
1070
     5
1000
458781
1002
}
  0
LINE
  5
19E
330
11A
100
AcDbEntity
  8
_ARDEX - WELDTEC_
100
AcDbLine
 10
33.00008830835775
 20
6.200000000000362
 30
0.0
 11
33.00008830835775
 21
4.950000000000375
 31
0.0
1001
REVIT
1002
{
1070
     1
1000
458783
1002
}
1002
{
1070
     5
1000
458781
1002
}
  0
LINE
  5
19F
330
11A
100
AcDbEntity
  8
_ARDEX - WELDTEC_
100
AcDbLine
 10
34.00008830835774
 20
6.200000000000362
 30
0.0
 11
33.00008830835775
 21
6.200000000000362
 31
0.0
1001
REVIT
1002
{
1070
     1
1000
458783
1002
}
1002
{
1070
     5
1000
458781
1002
}
  0
LINE
  5
1A0
330
11A
100
AcDbEntity
  8
_ARDEX - WELDTEC_
100
AcDbLine
 10
34.00008830835774
 20
1.70000000000037
 30
0.0
 11
34.00008830835774
 21
6.200000000000362
 31
0.0
1001
REVIT
1002
{
1070
     1
1000
458783
1002
}
1002
{
1070
     5
1000
458781
1002
}
  0
LINE
  5
1A1
330
11A
100
AcDbEntity
  8
_ARDEX - WELDTEC_
100
AcDbLine
 10
33.00008830835775
 20
1.70000000000037
 30
0.0
 11
34.00008830835774
 21
1.70000000000037
 31
0.0
1001
REVIT
1002
{
1070
     1
1000
458783
1002
}
1002
{
1070
     5
1000
458781
1002
}
  0
LINE
  5
1A2
330
11A
100
AcDbEntity
  8
_ARDEX - WELDTEC_
100
AcDbLine
 10
33.00008830835775
 20
2.950000000000357
 30
0.0
 11
33.00008830835775
 21
1.70000000000037
 31
0.0
1001
REVIT
1002
{
1070
     1
1000
458783
1002
}
1002
{
1070
     5
1000
458781
1002
}
  0
LINE
  5
1A3
330
11A
100
AcDbEntity
  8
_ARDEX - WELDTEC_
100
AcDbLine
 10
31.73244855145997
 20
2.950000000000357
 30
0.0
 11
33.00008830835775
 21
2.950000000000357
 31
0.0
1001
REVIT
1002
{
1070
     1
1000
458783
1002
}
1002
{
1070
     5
1000
458781
1002
}
  0
LINE
  5
1A4
330
11A
100
AcDbEntity
  8
_ARDEX - WELDTEC_
100
AcDbLine
 10
30.00828161241968
 20
-1.150631352871869
 30
0.0
 11
31.73244855145997
 21
2.950000000000357
 31
0.0
1001
REVIT
1002
{
1070
     1
1000
458783
1002
}
1002
{
1070
     5
1000
458781
1002
}
  0
LINE
  5
1A5
330
11A
100
AcDbEntity
  8
_ARDEX - WELDTEC_
100
AcDbLine
 10
30.52521537419481
 20
2.858142612585772
 30
0.0
 11
29.53569516576072
 21
-0.9914949329182638
 31
0.0
1001
REVIT
1002
{
1070
     1
1000
458783
1002
}
1002
{
1070
     5
1000
458781
1002
}
  0
LINE
  5
1A6
330
11A
100
AcDbEntity
  8
_ARDEX - WELDTEC_
100
AcDbLine
 10
29.50008830835775
 20
3.450000000000378
 30
0.0
 11
30.52521537419481
 21
2.858142612585772
 31
0.0
1001
REVIT
1002
{
1070
     1
1000
458783
1002
}
1002
{
1070
     5
1000
458781
1002
}
  0
LINE
  5
1A7
330
11A
100
AcDbEntity
  8
_ARDEX - WELDTEC_
100
AcDbLine
 10
29.50008830835775
 20
4.450000000000354
 30
0.0
 11
29.50008830835775
 21
3.450000000000378
 31
0.0
1001
REVIT
1002
{
1070
     1
1000
458783
1002
}
1002
{
1070
     5
1000
458781
1002
}
  0
LINE
  5
1A8
330
11A
100
AcDbEntity
  8
_ARDEX - WELDTEC_
100
AcDbLine
 10
30.5033279211704
 20
5.029220660519402
 30
0.0
 11
29.50008830835775
 21
4.450000000000354
 31
0.0
1001
REVIT
1002
{
1070
     1
1000
458783
1002
}
1002
{
1070
     5
1000
458781
1002
}
  0
LINE
  5
1A9
330
11A
100
AcDbEntity
  8
_ARDEX - WELDTEC_
100
AcDbLine
 10
29.5092570373794
 20
8.896562190805632
 30
0.0
 11
30.5033279211704
 21
5.029220660519402
 31
0.0
1001
REVIT
1002
{
1070
     1
1000
458783
1002
}
1002
{
1070
     5
1000
458781
1002
}
  0
LINE
  5
1AA
330
11A
100
AcDbEntity
  8
_ARDEX - WELDTEC_
100
AcDbLine
 10
5.000235068550557
 20
5.360165548787318
 30
0.0
 11
5.000235068550557
 21
4.906541106396099
 31
0.0
1001
REVIT
1002
{
1070
     1
1000
458783
1002
}
1002
{
1070
     5
1000
458781
1002
}
  0
LINE
  5
1AB
330
11A
100
AcDbEntity
  8
_ARDEX - WELDTEC_
100
AcDbLine
 10
2.000061816011308
 20
5.559800860599571
 30
0.0
 11
4.800599756725651
 21
5.559800860599571
 31
0.0
1001
REVIT
1002
{
1070
     1
1000
458783
1002
}
1002
{
1070
     5
1000
458781
1002
}
  0
LINE
  5
1AC
330
11A
100
AcDbEntity
  8
_ARDEX - WELDTEC_
100
AcDbLine
 10
1.500163893680228
 20
-2.000010701189412
 30
0.0
 11
1.500163893680228
 21
5.05990293826848
 31
0.0
1001
REVIT
1002
{
1070
     1
1000
458783
1002
}
1002
{
1070
     5
1000
458781
1002
}
  0
LINE
  5
1AD
330
11A
100
AcDbEntity
  8
_ARDEX - WELDTEC_
100
AcDbLine
 10
1.886796734416787
 20
-8.187116024047748
 30
0.0
 11
1.500163893680206
 21
-2.000010701188698
 31
0.0
1001
REVIT
1002
{
1070
     1
1000
458783
1002
}
1002
{
1070
     5
1000
458781
1002
}
  0
LINE
  5
1AE
330
11A
100
AcDbEntity
  8
_ARDEX - WELDTEC_
100
AcDbLine
 10
11.81312225513777
 20
-11.00001068211906
 30
0.0
 11
4.880956309193622
 21
-11.00001068211906
 31
0.0
1001
REVIT
1002
{
1070
     1
1000
458783
1002
}
1002
{
1070
     5
1000
458781
1002
}
  0
LINE
  5
1AF
330
11A
100
AcDbEntity
  8
_ARDEX - WELDTEC_
100
AcDbLine
 10
14.26206107172981
 20
-12.29944308131508
 30
0.0
 11
13.26102469915502
 21
-12.30280718643363
 31
0.0
1001
REVIT
1002
{
1070
     1
1000
458783
1002
}
1002
{
1070
     5
1000
458781
1002
}
  0
LINE
  5
1B0
330
11A
100
AcDbEntity
  8
_ARDEX - WELDTEC_
100
AcDbLine
 10
15.23570764857528
 20
-13.47572667484062
 30
0.0
 11
14.69591147895807
 21
-12.54798648729589
 31
0.0
1001
REVIT
1002
{
1070
     1
1000
458783
1002
}
1002
{
1070
     5
1000
458781
1002
}
  0
LINE
  5
1B1
330
11A
100
AcDbEntity
  8
_ARDEX - WELDTEC_
100
AcDbLine
 10
14.19454316685209
 20
-13.45515103205026
 30
0.0
 11
14.56587307504762
 21
-13.84308015268643
 31
0.0
1001
REVIT
1002
{
1070
     1
1000
458783
1002
}
1002
{
1070
     5
1000
458781
1002
}
  0
LINE
  5
1B2
330
11A
100
AcDbEntity
  8
_ARDEX - WELDTEC_
100
AcDbLine
 10
13.23436297376254
 20
-13.30290242492357
 30
0.0
 11
13.83166626029582
 21
-13.30089511005008
 31
0.0
1001
REVIT
1002
{
1070
     1
1000
458783
1002
}
1002
{
1070
     5
1000
458781
1002
}
  0
LINE
  5
1B3
330
11A
100
AcDbEntity
  8
_ARDEX - WELDTEC_
100
AcDbLine
 10
3.605635186848092
 20
-12.00001067707358
 30
0.0
 11
11.81312225600151
 21
-12.00001067707358
 31
0.0
1001
REVIT
1002
{
1070
     1
1000
458783
1002
}
1002
{
1070
     5
1000
458781
1002
}
  0
LINE
  5
1B4
330
11A
100
AcDbEntity
  8
_ARDEX - WELDTEC_
100
AcDbLine
 10
3.000368207345273
 20
-13.04619018065458
 30
0.0
 11
3.605635186848088
 21
-12.00001067707379
 31
0.0
1001
REVIT
1002
{
1070
     1
1000
458783
1002
}
1002
{
1070
     5
1000
458781
1002
}
  0
LINE
  5
1B5
330
11A
100
AcDbEntity
  8
_ARDEX - WELDTEC_
100
AcDbLine
 10
2.699970148914088
 20
-12.16687819835129
 30
0.0
 11
2.394260436089893
 21
-12.69564647323606
 31
0.0
1001
REVIT
1002
{
1070
     1
1000
458783
1002
}
1002
{
1070
     5
1000
458781
1002
}
  0
LINE
  5
1B6
330
11A
100
AcDbEntity
  8
_ARDEX - WELDTEC_
100
AcDbLine
 10
1.533102648914122
 20
-11.00004802522908
 30
0.0
 11
2.699970148914088
 21
-12.16687819835129
 31
0.0
1001
REVIT
1002
{
1070
     1
1000
458783
1002
}
1002
{
1070
     5
1000
458781
1002
}
  0
LINE
  5
1B7
330
11A
100
AcDbEntity
  8
_ARDEX - WELDTEC_
100
AcDbLine
 10
0.2000559903167939
 20
-11.00004802522908
 30
0.0
 11
1.533102648914122
 21
-11.00004802522908
 31
0.0
1001
REVIT
1002
{
1070
     1
1000
458783
1002
}
1002
{
1070
     5
1000
458781
1002
}
  0
LINE
  5
1B8
330
11A
100
AcDbEntity
  8
_ARDEX - WELDTEC_
100
AcDbLine
 10
0.0000000000000465
 20
7.502415265434963
 30
0.0
 11
0.0000000000000465
 21
-10.79999203491235
 31
0.0
1001
REVIT
1002
{
1070
     1
1000
458783
1002
}
1002
{
1070
     5
1000
458781
1002
}
  0
LINE
  5
1B9
330
11A
100
AcDbEntity
  8
_ARDEX - WELDTEC_
100
AcDbLine
 10
4.600274675868828
 20
8.00261589740335
 30
0.0
 11
0.5002006319684284
 21
8.00261589740335
 31
0.0
1001
REVIT
1002
{
1070
     1
1000
458783
1002
}
1002
{
1070
     5
1000
458781
1002
}
  0
LINE
  5
1BA
330
11A
100
AcDbEntity
  8
_ARDEX - WELDTEC_
100
AcDbLine
 10
4.799803598183808
 20
6.9600064699813
 30
0.0
 11
4.799803598183808
 21
7.803086975088368
 31
0.0
1001
REVIT
1002
{
1070
     1
1000
458783
1002
}
1002
{
1070
     5
1000
458781
1002
}
  0
LINE
  5
1BB
330
11A
100
AcDbEntity
  8
_ARDEX - WELDTEC_
100
AcDbLine
 10
6.064854306883419
 20
6.9600064699813
 30
0.0
 11
4.799803598183808
 21
6.9600064699813
 31
0.0
1001
REVIT
1002
{
1070
     1
1000
458783
1002
}
1002
{
1070
     5
1000
458781
1002
}
  0
LINE
  5
1BC
330
11A
100
AcDbEntity
  8
_ARDEX - WELDTEC_
100
AcDbLine
 10
6.500073982492254
 20
5.44187443765594
 30
0.0
 11
6.261823020813365
 21
6.794695455501157
 31
0.0
1001
REVIT
1002
{
1070
     1
1000
458783
1002
}
1002
{
1070
     5
1000
458781
1002
}
  0
LINE
  5
1BD
330
11A
100
AcDbEntity
  8
_ARDEX - WELDTEC_
100
AcDbLine
 10
6.500073982492254
 20
4.61071794288697
 30
0.0
 11
6.500073982492254
 21
5.44187443765594
 31
0.0
1001
REVIT
1002
{
1070
     1
1000
458783
1002
}
1002
{
1070
     5
1000
458781
1002
}
  0
LINE
  5
1BE
330
11A
100
AcDbEntity
  8
_ARDEX - WELDTEC_
100
AcDbLine
 10
5.14844423101972
 20
4.713216295261339
 30
0.0
 11
6.248088042877877
 21
4.417537220365185
 31
0.0
1001
REVIT
1002
{
1070
     1
1000
458783
1002
}
1002
{
1070
     5
1000
458781
1002
}
  0
LINE
  5
1BF
330
11A
100
AcDbEntity
  8
_ARDEX - WELDTEC_
100
AcDbLine
 10
8.500088310243842
 20
5.603490759818875
 30
0.0
 11
8.500088310243842
 21
6.688201980916464
 31
0.0
1001
REVIT
1002
{
1070
     1
1000
458783
1002
}
1002
{
1070
     5
1000
458781
1002
}
  0
LINE
  5
1C0
330
11A
100
AcDbEntity
  8
_ARDEX - WELDTEC_
100
AcDbLine
 10
9.500088307451944
 20
5.014265748192241
 30
0.0
 11
9.500088307451944
 21
5.628569224327523
 31
0.0
1001
REVIT
1002
{
1070
     1
1000
458783
1002
}
1002
{
1070
     5
1000
458781
1002
}
  0
LINE
  5
1C1
330
11A
100
AcDbEntity
  8
_ARDEX - WELDTEC_
100
AcDbLine
 10
8.500088312160245
 20
2.715627806697326
 30
0.0
 11
8.500088312160245
 21
3.313295804530907
 31
0.0
1001
REVIT
1002
{
1070
     1
1000
458783
1002
}
1002
{
1070
     5
1000
458781
1002
}
  0
LINE
  5
1C2
330
11A
100
AcDbEntity
  8
_ARDEX - WELDTEC_
100
AcDbLine
 10
9.500088308357744
 20
2.146837688976695
 30
0.0
 11
9.500088308357744
 21
2.703149475680381
 31
0.0
1001
REVIT
1002
{
1070
     1
1000
458783
1002
}
1002
{
1070
     5
1000
458781
1002
}
  0
LINE
  5
1C3
330
11A
100
AcDbEntity
  8
_ARDEX - WELDTEC_
100
AcDbLine
 10
8.259982256627832
 20
0.0552428195146909
 30
0.0
 11
8.635762849419661
 21
0.7719761465539788
 31
0.0
1001
REVIT
1002
{
1070
     1
1000
458783
1002
}
1002
{
1070
     5
1000
458781
1002
}
  0
LINE
  5
1C4
330
11A
100
AcDbEntity
  8
_ARDEX - WELDTEC_
100
AcDbLine
 10
5.773532127895849
 20
3.704300935226306
 30
0.0
 11
7.467414480559273
 21
0.0736203813845484
 31
0.0
1001
REVIT
1002
{
1070
     1
1000
458783
1002
}
1002
{
1070
     5
1000
458781
1002
}
  0
LINE
  5
1C5
330
11A
100
AcDbEntity
  8
_ARDEX - WELDTEC_
100
AcDbLine
 10
6.500088307745314
 20
4.059999999439778
 30
0.0
 11
6.000088319238908
 21
4.059999999439778
 31
0.0
1001
REVIT
1002
{
1070
     1
1000
458783
1002
}
1002
{
1070
     5
1000
458781
1002
}
  0
LINE
  5
1C6
330
11A
100
AcDbEntity
  8
_ARDEX - WELDTEC_
100
AcDbLine
 10
6.500088307745314
 20
6.959999999424399
 30
0.0
 11
6.500088307745314
 21
4.059999999439778
 31
0.0
1001
REVIT
1002
{
1070
     1
1000
458783
1002
}
1002
{
1070
     5
1000
458781
1002
}
  0
LINE
  5
1C7
330
11A
100
AcDbEntity
  8
_ARDEX - WELDTEC_
100
AcDbLine
 10
4.952238529801016
 20
6.959999999424399
 30
0.0
 11
6.500088307745314
 21
6.959999999424399
 31
0.0
1001
REVIT
1002
{
1070
     1
1000
458783
1002
}
1002
{
1070
     5
1000
458781
1002
}
  0
LINE
  5
1C8
330
11A
100
AcDbEntity
  8
_ARDEX - WELDTEC_
100
AcDbLine
 10
4.801039653493475
 20
8.688211063753064
 30
0.0
 11
4.952238529801016
 21
6.959999999424399
 31
0.0
1001
REVIT
1002
{
1070
     1
1000
458783
1002
}
1002
{
1070
     5
1000
458781
1002
}
  0
LINE
  5
1C9
330
11A
100
AcDbEntity
  8
_ARDEX - WELDTEC_
100
AcDbLine
 10
9.211178421808662
 20
9.611144127430147
 30
0.0
 11
5.011178442076662
 21
8.956953478411548
 31
0.0
1001
REVIT
1002
{
1070
     1
1000
458783
1002
}
1002
{
1070
     5
1000
458781
1002
}
  0
LINE
  5
1CA
330
11A
100
AcDbEntity
  8
_ARDEX - WELDTEC_
100
AcDbLine
 10
9.50008830777859
 20
7.940847696305986
 30
0.0
 11
9.50008830777859
 21
9.364190648425342
 31
0.0
1001
REVIT
1002
{
1070
     1
1000
458783
1002
}
1002
{
1070
     5
1000
458781
1002
}
  0
LINE
  5
1CB
330
11A
100
AcDbEntity
  8
_ARDEX - WELDTEC_
100
AcDbLine
 10
8.580362244280589
 20
6.871758681446545
 30
0.0
 11
9.339540438645673
 21
7.573734293036352
 31
0.0
1001
REVIT
1002
{
1070
     1
1000
458783
1002
}
1002
{
1070
     5
1000
458781
1002
}
  0
ARC
  5
1CC
330
11A
100
AcDbEntity
  8
_ARDEX - WELDTEC_
100
AcDbCircle
 10
29.77782426251132
 20
-1.053732385523237
 30
0.0
 40
0.2500000000000374
100
AcDbArc
 50
165.5846239131768
 51
337.1950101509453
1001
REVIT
1002
{
1070
     1
1000
458783
1002
}
1002
{
1070
     5
1000
458781
1002
}
  0
ARC
  5
1CD
330
11A
100
AcDbEntity
  8
_ARDEX - WELDTEC_
100
AcDbCircle
 10
29.7513861341299
 20
8.958799643410571
 30
0.0
 40
0.2499999999999164
100
AcDbArc
 50
22.80498984905521
 51
194.4153760868205
1001
REVIT
1002
{
1070
     1
1000
458783
1002
}
1002
{
1070
     5
1000
458781
1002
}
  0
ARC
  5
1CE
330
11A
100
AcDbEntity
  8
_ARDEX - WELDTEC_
100
AcDbCircle
 10
4.800599756725651
 20
5.360165548787318
 30
0.0
 40
0.1996353117995939
100
AcDbArc
 50
0.0
 51
90.0
1001
REVIT
1002
{
1070
     1
1000
458783
1002
}
1002
{
1070
     5
1000
458781
1002
}
  0
ARC
  5
1CF
330
11A
100
AcDbEntity
  8
_ARDEX - WELDTEC_
100
AcDbCircle
 10
2.00006181601131
 20
5.05990293826848
 30
0.0
 40
0.4998979223310814
100
AcDbArc
 50
90.0000000000003
 51
180.0
1001
REVIT
1002
{
1070
     1
1000
458783
1002
}
1002
{
1070
     5
1000
458781
1002
}
  0
ARC
  5
1D0
330
11A
100
AcDbEntity
  8
_ARDEX - WELDTEC_
100
AcDbCircle
 10
4.880956309193617
 20
-8.000010687770547
 30
0.0
 40
2.999999994348511
100
AcDbArc
 50
183.5757694494857
 51
269.9999999999998
1001
REVIT
1002
{
1070
     1
1000
458783
1002
}
1002
{
1070
     5
1000
458781
1002
}
  0
ARC
  5
1D1
330
11A
100
AcDbEntity
  8
_ARDEX - WELDTEC_
100
AcDbCircle
 10
11.81312225513776
 20
-12.00001067958098
 30
0.0
 40
0.9999999976262559
100
AcDbArc
 50
7.494942732902765
 51
89.99999999999991
1001
REVIT
1002
{
1070
     1
1000
458783
1002
}
1002
{
1070
     5
1000
458781
1002
}
  0
ARC
  5
1D2
330
11A
100
AcDbEntity
  8
_ARDEX - WELDTEC_
100
AcDbCircle
 10
13.3003068221135
 20
-11.80435265837321
 30
0.0
 40
0.5000000017280604
100
AcDbArc
 50
187.4949427329024
 51
265.4939566990087
1001
REVIT
1002
{
1070
     1
1000
458783
1002
}
1002
{
1070
     5
1000
458781
1002
}
  0
ARC
  5
1D3
330
11A
100
AcDbEntity
  8
_ARDEX - WELDTEC_
100
AcDbCircle
 10
14.2637413721134
 20
-12.79944025789779
 30
0.0
 40
0.5000000000000644
100
AcDbArc
 50
30.19254853571892
 51
90.19254860301762
1001
REVIT
1002
{
1070
     1
1000
458783
1002
}
1002
{
1070
     5
1000
458781
1002
}
  0
ARC
  5
1D4
330
11A
100
AcDbEntity
  8
_ARDEX - WELDTEC_
100
AcDbCircle
 10
15.88396278394718
 20
-13.09854603342434
 30
0.0
 40
0.7499999711976139
100
AcDbArc
 50
210.1925485356119
 51
252.1692228730859
1001
REVIT
1002
{
1070
     1
1000
458783
1002
}
1002
{
1070
     5
1000
458781
1002
}
  0
ARC
  5
1D5
330
11A
100
AcDbEntity
  8
_ARDEX - WELDTEC_
100
AcDbCircle
 10
15.59306645252441
 20
-14.00291269823418
 30
0.0
 40
0.1999998919907911
100
AcDbArc
 50
278.9285559373507
 51
72.1692228731228
1001
REVIT
1002
{
1070
     1
1000
458783
1002
}
1002
{
1070
     5
1000
458781
1002
}
  0
ARC
  5
1D6
330
11A
100
AcDbEntity
  8
_ARDEX - WELDTEC_
100
AcDbCircle
 10
15.43695842284263
 20
-13.00926793025348
 30
0.0
 40
1.205832702087548
100
AcDbArc
 50
223.747577178848
 51
278.9285559373539
1001
REVIT
1002
{
1070
     1
1000
458783
1002
}
1002
{
1070
     5
1000
458781
1002
}
  0
ARC
  5
1D7
330
11A
100
AcDbEntity
  8
_ARDEX - WELDTEC_
100
AcDbCircle
 10
13.83334656541359
 20
-13.80089228661674
 30
0.0
 40
0.4999999999999104
100
AcDbArc
 50
43.7475771788912
 51
90.19254914551856
1001
REVIT
1002
{
1070
     1
1000
458783
1002
}
1002
{
1070
     5
1000
458781
1002
}
  0
ARC
  5
1D8
330
11A
100
AcDbEntity
  8
_ARDEX - WELDTEC_
100
AcDbCircle
 10
13.3003068221135
 20
-11.80435265837321
 30
0.0
 40
1.499999997987825
100
AcDbArc
 50
187.4949426422483
 51
267.4803184537189
1001
REVIT
1002
{
1070
     1
1000
458783
1002
}
1002
{
1070
     5
1000
458781
1002
}
  0
ARC
  5
1D9
330
11A
100
AcDbEntity
  8
_ARDEX - WELDTEC_
100
AcDbCircle
 10
2.697340288914042
 20
-12.87087342835144
 30
0.0
 40
0.3500883931051057
100
AcDbArc
 50
149.9654563964256
 51
329.9484792181786
1001
REVIT
1002
{
1070
     1
1000
458783
1002
}
1002
{
1070
     5
1000
458781
1002
}
  0
ARC
  5
1DA
330
11A
100
AcDbEntity
  8
_ARDEX - WELDTEC_
100
AcDbCircle
 10
0.2000559903167939
 20
-10.79999203491234
 30
0.0
 40
0.2000559903167492
100
AcDbArc
 50
180.0000000000006
 51
270.0
1001
REVIT
1002
{
1070
     1
1000
458783
1002
}
1002
{
1070
     5
1000
458781
1002
}
  0
ARC
  5
1DB
330
11A
100
AcDbEntity
  8
_ARDEX - WELDTEC_
100
AcDbCircle
 10
0.5002006319684284
 20
7.502415265434963
 30
0.0
 40
0.5002006319683817
100
AcDbArc
 50
89.99999999999989
 51
180.0000000000001
1001
REVIT
1002
{
1070
     1
1000
458783
1002
}
1002
{
1070
     5
1000
458781
1002
}
  0
ARC
  5
1DC
330
11A
100
AcDbEntity
  8
_ARDEX - WELDTEC_
100
AcDbCircle
 10
4.600274675868828
 20
7.803086975088365
 30
0.0
 40
0.1995289223149839
100
AcDbArc
 50
359.9999999999995
 51
90.00000000000012
1001
REVIT
1002
{
1070
     1
1000
458783
1002
}
1002
{
1070
     5
1000
458781
1002
}
  0
ARC
  5
1DD
330
11A
100
AcDbEntity
  8
_ARDEX - WELDTEC_
100
AcDbCircle
 10
6.064854306878237
 20
6.760006469987284
 30
0.0
 40
0.2000000000000179
100
AcDbArc
 50
9.988175195509313
 51
89.99999999851558
1001
REVIT
1002
{
1070
     1
1000
458783
1002
}
1002
{
1070
     5
1000
458781
1002
}
  0
ARC
  5
1DE
330
11A
100
AcDbEntity
  8
_ARDEX - WELDTEC_
100
AcDbCircle
 10
6.300031659748019
 20
4.61071794288697
 30
0.0
 40
0.2000423227441475
100
AcDbArc
 50
254.949925220152
 51
0.0
1001
REVIT
1002
{
1070
     1
1000
458783
1002
}
1002
{
1070
     5
1000
458781
1002
}
  0
ARC
  5
1DF
330
11A
100
AcDbEntity
  8
_ARDEX - WELDTEC_
100
AcDbCircle
 10
5.200426600092449
 20
4.906541106396099
 30
0.0
 40
0.2001915315292342
100
AcDbArc
 50
179.9999999999999
 51
254.9499227953853
1001
REVIT
1002
{
1070
     1
1000
458783
1002
}
1002
{
1070
     5
1000
458781
1002
}
  0
ARC
  5
1E0
330
11A
100
AcDbEntity
  8
_ARDEX - WELDTEC_
100
AcDbCircle
 10
8.700088311346423
 20
5.603490759818875
 30
0.0
 40
0.2000000010984688
100
AcDbArc
 50
180.0
 51
303.2281596545932
1001
REVIT
1002
{
1070
     1
1000
458783
1002
}
1002
{
1070
     5
1000
458781
1002
}
  0
ARC
  5
1E1
330
11A
100
AcDbEntity
  8
_ARDEX - WELDTEC_
100
AcDbCircle
 10
8.103844151581043
 20
6.513670702101372
 30
0.0
 40
1.288087600437737
100
AcDbArc
 50
303.2281596545931
 51
323.5022480790126
1001
REVIT
1002
{
1070
     1
1000
458783
1002
}
1002
{
1070
     5
1000
458781
1002
}
  0
ARC
  5
1E2
330
11A
100
AcDbEntity
  8
_ARDEX - WELDTEC_
100
AcDbCircle
 10
9.300088307438283
 20
5.628569224328031
 30
0.0
 40
0.2000000000000044
100
AcDbArc
 50
359.9999999999273
 51
143.5022480790132
1001
REVIT
1002
{
1070
     1
1000
458783
1002
}
1002
{
1070
     5
1000
458781
1002
}
  0
ARC
  5
1E3
330
11A
100
AcDbEntity
  8
_ARDEX - WELDTEC_
100
AcDbCircle
 10
9.000088307745325
 20
5.014265748192241
 30
0.0
 40
0.4999999999997348
100
AcDbArc
 50
333.80520581034
 51
359.9999999999996
1001
REVIT
1002
{
1070
     1
1000
458783
1002
}
1002
{
1070
     5
1000
458781
1002
}
  0
ARC
  5
1E4
330
11A
100
AcDbEntity
  8
_ARDEX - WELDTEC_
100
AcDbCircle
 10
5.590795122457702
 20
6.691461223088155
 30
0.0
 40
4.29950847946804
100
AcDbArc
 50
315.2627607060826
 51
333.8052058103398
1001
REVIT
1002
{
1070
     1
1000
458783
1002
}
1002
{
1070
     5
1000
458781
1002
}
  0
ARC
  5
1E5
330
11A
100
AcDbEntity
  8
_ARDEX - WELDTEC_
100
AcDbCircle
 10
9.000088312265408
 20
3.313295804556456
 30
0.0
 40
0.5000000000000728
100
AcDbArc
 50
135.2627607060834
 51
180.0000000014636
1001
REVIT
1002
{
1070
     1
1000
458783
1002
}
1002
{
1070
     5
1000
458781
1002
}
  0
ARC
  5
1E6
330
11A
100
AcDbEntity
  8
_ARDEX - WELDTEC_
100
AcDbCircle
 10
8.700088312316626
 20
2.715627806697326
 30
0.0
 40
0.200000000000026
100
AcDbArc
 50
180.0000000000001
 51
299.4412377832952
1001
REVIT
1002
{
1070
     1
1000
458783
1002
}
1002
{
1070
     5
1000
458781
1002
}
  0
ARC
  5
1E7
330
11A
100
AcDbEntity
  8
_ARDEX - WELDTEC_
100
AcDbCircle
 10
8.177968911308862
 20
3.640683083999383
 30
0.0
 40
1.262231583164041
100
AcDbArc
 50
299.4412377832952
 51
320.1211576916519
1001
REVIT
1002
{
1070
     1
1000
458783
1002
}
1002
{
1070
     5
1000
458781
1002
}
  0
ARC
  5
1E8
330
11A
100
AcDbEntity
  8
_ARDEX - WELDTEC_
100
AcDbCircle
 10
9.300088307406166
 20
2.70314947570593
 30
0.0
 40
0.2000000009876041
100
AcDbArc
 50
359.9999999963403
 51
140.1211576916519
1001
REVIT
1002
{
1070
     1
1000
458783
1002
}
1002
{
1070
     5
1000
458781
1002
}
  0
ARC
  5
1E9
330
11A
100
AcDbEntity
  8
_ARDEX - WELDTEC_
100
AcDbCircle
 10
9.000088307562197
 20
2.146837688976695
 30
0.0
 40
0.5000000007595173
100
AcDbArc
 50
333.6069923996423
 51
0.0000000000000509
1001
REVIT
1002
{
1070
     1
1000
458783
1002
}
1002
{
1070
     5
1000
458781
1002
}
  0
ARC
  5
1EA
330
11A
100
AcDbEntity
  8
_ARDEX - WELDTEC_
100
AcDbCircle
 10
5.309904545173491
 20
3.978099525103073
 30
0.0
 40
4.619584459494414
100
AcDbArc
 50
316.0501464967833
 51
333.6069923996421
1001
REVIT
1002
{
1070
     1
1000
458783
1002
}
1002
{
1070
     5
1000
458781
1002
}
  0
ARC
  5
1EB
330
11A
100
AcDbEntity
  8
_ARDEX - WELDTEC_
100
AcDbCircle
 10
7.868247642531022
 20
0.2606278072441877
 30
0.0
 40
0.4423109777318033
100
AcDbArc
 50
205.0112531831204
 51
332.3321460400408
1001
REVIT
1002
{
1070
     1
1000
458783
1002
}
1002
{
1070
     5
1000
458781
1002
}
  0
ARC
  5
1EC
330
11A
100
AcDbEntity
  8
_ARDEX - WELDTEC_
100
AcDbCircle
 10
6.000088319238906
 20
3.809999999431696
 30
0.0
 40
0.2500000000000105
100
AcDbArc
 50
89.99999999999991
 51
205.0112531673804
1001
REVIT
1002
{
1070
     1
1000
458783
1002
}
1002
{
1070
     5
1000
458781
1002
}
  0
ARC
  5
1ED
330
11A
100
AcDbEntity
  8
_ARDEX - WELDTEC_
100
AcDbCircle
 10
5.050088328016425
 20
8.709999999439986
 30
0.0
 40
0.2500000000000091
100
AcDbArc
 50
98.95388956722207
 51
185.0000000000016
1001
REVIT
1002
{
1070
     1
1000
458783
1002
}
1002
{
1070
     5
1000
458781
1002
}
  0
ARC
  5
1EE
330
11A
100
AcDbEntity
  8
_ARDEX - WELDTEC_
100
AcDbCircle
 10
9.2500883077461
 20
9.364190648425326
 30
0.0
 40
0.2500000000000266
100
AcDbArc
 50
0.0000000000004071
 51
98.95388956551148
1001
REVIT
1002
{
1070
     1
1000
458783
1002
}
1002
{
1070
     5
1000
458781
1002
}
  0
ARC
  5
1EF
330
11A
100
AcDbEntity
  8
_ARDEX - WELDTEC_
100
AcDbCircle
 10
9.000088307746139
 20
7.940847696305986
 30
0.0
 40
0.4999999999999762
100
AcDbArc
 50
312.7580774170277
 51
359.9999999999993
1001
REVIT
1002
{
1070
     1
1000
458783
1002
}
1002
{
1070
     5
1000
458781
1002
}
  0
ARC
  5
1F0
330
11A
100
AcDbEntity
  8
_ARDEX - WELDTEC_
100
AcDbCircle
 10
8.75008830885214
 20
6.688201980916717
 30
0.0
 40
0.2499999988044411
100
AcDbArc
 50
132.7580774411953
 51
180.0000000000579
1001
REVIT
1002
{
1070
     1
1000
458783
1002
}
1002
{
1070
     5
1000
458781
1002
}
  0
LINE
  5
1F1
330
11A
100
AcDbEntity
  8
_ARDEX - BUTYNOL_
370
     9
100
AcDbLine
 10
15.49998565864834
 20
1.000000000000123
 30
0.0
 11
23.49998567474666
 21
-4.999999999999984
 31
0.0
1001
REVIT
1002
{
1070
     1
1000
458783
1002
}
1002
{
1070
     5
1000
458781
1002
}
1002
{
1070
     3
1000
411603
1002
}
  0
LINE
  5
1F2
330
11A
100
AcDbEntity
  8
_ARDEX - BUTYNOL_
370
     9
100
AcDbLine
 10
23.49998567474682
 20
1.000000000000123
 30
0.0
 11
15.49998565864835
 21
-4.999999999999849
 31
0.0
1001
REVIT
1002
{
1070
     1
1000
458783
1002
}
1002
{
1070
     5
1000
458781
1002
}
1002
{
1070
     3
1000
411603
1002
}
  0
LINE
  5
1F3
330
11A
100
AcDbEntity
  8
_ARDEX - BUTYNOL_
370
     9
100
AcDbLine
 10
15.49998565864834
 20
1.000000000000123
 30
0.0
 11
23.49998567474682
 21
1.000000000000123
 31
0.0
1001
REVIT
1002
{
1070
     1
1000
458783
1002
}
1002
{
1070
     5
1000
458781
1002
}
1002
{
1070
     3
1000
411603
1002
}
  0
LINE
  5
1F4
330
11A
100
AcDbEntity
  8
_ARDEX - BUTYNOL_
 62
     8
420
  8421504
370
     9
100
AcDbLine
 10
51.85000000000029
 20
-2.100048022753232
 30
0.0
 11
51.85000000000029
 21
94.7296167821784
 31
0.0
1001
REVIT
1002
{
1070
     1
1000
458783
1002
}
1002
{
1070
     5
1000
458781
1002
}
1002
{
1070
     3
1000
453787
1002
}
  0
LINE
  5
1F5
330
11A
100
AcDbEntity
  8
_ARDEX - BUTYNOL_
 62
     8
420
  8421504
370
     9
100
AcDbLine
 10
-0.0000000000000508
 20
7.502415265434971
 30
0.0
 11
-0.0000000000000508
 21
94.7296167821784
 31
0.0
1001
REVIT
1002
{
1070
     1
1000
458783
1002
}
1002
{
1070
     5
1000
458781
1002
}
1002
{
1070
     3
1000
453787
1002
}
  0
LINE
  5
1F6
330
11A
100
AcDbEntity
  8
_ARDEX - BUTYNOL_
 62
     8
420
  8421504
370
     9
100
AcDbLine
 10
34.99999999999829
 20
7.799836441157814
 30
0.0
 11
34.99999999999829
 21
94.7296167821784
 31
0.0
1001
REVIT
1002
{
1070
     1
1000
458783
1002
}
1002
{
1070
     5
1000
458781
1002
}
1002
{
1070
     3
1000
453787
1002
}
  0
LINE
  5
1F7
330
11A
100
AcDbEntity
  8
_ARDEX - BUTYNOL_
 62
     8
420
  8421504
370
     9
100
AcDbLine
 10
123.0500000000012
 20
-2.600163556383861
 30
0.0
 11
123.0500000000012
 21
94.7296167821784
 31
0.0
1001
REVIT
1002
{
1070
     1
1000
458783
1002
}
1002
{
1070
     5
1000
458781
1002
}
1002
{
1070
     3
1000
453787
1002
}
  0
ENDBLK
  5
1F9
330
11A
100
AcDbEntity
  8
0
100
AcDbBlockEnd
  0
BLOCK
  5
208
330
1FB
100
AcDbEntity
  8
0
100
AcDbBlockBegin
  2
_ARDEX_ Flashing - Sill - _ARDEX_ Sill Flashing-602852-AB-02 THRESHOLD AT OPENING
 70
     0
 10
0.0
 20
0.0
 30
0.0
  3
_ARDEX_ Flashing - Sill - _ARDEX_ Sill Flashing-602852-AB-02 THRESHOLD AT OPENING
  1

  0
LINE
  5
1FC
330
1FB
100
AcDbEntity
  8
_ARDEX - BUTYNOL_
370
    35
100
AcDbLine
 10
0.0000000000001946
 20
0.0000000000000169
 30
0.0
 11
26.73410440901705
 21
2.338931065307415
 31
0.0
1001
REVIT
1002
{
1070
     1
1000
459327
1002
}
1002
{
1070
     5
1000
459319
1002
}
1002
{
1070
     3
1000
439454
1002
}
  0
LINE
  5
1FD
330
1FB
100
AcDbEntity
  8
_ARDEX - BUTYNOL_
370
    35
100
AcDbLine
 10
26.73410440901705
 20
2.338931065307415
 30
0.0
 11
26.73410440901705
 21
40.00000000000042
 31
0.0
1001
REVIT
1002
{
1070
     1
1000
459327
1002
}
1002
{
1070
     5
1000
459319
1002
}
1002
{
1070
     3
1000
439454
1002
}
  0
LINE
  5
1FE
330
1FB
100
AcDbEntity
  8
_ARDEX - BUTYNOL_
370
    35
100
AcDbLine
 10
26.73410440901705
 20
40.00000000000042
 30
0.0
 11
33.80517222088494
 21
47.07106781186834
 31
0.0
1001
REVIT
1002
{
1070
     1
1000
459327
1002
}
1002
{
1070
     5
1000
459319
1002
}
1002
{
1070
     3
1000
439454
1002
}
  0
LINE
  5
1FF
330
1FB
100
AcDbEntity
  8
_ARDEX - BUTYNOL_
370
    35
100
AcDbLine
 10
0.1743114854951214
 20
-1.992389396183508
 30
0.0
 11
10.13625846641258
 21
-1.120831968706926
 31
0.0
1001
REVIT
1002
{
1070
     1
1000
459327
1002
}
1002
{
1070
     5
1000
459319
1002
}
1002
{
1070
     3
1000
439454
1002
}
  0
ARC
  5
200
330
1FB
100
AcDbEntity
  8
_ARDEX - BUTYNOL_
370
    35
100
AcDbCircle
 10
0.0871557427474633
 20
-0.9961946980917627
 30
0.0
 40
0.9999999999999996
100
AcDbArc
 50
95.00000000000037
 51
274.9999999999996
1001
REVIT
1002
{
1070
     1
1000
459327
1002
}
1002
{
1070
     5
1000
459319
1002
}
1002
{
1070
     3
1000
439454
1002
}
  0
LINE
  5
201
330
1FB
100
AcDbEntity
  8
_ARDEX - WELDTEC_
100
AcDbLine
 10
25.73410440901704
 20
3.255262239324839
 30
0.0
 11
-0.0871557427478505
 21
0.9961946980917295
 31
0.0
1001
REVIT
1002
{
1070
     1
1000
459327
1002
}
1002
{
1070
     5
1000
459319
1002
}
  0
ARC
  5
202
330
1FB
100
AcDbEntity
  8
_ARDEX - WELDTEC_
100
AcDbCircle
 10
0.0871557427474633
 20
-0.9961946980917627
 30
0.0
 40
2.0
100
AcDbArc
 50
95.00000000000019
 51
274.9999999999992
1001
REVIT
1002
{
1070
     1
1000
459327
1002
}
1002
{
1070
     5
1000
459319
1002
}
  0
LINE
  5
203
330
1FB
100
AcDbEntity
  8
_ARDEX - WELDTEC_
100
AcDbLine
 10
0.2614672282427666
 20
-2.988584094275255
 30
0.0
 11
10.13625846641258
 21
-2.124651806250274
 31
0.0
1001
REVIT
1002
{
1070
     1
1000
459327
1002
}
1002
{
1070
     5
1000
459319
1002
}
  0
LINE
  5
204
330
1FB
100
AcDbEntity
  8
_ARDEX - WELDTEC_
100
AcDbLine
 10
25.73410440901704
 20
40.41421356237384
 30
0.0
 11
25.73410440901704
 21
3.255262239324837
 31
0.0
1001
REVIT
1002
{
1070
     1
1000
459327
1002
}
1002
{
1070
     5
1000
459319
1002
}
  0
LINE
  5
205
330
1FB
100
AcDbEntity
  8
_ARDEX - WELDTEC_
100
AcDbLine
 10
33.09806543969822
 20
47.77817459305506
 30
0.0
 11
25.73410440901704
 21
40.41421356237384
 31
0.0
1001
REVIT
1002
{
1070
     1
1000
459327
1002
}
1002
{
1070
     5
1000
459319
1002
}
  0
LINE
  5
206
330
1FB
100
AcDbEntity
  8
_ARDEX - WELDTEC_
100
AcDbLine
 10
10.13625846641258
 20
-1.120831968706926
 30
0.0
 11
10.13625846641259
 21
-2.124651806250274
 31
0.0
1001
REVIT
1002
{
1070
     1
1000
459327
1002
}
1002
{
1070
     5
1000
459319
1002
}
  0
LINE
  5
207
330
1FB
100
AcDbEntity
  8
_ARDEX - WELDTEC_
100
AcDbLine
 10
33.80517222088494
 20
47.07106781186834
 30
0.0
 11
33.09806543969822
 21
47.77817459305506
 31
0.0
1001
REVIT
1002
{
1070
     1
1000
459327
1002
}
1002
{
1070
     5
1000
459319
1002
}
  0
ENDBLK
  5
209
330
1FB
100
AcDbEntity
  8
0
100
AcDbBlockEnd
  0
BLOCK
  5
214
330
20E
100
AcDbEntity
  8
0
100
AcDbBlockBegin
  2
_ARDEX_ Framing - Packing-540345-AB-02 THRESHOLD AT OPENING
 70
     0
 10
0.0
 20
0.0
 30
0.0
  3
_ARDEX_ Framing - Packing-540345-AB-02 THRESHOLD AT OPENING
  1

  0
LINE
  5
20F
330
20E
100
AcDbEntity
  8
_ARDEX - BUTYNOL_
370
    50
100
AcDbLine
 10
124.6658132078389
 20
-109.0
 30
0.0
 11
124.6658132078389
 21
-104.9834547323466
 31
0.0
1001
REVIT
1002
{
1070
     1
1000
493462
1002
}
1002
{
1070
     5
1000
489120
1002
}
1002
{
1070
     3
1000
488774
1002
}
  0
LINE
  5
210
330
20E
100
AcDbEntity
  8
_ARDEX - BUTYNOL_
370
    50
100
AcDbLine
 10
124.6658132078389
 20
-104.9834547323466
 30
0.0
 11
75.57143336628072
 21
-104.9834547323464
 31
0.0
1001
REVIT
1002
{
1070
     1
1000
493462
1002
}
1002
{
1070
     5
1000
489120
1002
}
1002
{
1070
     3
1000
488774
1002
}
  0
LINE
  5
211
330
20E
100
AcDbEntity
  8
_ARDEX - BUTYNOL_
370
    50
100
AcDbLine
 10
75.57143336628072
 20
-104.9834547323464
 30
0.0
 11
75.57143336628072
 21
-109.0
 31
0.0
1001
REVIT
1002
{
1070
     1
1000
493462
1002
}
1002
{
1070
     5
1000
489120
1002
}
1002
{
1070
     3
1000
488774
1002
}
  0
LINE
  5
212
330
20E
100
AcDbEntity
  8
_ARDEX - BUTYNOL_
370
    50
100
AcDbLine
 10
75.57143336628072
 20
-109.0
 30
0.0
 11
124.6658132078389
 21
-109.0
 31
0.0
1001
REVIT
1002
{
1070
     1
1000
493462
1002
}
1002
{
1070
     5
1000
489120
1002
}
1002
{
1070
     3
1000
488774
1002
}
  0
LINE
  5
213
330
20E
100
AcDbEntity
  8
_ARDEX - BUTYNOL_
 62
   156
420
    16512
370
     9
100
AcDbLine
 10
75.57143336628072
 20
-104.9834547323464
 30
0.0
 11
124.6087336792188
 21
-109.0
 31
0.0
1001
REVIT
1002
{
1070
     1
1000
493462
1002
}
1002
{
1070
     5
1000
489120
1002
}
1002
{
1070
     3
1000
488778
1002
}
  0
ENDBLK
  5
215
330
20E
100
AcDbEntity
  8
0
100
AcDbBlockEnd
  0
BLOCK
  5
21D
330
219
100
AcDbEntity
  8
0
100
AcDbBlockBegin
  2
_ARDEX_ Level Manual - _ARDEX_ Level Manual-406101-AB-02 THRESHOLD AT OPENING
 70
     0
 10
0.0
 20
0.0
 30
0.0
  3
_ARDEX_ Level Manual - _ARDEX_ Level Manual-406101-AB-02 THRESHOLD AT OPENING
  1

  0
LINE
  5
21A
330
219
100
AcDbEntity
  8
_ARDEX - WELDTEC_
100
AcDbLine
 10
0.0
 20
-0.0000000000000004
 30
0.0
 11
-1.686271292106083
 21
2.500000000000019
 31
0.0
1001
REVIT
1002
{
1070
     1
1000
407694
1002
}
1002
{
1070
     5
1000
406101
1002
}
  0
LINE
  5
21B
330
219
100
AcDbEntity
  8
_ARDEX - WELDTEC_
100
AcDbLine
 10
1.686271292106076
 20
2.500000000000009
 30
0.0
 11
-1.686271292106084
 21
2.50000000000002
 31
0.0
1001
REVIT
1002
{
1070
     1
1000
407694
1002
}
1002
{
1070
     5
1000
406101
1002
}
  0
LINE
  5
21C
330
219
100
AcDbEntity
  8
_ARDEX - WELDTEC_
100
AcDbLine
 10
0.0
 20
-0.0000000000000004
 30
0.0
 11
1.686271292106076
 21
2.500000000000009
 31
0.0
1001
REVIT
1002
{
1070
     1
1000
407694
1002
}
1002
{
1070
     5
1000
406101
1002
}
  0
ENDBLK
  5
21E
330
219
100
AcDbEntity
  8
0
100
AcDbBlockEnd
  0
BLOCK
  5
255
330
253
100
AcDbEntity
  8
0
100
AcDbBlockBegin
  2
_Oblique
 70
     0
 10
0.0
 20
0.0
 30
0.0
  3
_Oblique
  1

  0
LINE
  5
254
330
253
100
AcDbEntity
  8
0
  6
ByBlock
 62
     0
370
    -2
100
AcDbLine
 10
-0.5
 20
-0.5
 30
0.0
 11
0.5
 21
0.5
 31
0.0
  0
ENDBLK
  5
256
330
253
100
AcDbEntity
  8
0
100
AcDbBlockEnd
  0
BLOCK
  5
250
330
25A
100
AcDbEntity
  8
0
100
AcDbBlockBegin
  2
DIMBLOCK1-AB-02 THRESHOLD AT OPENING
 70
     0
 10
0.0
 20
0.0
 30
0.0
  3
DIMBLOCK1-AB-02 THRESHOLD AT OPENING
  1

  0
LINE
  5
246
330
25A
100
AcDbEntity
  8
_ARDEX - WELDTEC_-2
100
AcDbLine
 10
3576.956053723788
 20
2467.347093051732
 30
0.0
 11
3576.956053723788
 21
2359.047093051731
 31
0.0
1001
REVIT
1002
{
1070
     1
1000
580553
1002
}
1002
{
1070
     5
1000
337368
1002
}
1002
{
1070
     2
1000
-2000260
1002
}
  0
LINE
  5
247
330
25A
100
AcDbEntity
  8
_ARDEX - WELDTEC_-2
370
    18
100
AcDbLine
 10
3576.956053723788
 20
2363.447093051732
 30
0.0
 11
3575.756053723788
 21
2364.647093051732
 31
0.0
1001
REVIT
1002
{
1070
     1
1000
580553
1002
}
1002
{
1070
     5
1000
337368
1002
}
1002
{
1070
     2
1000
-2000260
1002
}
  0
LINE
  5
248
330
25A
100
AcDbEntity
  8
_ARDEX - WELDTEC_-2
370
    18
100
AcDbLine
 10
3576.956053723788
 20
2363.447093051732
 30
0.0
 11
3578.156053723787
 21
2362.247093051732
 31
0.0
1001
REVIT
1002
{
1070
     1
1000
580553
1002
}
1002
{
1070
     5
1000
337368
1002
}
1002
{
1070
     2
1000
-2000260
1002
}
  0
LINE
  5
249
330
25A
100
AcDbEntity
  8
_ARDEX - WELDTEC_-2
100
AcDbLine
 10
3576.956053723788
 20
2363.447093051732
 30
0.0
 11
3574.156053723787
 21
2363.447093051732
 31
0.0
1001
REVIT
1002
{
1070
     1
1000
580553
1002
}
1002
{
1070
     5
1000
337368
1002
}
1002
{
1070
     2
1000
-2000260
1002
}
  0
LINE
  5
24A
330
25A
100
AcDbEntity
  8
_ARDEX - WELDTEC_-2
100
AcDbLine
 10
3576.956053723788
 20
2363.447093051732
 30
0.0
 11
3586.956053723787
 21
2363.447093051732
 31
0.0
1001
REVIT
1002
{
1070
     1
1000
580553
1002
}
1002
{
1070
     5
1000
337368
1002
}
1002
{
1070
     2
1000
-2000260
1002
}
  0
LINE
  5
24B
330
25A
100
AcDbEntity
  8
_ARDEX - WELDTEC_-2
370
    18
100
AcDbLine
 10
3576.956053723788
 20
2462.947093051731
 30
0.0
 11
3575.756053723789
 21
2464.147093051732
 31
0.0
1001
REVIT
1002
{
1070
     1
1000
580553
1002
}
1002
{
1070
     5
1000
337368
1002
}
1002
{
1070
     2
1000
-2000260
1002
}
  0
LINE
  5
24C
330
25A
100
AcDbEntity
  8
_ARDEX - WELDTEC_-2
370
    18
100
AcDbLine
 10
3576.956053723788
 20
2462.947093051731
 30
0.0
 11
3578.156053723788
 21
2461.747093051731
 31
0.0
1001
REVIT
1002
{
1070
     1
1000
580553
1002
}
1002
{
1070
     5
1000
337368
1002
}
1002
{
1070
     2
1000
-2000260
1002
}
  0
LINE
  5
24D
330
25A
100
AcDbEntity
  8
_ARDEX - WELDTEC_-2
100
AcDbLine
 10
3576.956053723788
 20
2462.947093051731
 30
0.0
 11
3574.156053723788
 21
2462.947093051731
 31
0.0
1001
REVIT
1002
{
1070
     1
1000
580553
1002
}
1002
{
1070
     5
1000
337368
1002
}
1002
{
1070
     2
1000
-2000260
1002
}
  0
LINE
  5
24E
330
25A
100
AcDbEntity
  8
_ARDEX - WELDTEC_-2
100
AcDbLine
 10
3576.956053723788
 20
2462.947093051731
 30
0.0
 11
3586.956053723788
 21
2462.947093051731
 31
0.0
1001
REVIT
1002
{
1070
     1
1000
580553
1002
}
1002
{
1070
     5
1000
337368
1002
}
1002
{
1070
     2
1000
-2000260
1002
}
  0
MTEXT
  5
24F
330
25A
100
AcDbEntity
  8
_ARDEX - WELDTEC_-2
 62
     0
100
AcDbMText
 10
3570.615971114613
 20
2408.774820441454
 30
0.0
 40
4.0
 41
10.61345426466803
 46
0.0
 71
     1
 72
     1
  1
100
  7
Swis721 Lt BT
 11
0.0
 21
1.0
 31
0.0
 73
     2
 44
1.005061956881442
1001
REVIT
1002
{
1070
     1
1000
580553
1002
}
1002
{
1070
     5
1000
337368
1002
}
1002
{
1070
     2
1000
-2000260
1002
}
  0
ENDBLK
  5
251
330
244
100
AcDbEntity
  8
0
100
AcDbBlockEnd
  0
BLOCK
  5
2D1
330
270
100
AcDbEntity
  8
0
100
AcDbBlockBegin
  2
_ARDEX_ Landscape Title block - ARDEX Logo_dwg-603482-THRESHOLD AT OPENING
 70
     0
 10
0.0
 20
0.0
 30
0.0
  3
_ARDEX_ Landscape Title block - ARDEX Logo_dwg-603482-THRESHOLD AT OPENING
  1

  0
HATCH
  5
2D0
330
270
100
AcDbEntity
  8
_ARDEX - WELDTEC_
100
AcDbHatch
 10
0.0
 20
0.0
 30
0.0
210
0.0
220
0.0
230
1.0
  2
SOLID
 70
     1
 71
     0
 91
       10
 92
        1
 93
        9
 72
     2
 10
124477.6924476593
 20
57717.91884407958
 40
95604.56878771125
 50
119.6582597659365
 51
135.2772449014122
 73
     1
 72
     2
 10
97569.92099523827
 20
80348.69210974658
 40
60628.55096713104
 50
132.5784142254349
 51
167.1951084870361
 73
     1
 72
     2
 10
84430.2544945385
 20
83335.13079417297
 40
47153.77261030999
 50
167.1951084870365
 51
230.8048915129539
 73
     1
 72
     1
 10
54630.80824474616
 20
46791.03038671248
 11
61031.0658797229
 21
58828.16430584775
 72
     2
 10
101776.0882193553
 20
92587.59123374682
 40
52913.66318785065
 50
140.3564374123571
 51
160.4021121620632
 73
     0
 72
     1
 10
51927.72315465329
 20
74839.45746330507
 11
64132.70340177394
 21
81604.78848708596
 72
     1
 10
64132.70340177394
 20
81604.78848708596
 11
64132.70340177394
 21
42419.71860701207
 72
     1
 10
64132.70340177394
 20
42419.71860701207
 11
77170.09142470383
 21
42419.71860701207
 72
     1
 10
77170.09142470383
 20
42419.71860701207
 11
77170.09142470405
 21
140797.5460612086
 97
        0
 92
        1
 93
       15
 72
     1
 10
99587.9892175987
 20
42419.71860701207
 11
99587.9892175987
 21
93150.58336594923
 72
     1
 10
99587.9892175987
 20
93150.58336594923
 11
104323.244612749
 21
94781.06255447839
 72
     2
 10
104981.1789583829
 20
91893.80516411493
 40
2961.272166041676
 50
257.1629146881614
 51
358.8370853117459
 73
     0
 72
     1
 10
107941.8411889871
 20
91953.90506134176
 11
107941.841188987
 21
42419.71860701207
 72
     1
 10
107941.841188987
 20
42419.71860701207
 11
121218.1847411904
 21
42419.7186070116
 72
     1
 10
121218.1847411904
 20
42419.7186070116
 11
121218.1847411906
 21
100325.0440555206
 72
     2
 10
115257.0429927786
 20
99877.23760612903
 40
5977.937902050918
 50
4.296042690475857
 51
69.70395730952316
 73
     1
 72
     2
 10
117146.8808736564
 20
109112.6270894137
 40
3633.253173235043
 50
272.8987004041956
 51
343.1012995957967
 73
     1
 72
     2
 10
107238.4034856646
 20
112122.807202992
 40
13988.8849002001
 50
343.1012995958001
 51
357.9328247994059
 73
     1
 72
     1
 10
121218.1847411906
 20
111618.2115245613
 11
121218.1847411905
 21
150938.3506316522
 72
     2
 10
117501.9377644241
 20
150938.3506316523
 40
3716.246976766372
 50
359.9999999999992
 51
450.0000000000004
 73
     1
 72
     1
 10
117501.9377644241
 20
154654.5976084187
 11
113759.3810577393
 21
154654.5976084182
 72
     2
 10
138821.7376305251
 20
43198.45589605923
 40
114239.1931098381
 50
102.672909136411
 51
117.4995807340575
 73
     1
 72
     1
 10
86072.69013612203
 20
144530.243755645
 11
86072.69013612182
 21
42419.71860701206
 72
     1
 10
86072.69013612182
 20
42419.71860701207
 11
99587.9892175987
 21
42419.71860701207
 97
        0
 92
        1
 93
        6
 72
     1
 10
99587.9892175987
 20
106990.7139084901
 11
106513.3266407933
 21
109375.2988146446
 72
     2
 10
105781.2900249622
 20
111413.010849934
 40
2165.213140935683
 50
289.7605409069777
 51
356.2394590929184
 73
     1
 72
     1
 10
107941.8411889871
 20
111271.001648431
 11
107941.8411889873
 21
136146.3715334163
 72
     2
 10
106971.8497563286
 20
136110.2439563157
 40
970.663989884431
 50
2.133009904533575
 51
112.1330099047764
 73
     1
 72
     1
 10
106606.1443298939
 20
137009.3813887111
 11
99587.9892175987
 21
133736.7619137283
 72
     1
 10
99587.9892175987
 20
133736.7619137283
 11
99587.9892175987
 21
106990.7139084901
 97
        0
 92
        1
 93
        3
 72
     1
 10
51087.04573740561
 20
89526.02661651836
 11
64132.70340177392
 21
96757.35274203249
 72
     1
 10
64132.70340177394
 20
96757.35274203249
 11
64132.70340177408
 21
113061.0160419619
 72
     2
 10
86373.34223488702
 20
85349.67085119694
 40
35532.58600196028
 50
128.7499156981673
 51
173.2500843018337
 73
     1
 97
        0
 92
        1
 93
        7
 72
     2
 10
159498.6066256473
 20
47171.09768479351
 40
4751.379077781432
 50
269.9999999999983
 51
360.0000000000004
 73
     1
 72
     1
 10
164249.9857034287
 20
47171.09768479354
 11
164249.9857034286
 21
148929.7251247162
 72
     2
 10
153104.0551340759
 20
145652.2312742628
 40
11617.81968342559
 50
16.38612894579416
 51
85.61387105420656
 73
     1
 72
     1
 10
153992.558609905
 20
157236.0258067134
 11
135476.7284421168
 21
157236.025806713
 72
     2
 10
135476.7284421172
 20
132203.633223968
 40
25032.39258274507
 50
90.00000000000087
 51
104.0000000000446
 73
     1
 72
     1
 10
129420.8445770855
 20
156492.4567654637
 11
129420.8445770854
 21
42419.7186070116
 72
     1
 10
129420.8445770854
 20
42419.7186070116
 11
159498.6066256472
 21
42419.71860701208
 97
        0
 92
        1
 93
        6
 72
     1
 10
142697.1881292888
 20
55489.83103482368
 11
149159.4554178724
 21
55489.831034824
 72
     2
 10
149159.4554178724
 20
57304.01776817661
 40
1814.186733352632
 50
270.0000000000007
 51
360.000000000001
 73
     1
 72
     1
 10
150973.642151225
 20
57304.01776817664
 11
150973.642151225
 21
141389.8290366245
 72
     2
 10
148487.8771841638
 20
141389.8290366245
 40
2485.764967061216
 50
0.0000000000003499
 51
90.00000000000033
 73
     1
 72
     1
 10
148487.8771841638
 20
143875.5940036857
 11
142697.1881292891
 21
143875.5940036856
 72
     1
 10
142697.1881292891
 20
143875.5940036856
 11
142697.1881292888
 21
55489.83103482369
 97
        0
 92
        1
 93
       12
 72
     1
 10
172919.8140256379
 20
42419.7186070116
 11
196992.984425274
 21
42419.7186070116
 72
     1
 10
196992.984425274
 20
42419.7186070116
 11
196992.984425274
 21
54546.71171763528
 72
     1
 10
196992.984425274
 20
54546.71171763528
 11
186196.1575778416
 21
54546.71171763528
 72
     1
 10
186196.1575778416
 20
54546.71171763528
 11
186196.1575778406
 21
93476.59036180981
 72
     2
 10
161707.488942156
 20
-25181.90177575424
 40
121159.12119155
 50
281.6609520622133
 51
293.4724250161588
 73
     0
 72
     1
 10
209966.0956403323
 20
85951.52941153274
 11
209966.0956403329
 21
99223.70245050954
 72
     2
 10
169092.3307322618
 20
11417.28922520742
 40
96853.6569327807
 50
65.03808668413701
 51
79.82853623748811
 73
     1
 72
     1
 10
186196.1575778414
 20
106748.763400787
 11
186196.1575778407
 21
134522.6524809155
 72
     2
 10
149649.8952597929
 20
7420.910997906968
 40
132251.585916514
 50
286.0418218054057
 51
291.9581781945935
 73
     0
 72
     1
 10
199102.6932269282
 20
130078.5758650272
 11
199102.6932269291
 21
145460.8194053911
 72
     2
 10
152033.610092587
 20
51290.32160925423
 40
105278.5887171737
 50
63.44281790000926
 51
78.55718209999064
 73
     1
 72
     1
 10
172919.8140256382
 20
154476.3077098232
 11
172919.8140256379
 21
42419.7186070116
 97
        0
 92
        1
 93
       15
 72
     1
 10
200843.9943688388
 20
42419.7186070116
 11
214718.2128208543
 21
42419.7186070116
 72
     1
 10
214718.2128208543
 20
42419.7186070116
 11
225840.6682517806
 21
68725.18316101737
 72
     1
 10
225840.6682517806
 20
68725.18316101737
 11
232246.5421246085
 21
48633.89078637936
 72
     2
 10
215878.5940257774
 20
72169.27135408337
 40
28667.47047495972
 50
304.8171215495268
 51
337.1828784504726
 73
     1
 72
     2
 10
238905.8055971146
 20
62481.42481598525
 40
3685.339995417663
 50
337.1828784504702
 51
369.7138375590516
 73
     1
 72
     1
 10
242538.3079454534
 20
63103.24277257604
 11
234416.0142442291
 21
86692.09649134927
 72
     2
 10
240052.5154725337
 20
88337.50986077392
 40
5871.757083953601
 50
163.7263636887576
 51
201.7263636887611
 73
     0
 72
     1
 10
234597.8742693718
 20
90511.0830934322
 11
240977.2733653132
 21
106520.3588046445
 72
     2
 10
236381.088340801
 20
108071.7744474019
 40
4850.959418109156
 50
341.3481872592003
 51
383.0214723187967
 73
     1
 72
     2
 10
203805.420895314
 20
91153.86535333568
 40
41545.00353168846
 50
26.92877030208263
 51
46.67979184903328
 73
     1
 72
     1
 10
232308.408978194
 20
121379.136051796
 11
228002.309532135
 21
109548.225057822
 72
     1
 10
228002.309532135
 20
109548.225057822
 11
221642.4787337427
 21
132015.9486933683
 72
     2
 10
168731.8755011547
 20
67203.36186232325
 40
83667.21787037084
 50
50.7730691213507
 51
64.40933290079502
 73
     1
 72
     1
 10
204870.9968443084
 20
142663.0680286801
 11
219652.9064905008
 21
89079.28160512716
 72
     1
 10
219652.9064905008
 20
89079.28160512716
 11
200843.9943688388
 21
42419.7186070116
 97
        0
 92
        1
 93
       11
 72
     1
 10
60760.25147079707
 20
33473.4471139251
 11
225743.0881782895
 21
33473.44711392544
 72
     2
 10
195728.5048987643
 20
89689.63940362025
 40
63727.03888457004
 50
298.0983598942144
 51
325.3528772494833
 73
     1
 72
     2
 10
207631.5266048101
 20
81463.83807677157
 40
49258.25409788611
 50
325.3528772494843
 51
362.6471227505195
 73
     1
 72
     2
 10
186230.686382898
 20
80474.39359199833
 40
70681.95505248924
 50
2.647122750518907
 51
35.35287724949006
 73
     1
 72
     2
 10
169807.2708636503
 20
68823.19701422783
 40
90818.46316615475
 50
35.35287724949011
 51
57.50026675947552
 73
     1
 72
     2
 10
145773.4884706048
 20
31097.32782319365
 40
135549.4803950897
 50
57.50026675947544
 51
91.06601590221627
 73
     1
 72
     2
 10
140729.851178483
 20
31097.32782319106
 40
135549.4803950918
 50
88.93398409778516
 51
122.4997332405255
 73
     1
 72
     2
 10
116696.06878544
 20
68823.19701422378
 40
90818.46316615935
 50
122.4997332405263
 51
144.6471227505104
 73
     1
 72
     2
 10
100272.6532661892
 20
80474.39359199847
 40
70681.95505248945
 50
144.6471227505111
 51
177.3528772494822
 73
     1
 72
     2
 10
78871.81304427679
 20
81463.83807677159
 40
49258.25409788603
 50
177.3528772494818
 51
214.6471227505157
 73
     1
 72
     2
 10
90774.83475031492
 20
89689.63940361074
 40
63727.03888455833
 50
214.6471227505147
 51
241.9016401057878
 73
     1
 97
        0
 92
        1
 93
       11
 72
     2
 10
90774.83475032144
 20
89689.63940361852
 40
76114.49352209958
 50
115.6676497836031
 51
145.3528772494841
 73
     0
 72
     2
 10
78871.81304427716
 20
81463.83807677169
 40
61645.7087354179
 50
145.3528772494848
 51
182.6471227505183
 73
     0
 72
     2
 10
100272.6532661902
 20
80474.39359199792
 40
83069.40969002218
 50
182.6471227505189
 51
215.3528772494895
 73
     0
 72
     2
 10
116696.0687854374
 20
68823.19701422652
 40
103205.9178036874
 50
215.3528772494901
 51
237.500266759475
 73
     0
 72
     2
 10
140729.8511784818
 20
31097.32782319603
 40
147936.9350326188
 50
237.5002667594748
 51
270.9767443388683
 73
     0
 72
     2
 10
145773.488470605
 20
31097.32782319397
 40
147936.9350326207
 50
269.0232556611323
 51
302.4997332405255
 73
     0
 72
     2
 10
169807.2708636478
 20
68823.19701422454
 40
103205.9178036901
 50
302.4997332405259
 51
324.6471227505102
 73
     0
 72
     2
 10
186230.6863828967
 20
80474.39359199808
 40
83069.40969002223
 50
324.6471227505111
 51
357.3528772494815
 73
     0
 72
     2
 10
207631.5266048085
 20
81463.8380767721
 40
61645.70873541929
 50
357.3528772494821
 51
394.6471227505164
 73
     0
 72
     2
 10
195728.5048987675
 20
89689.63940361675
 40
76114.49352209723
 50
34.64712275051661
 51
64.33235021639949
 73
     0
 72
     1
 10
228697.516901105
 20
21085.99247639351
 11
57805.82274798077
 21
21085.99247639414
 97
        0
 75
     0
 76
     1
 98
        1
 10
0.0
 20
0.0
450
        0
451
        0
460
0.0
461
0.0
452
        0
462
0.0
453
        0
470

1001
REVIT
1002
{
1070
     1
1000
333591
1002
}
1002
{
1070
     5
1000
333213
1002
}
  0
ENDBLK
  5
2D2
330
270
100
AcDbEntity
  8
0
100
AcDbBlockEnd
  0
BLOCK
  5
2FC
330
2D3
100
AcDbEntity
  8
0
100
AcDbBlockBegin
  2
_ARDEX_ Landscape Title block - _ARDEX_ Landscape Title block-333213-THRESHOLD AT OPENING
 70
     0
 10
0.0
 20
0.0
 30
0.0
  3
_ARDEX_ Landscape Title block - _ARDEX_ Landscape Title block-333213-THRESHOLD AT OPENING
  1

  0
LINE
  5
2D4
330
2D3
100
AcDbEntity
  8
_ARDEX - WELDTEC_
100
AcDbLine
 10
5.3206767357453
 20
0.1047184170705877
 30
0.0
 11
5.3206767357453
 21
20.1047184170714
 31
0.0
1001
REVIT
1002
{
1070
     1
1000
333591
1002
}
1002
{
1070
     5
1000
333213
1002
}
  0
LINE
  5
2D5
330
2D3
100
AcDbEntity
  8
_ARDEX - WELDTEC_
100
AcDbLine
 10
218.5398289799351
 20
10.10471841707111
 30
0.0
 11
255.7980057156809
 21
10.10471841707111
 31
0.0
1001
REVIT
1002
{
1070
     1
1000
333591
1002
}
1002
{
1070
     5
1000
333213
1002
}
  0
LINE
  5
2D6
330
2D3
100
AcDbEntity
  8
_ARDEX - WELDTEC_
100
AcDbLine
 10
285.3206767356986
 20
0.104718417071116
 30
0.0
 11
285.3206767356986
 21
20.10471841707112
 31
0.0
1001
REVIT
1002
{
1070
     1
1000
333591
1002
}
1002
{
1070
     5
1000
333213
1002
}
  0
LINE
  5
2D7
330
2D3
100
AcDbEntity
  8
_ARDEX - WELDTEC_
100
AcDbLine
 10
93.03982897993519
 20
0.1047184170707532
 30
0.0
 11
93.03982897993519
 21
20.10471841707112
 31
0.0
1001
REVIT
1002
{
1070
     1
1000
333591
1002
}
1002
{
1070
     5
1000
333213
1002
}
  0
LINE
  5
2D8
330
2D3
100
AcDbEntity
  8
_ARDEX - WELDTEC_
100
AcDbLine
 10
285.3206767356986
 20
0.1047184170711139
 30
0.0
 11
5.320676735745351
 21
0.1047184170711139
 31
0.0
1001
REVIT
1002
{
1070
     1
1000
333591
1002
}
1002
{
1070
     5
1000
333213
1002
}
  0
LINE
  5
2D9
330
2D3
100
AcDbEntity
  8
_ARDEX - WELDTEC_
100
AcDbLine
 10
5.3206767357453
 20
20.10471841707112
 30
0.0
 11
285.3206767356986
 21
20.10471841707112
 31
0.0
1001
REVIT
1002
{
1070
     1
1000
333591
1002
}
1002
{
1070
     5
1000
333213
1002
}
  0
LINE
  5
2DA
330
2D3
100
AcDbEntity
  8
_ARDEX - WELDTEC_
100
AcDbLine
 10
218.5398289799351
 20
20.10471841707112
 30
0.0
 11
218.5398289799351
 21
0.1047184170711139
 31
0.0
1001
REVIT
1002
{
1070
     1
1000
333591
1002
}
1002
{
1070
     5
1000
333213
1002
}
  0
LINE
  5
2DB
330
2D3
100
AcDbEntity
  8
_ARDEX - WELDTEC_
100
AcDbLine
 10
255.7980057156809
 20
0.1047184170711139
 30
0.0
 11
255.7980057156809
 21
20.10471841707112
 31
0.0
1001
REVIT
1002
{
1070
     1
1000
333591
1002
}
1002
{
1070
     5
1000
333213
1002
}
  0
ARC
  5
2DC
330
2D3
100
AcDbEntity
  8
_ARDEX - WELDTEC_
100
AcDbCircle
 10
264.796839942536
 20
8.615450092703692
 30
0.0
 40
3.599904939316393
100
AcDbArc
 50
128.7499156981656
 51
173.2500843018355
1001
REVIT
1002
{
1070
     1
1000
333591
1002
}
1002
{
1070
     5
1000
333213
1002
}
  0
LINE
  5
2DD
330
2D3
100
AcDbEntity
  8
_ARDEX - WELDTEC_
100
AcDbLine
 10
261.2218872767082
 20
9.038568290379725
 30
0.0
 11
262.5435790742037
 21
9.771194016962342
 31
0.0
1001
REVIT
1002
{
1070
     1
1000
333591
1002
}
1002
{
1070
     5
1000
333213
1002
}
  0
LINE
  5
2DE
330
2D3
100
AcDbEntity
  8
_ARDEX - WELDTEC_
100
AcDbLine
 10
262.5435790742037
 20
9.771194016962342
 30
0.0
 11
262.5435790742037
 21
11.42296341081213
 31
0.0
1001
REVIT
1002
{
1070
     1
1000
333591
1002
}
1002
{
1070
     5
1000
333213
1002
}
  0
LINE
  5
2DF
330
2D3
100
AcDbEntity
  8
_ARDEX - WELDTEC_
100
AcDbLine
 10
266.135652517049
 20
10.80796424829059
 30
0.0
 11
266.9820044536196
 21
11.09938659061303
 31
0.0
1001
REVIT
1002
{
1070
     1
1000
333591
1002
}
1002
{
1070
     5
1000
333213
1002
}
  0
LINE
  5
2E0
330
2D3
100
AcDbEntity
  8
_ARDEX - WELDTEC_
100
AcDbLine
 10
266.9820044536196
 20
11.09938659061303
 30
0.0
 11
266.9820044536196
 21
13.91234101803237
 31
0.0
1001
REVIT
1002
{
1070
     1
1000
333591
1002
}
1002
{
1070
     5
1000
333213
1002
}
  0
LINE
  5
2E1
330
2D3
100
AcDbEntity
  8
_ARDEX - WELDTEC_
100
AcDbLine
 10
266.9820044536196
 20
13.91234101803237
 30
0.0
 11
266.135652517049
 21
13.5176806285152
 31
0.0
1001
REVIT
1002
{
1070
     1
1000
333591
1002
}
1002
{
1070
     5
1000
333213
1002
}
  0
LINE
  5
2E2
330
2D3
100
AcDbEntity
  8
_ARDEX - WELDTEC_
100
AcDbLine
 10
266.135652517049
 20
13.5176806285152
 30
0.0
 11
266.135652517049
 21
10.80796424829059
 31
0.0
1001
REVIT
1002
{
1070
     1
1000
333591
1002
}
1002
{
1070
     5
1000
333213
1002
}
  0
LINE
  5
2E3
330
2D3
100
AcDbEntity
  8
_ARDEX - WELDTEC_
100
AcDbLine
 10
270.5031651456994
 20
5.590266819067713
 30
0.0
 11
271.3408089774199
 21
5.590266819067713
 31
0.0
1001
REVIT
1002
{
1070
     1
1000
333591
1002
}
1002
{
1070
     5
1000
333213
1002
}
  0
LINE
  5
2E4
330
2D3
100
AcDbEntity
  8
_ARDEX - WELDTEC_
100
AcDbLine
 10
271.3408089774199
 20
5.590266819067713
 30
0.0
 11
271.3408089774199
 21
14.54487385665581
 31
0.0
1001
REVIT
1002
{
1070
     1
1000
333591
1002
}
1002
{
1070
     5
1000
333213
1002
}
  0
LINE
  5
2E5
330
2D3
100
AcDbEntity
  8
_ARDEX - WELDTEC_
100
AcDbLine
 10
271.3408089774199
 20
14.54487385665581
 30
0.0
 11
270.5031651456994
 21
14.54487385665581
 31
0.0
1001
REVIT
1002
{
1070
     1
1000
333591
1002
}
1002
{
1070
     5
1000
333213
1002
}
  0
LINE
  5
2E6
330
2D3
100
AcDbEntity
  8
_ARDEX - WELDTEC_
100
AcDbLine
 10
270.5031651456994
 20
14.54487385665581
 30
0.0
 11
270.5031651456994
 21
5.590266819067713
 31
0.0
1001
REVIT
1002
{
1070
     1
1000
333591
1002
}
1002
{
1070
     5
1000
333213
1002
}
  0
MTEXT
  5
2E8
330
2D3
100
AcDbEntity
  8
_ARDEX - WELDTEC_
100
AcDbMText
 10
95.1576274176504
 20
8.67341586252181
 30
0.0
 40
1.5
 41
13.275945
 46
0.0
 71
     1
 72
     1
  1
SHEET TITLE
  7
Swis721 Lt BT_1
 73
     2
 44
1.0
1001
REVIT
1002
{
1070
     1
1000
333591
1002
}
1002
{
1070
     5
1000
333213
1002
}
  0
MTEXT
  5
2E9
330
2D3
100
AcDbEntity
  8
_ARDEX - WELDTEC_
100
AcDbMText
 10
220.3053465833535
 20
13.82166287222621
 30
0.0
 40
1.5
 41
9.95695875
 46
0.0
 71
     1
 72
     1
  1
DWG NO.
  7
Swis721 Lt BT_1
 73
     2
 44
1.0
1001
REVIT
1002
{
1070
     1
1000
333591
1002
}
1002
{
1070
     5
1000
333213
1002
}
  0
MTEXT
  5
2EA
330
2D3
100
AcDbEntity
  8
_ARDEX - WELDTEC_
100
AcDbMText
 10
220.3053465833535
 20
3.82166287222594
 30
0.0
 40
1.5
 41
6.998731874999998
 46
0.0
 71
     1
 72
     1
  1
SCALE
  7
Swis721 Lt BT_1
 73
     2
 44
1.0
1001
REVIT
1002
{
1070
     1
1000
333591
1002
}
1002
{
1070
     5
1000
333213
1002
}
  0
MTEXT
  5
2EC
330
2D3
100
AcDbEntity
  8
_ARDEX - WELDTEC_
100
AcDbMText
 10
239.0752451580743
 20
4.127661816395773
 30
0.0
 40
2.1
 41
8.730376874999999
 46
0.0
 71
     1
 72
     1
  1
@  A4
  7
Swis721 Lt BT_2
 73
     2
 44
1.0
1001
REVIT
1002
{
1070
     1
1000
333591
1002
}
1002
{
1070
     5
1000
333213
1002
}
  0
MTEXT
  5
2ED
330
2D3
100
AcDbEntity
  8
_ARDEX - WELDTEC_
100
AcDbMText
 10
220.3053465833535
 20
7.734351438880705
 30
0.0
 40
1.5
 41
5.62784625
 46
0.0
 71
     1
 72
     1
  1
DATE
  7
Swis721 Lt BT_1
 73
     2
 44
1.0
1001
REVIT
1002
{
1070
     1
1000
333591
1002
}
1002
{
1070
     5
1000
333213
1002
}
  0
MTEXT
  5
2EF
330
2D3
100
AcDbEntity
  8
_ARDEX - WELDTEC_
100
AcDbMText
 10
6.949872989435805
 20
8.938253401590928
 30
0.0
 40
0.7000000000000001
 41
6.6379725
 46
0.0
 71
     1
 72
     1
  1
Disclaimer: 
  7
Swis721 Lt BT_B
 73
     2
 44
1.0
1001
REVIT
1002
{
1070
     1
1000
333591
1002
}
1002
{
1070
     5
1000
333213
1002
}
  0
MTEXT
  5
2F1
330
2D3
100
AcDbEntity
  8
_ARDEX - WELDTEC_
100
AcDbMText
 10
12.4267479894358
 20
8.938253401590928
 30
0.0
 40
0.7000000000000001
 41
17.821513125
 46
0.0
 71
     1
 72
     1
  1
Ardex makes every reasonable effort
  7
Swis721 Lt BT_3
 73
     2
 44
1.0
1001
REVIT
1002
{
1070
     1
1000
333591
1002
}
1002
{
1070
     5
1000
333213
1002
}
  0
MTEXT
  5
2F2
330
2D3
100
AcDbEntity
  8
_ARDEX - WELDTEC_
100
AcDbMText
 10
27.13096673943581
 20
8.938253401590928
 30
0.0
 40
0.7000000000000001
 41
0.3607593750000011
 46
0.0
 71
     1
 72
     1
  1
\fSwis721 Lt BT|b1|i0|c0|p34|;\W.9; 
  7
Swis721 Lt BT_B
 73
     2
 44
1.0
1001
REVIT
1002
{
1070
     1
1000
333591
1002
}
1002
{
1070
     5
1000
333213
1002
}
  0
MTEXT
  5
2F3
330
2D3
100
AcDbEntity
  8
_ARDEX - WELDTEC_
100
AcDbMText
 10
27.42862298943581
 20
8.938253401590928
 30
0.0
 40
0.7000000000000001
 41
13.27594499999999
 46
0.0
 71
     1
 72
     1
  1
to ensure that the technical
  7
Swis721 Lt BT_3
 73
     2
 44
1.0
1001
REVIT
1002
{
1070
     1
1000
333591
1002
}
1002
{
1070
     5
1000
333213
1002
}
  0
MTEXT
  5
2F4
330
2D3
100
AcDbEntity
  8
_ARDEX - WELDTEC_
100
AcDbMText
 10
38.3823729894358
 20
8.938253401590928
 30
0.0
 40
0.7000000000000001
 41
0.3607593750000057
 46
0.0
 71
     1
 72
     1
  1
\fSwis721 Lt BT|b1|i0|c0|p34|;\W.9; 
  7
Swis721 Lt BT_B
 73
     2
 44
1.0
1001
REVIT
1002
{
1070
     1
1000
333591
1002
}
1002
{
1070
     5
1000
333213
1002
}
  0
MTEXT
  5
2F5
330
2D3
100
AcDbEntity
  8
_ARDEX - WELDTEC_
100
AcDbMText
 10
38.6800292394358
 20
8.938253401590928
 30
0.0
 40
0.7000000000000001
 41
59.95820812499999
 46
0.0
 71
     1
 72
     1
  1
details, recommendations and other information contained in this drawing are accurate and represent our knowledge and 
  7
Swis721 Lt BT_3
 73
     2
 44
1.0
1001
REVIT
1002
{
1070
     1
1000
333591
1002
}
1002
{
1070
     5
1000
333213
1002
}
  0
MTEXT
  5
2F6
330
2D3
100
AcDbEntity
  8
_ARDEX - WELDTEC_
100
AcDbMText
 10
6.949872989435805
 20
7.681482568257595
 30
0.0
 40
0.7000000000000001
 41
98.920220625
 46
0.0
 71
     1
 72
     1
  1
experience at the time of design and publication. Ardex reserves the right to change the information without prior notice.  Ardex provides the information in good faith with no representations or warranties 
  7
Swis721 Lt BT_3
 73
     2
 44
1.0
1001
REVIT
1002
{
1070
     1
1000
333591
1002
}
1002
{
1070
     5
1000
333213
1002
}
  0
MTEXT
  5
2F7
330
2D3
100
AcDbEntity
  8
_ARDEX - WELDTEC_
100
AcDbMText
 10
6.949872989435805
 20
6.424711734924262
 30
0.0
 40
0.7000000000000001
 41
100.1468025
 46
0.0
 71
     1
 72
     1
  1
(whether implied or otherwise), and will not be liable for any losses or damages (whether direct, indirect or consequential) whatsoever, whether in contract, negligence  or any other action, arising out of or in 
  7
Swis721 Lt BT_3
 73
     2
 44
1.0
1001
REVIT
1002
{
1070
     1
1000
333591
1002
}
1002
{
1070
     5
1000
333213
1002
}
  0
MTEXT
  5
2F8
330
2D3
100
AcDbEntity
  8
_ARDEX - WELDTEC_
100
AcDbMText
 10
6.949872989435805
 20
5.167940901590927
 30
0.0
 40
0.7000000000000001
 41
29.221509375
 46
0.0
 71
     1
 72
     1
  1
connection with the use, or inability to use, the information.  
  7
Swis721 Lt BT_3
 73
     2
 44
1.0
1001
REVIT
1002
{
1070
     1
1000
333591
1002
}
1002
{
1070
     5
1000
333213
1002
}
  0
MTEXT
  5
2F9
330
2D3
100
AcDbEntity
  8
_ARDEX - WELDTEC_
100
AcDbMText
 10
6.949872989435805
 20
3.911170068257595
 30
0.0
 40
0.7000000000000001
 41
100.1468025
 46
0.0
 71
     1
 72
     1
  1
It is your responsibility to ensure that our products are used only for the purposes for which they are intended and are used in accordance with any applicable specifications, guidelines, standards, codes of 
  7
Swis721 Lt BT_3
 73
     2
 44
1.0
1001
REVIT
1002
{
1070
     1
1000
333591
1002
}
1002
{
1070
     5
1000
333213
1002
}
  0
MTEXT
  5
2FA
330
2D3
100
AcDbEntity
  8
_ARDEX - WELDTEC_
100
AcDbMText
 10
6.949872989435805
 20
2.654399234924261
 30
0.0
 40
0.7000000000000001
 41
79.94427750000001
 46
0.0
 71
     1
 72
     1
  1
practice, regulations and laws. The supply of our products and services are also subject to certain terms, warranties and exclusions which are available on request.
  7
Swis721 Lt BT_3
 73
     2
 44
1.0
1001
REVIT
1002
{
1070
     1
1000
333591
1002
}
1002
{
1070
     5
1000
333213
1002
}
  0
INSERT
  5
2FB
330
2D3
100
AcDbEntity
  8
0
100
AcDbBlockReference
  2
_ARDEX_ Landscape Title block - ARDEX Logo_dwg-603482-THRESHOLD AT OPENING
 10
256.0461168367232
 20
-0.0315620231414024
 30
0.0
 41
0.0001013127763658
 42
0.0001013127763658
 43
0.0001013127763658
  0
ENDBLK
  5
2FD
330
2D3
100
AcDbEntity
  8
0
100
AcDbBlockEnd
  0
ENDSEC
  0
SECTION
  2
ENTITIES
  0
INSERT
  5
C9
330
70
100
AcDbEntity
  8
_ARDEX - WELDTEC_
100
AcDbBlockReference
  2
_ARDEX_ Fillet - _ARDEX_ Fillet 20mm FOR AW03-579000-AB-02 THRESHOLD AT OPENING
 10
3632.437585429491
 20
2359.947093051732
 30
0.0
1001
REVIT
1002
{
1070
     1
1000
407675
1002
}
1002
{
1070
     5
1000
579000
1002
}
1002
{
1070
     2
1000
-2002000
1002
}
  0
INSERT
  5
D6
330
70
100
AcDbEntity
  8
_ARDEX - WELDTEC_
100
AcDbBlockReference
  2
_ARDEX_ Sealant - _ARDEX_ Sealant - CA20P-549056-AB-02 THRESHOLD AT OPENING
 10
3726.952159271603
 20
2466.398377133024
 30
0.0
1001
REVIT
1002
{
1070
     1
1000
548877
1002
}
1002
{
1070
     5
1000
474001
1002
}
1002
{
1070
     2
1000
-2002000
1002
}
  0
INSERT
  5
E3
330
70
100
AcDbEntity
  8
_ARDEX - WELDTEC_
100
AcDbBlockReference
  2
_ARDEX_ Concrete corner - _ARDEX_ Enclosed deck structure-580273-AB-02 THRESHOLD AT OPENING
 10
3632.437585429491
 20
2359.947093051732
 30
0.0
1001
REVIT
1002
{
1070
     1
1000
579953
1002
}
1002
{
1070
     5
1000
404702
1002
}
1002
{
1070
     2
1000
-2002000
1002
}
  0
INSERT
  5
E8
330
70
100
AcDbEntity
  8
_ARDEX - WELDTEC_
100
AcDbBlockReference
  2
_ARDEX_ Lines - Membrane-580593-AB-02 THRESHOLD AT OPENING
 10
3435.074042680158
 20
2363.447093051732
 30
0.0
1001
REVIT
1002
{
1070
     1
1000
579955
1002
}
1002
{
1070
     5
1000
569180
1002
}
1002
{
1070
     2
1000
-2002000
1002
}
  0
INSERT
  5
F9
330
70
100
AcDbEntity
  8
_ARDEX - WELDTEC_
100
AcDbBlockReference
  2
_ARDEX_ Lining - Various - Polyiso Board 35MM-602862-AB-02 THRESHOLD AT OPENING
 10
3434.437585429492
 20
2359.947093051732
 30
0.0
1001
REVIT
1002
{
1070
     1
1000
579956
1002
}
1002
{
1070
     5
1000
569182
1002
}
1002
{
1070
     2
1000
-2002000
1002
}
  0
INSERT
  5
FE
330
70
100
AcDbEntity
  8
_ARDEX - WELDTEC_
100
AcDbBlockReference
  2
_ARDEX_ Lines - Barrier-578936-AB-02 THRESHOLD AT OPENING
 10
3434.383747041731
 20
2326.951506983008
 30
0.0
1001
REVIT
1002
{
1070
     1
1000
579957
1002
}
1002
{
1070
     5
1000
569184
1002
}
1002
{
1070
     2
1000
-2002000
1002
}
  0
INSERT
  5
103
330
70
100
AcDbEntity
  8
_ARDEX - WELDTEC_
100
AcDbBlockReference
  2
_ARDEX_ Lines - Barrier-580325-AB-02 THRESHOLD AT OPENING
 10
3631.469764559751
 20
2359.947093051732
 30
0.0
 50
270.0
1001
REVIT
1002
{
1070
     1
1000
579958
1002
}
1002
{
1070
     5
1000
569184
1002
}
1002
{
1070
     2
1000
-2002000
1002
}
  0
INSERT
  5
10A
330
70
100
AcDbEntity
  8
_ARDEX - WELDTEC_
100
AcDbBlockReference
  2
_ARDEX_ Lining - Various - Substrate-603615-AB-02 THRESHOLD AT OPENING
 10
3434.437585429492
 20
2307.914752766331
 30
0.0
1001
REVIT
1002
{
1070
     1
1000
579959
1002
}
1002
{
1070
     5
1000
569186
1002
}
1002
{
1070
     2
1000
-2002000
1002
}
  0
INSERT
  5
10F
330
70
100
AcDbEntity
  8
_ARDEX - WELDTEC_
100
AcDbBlockReference
  2
_ARDEX_ Lines - Membrane-580592-AB-02 THRESHOLD AT OPENING
 10
3612.361849498203
 20
2363.447093051732
 30
0.0
 50
45.0
1001
REVIT
1002
{
1070
     1
1000
407676
1002
}
1002
{
1070
     5
1000
569180
1002
}
1002
{
1070
     2
1000
-2002000
1002
}
  0
INSERT
  5
114
330
70
100
AcDbEntity
  8
_ARDEX - WELDTEC_
100
AcDbBlockReference
  2
_ARDEX_ Lines - Membrane-580020-AB-02 THRESHOLD AT OPENING
 10
3629.937585429491
 20
2464.447093051733
 30
0.0
 50
270.0
1001
REVIT
1002
{
1070
     1
1000
407679
1002
}
1002
{
1070
     5
1000
569180
1002
}
1002
{
1070
     2
1000
-2002000
1002
}
  0
INSERT
  5
119
330
70
100
AcDbEntity
  8
_ARDEX - WELDTEC_
100
AcDbBlockReference
  2
_ARDEX_ Lines - Membrane-580021-AB-02 THRESHOLD AT OPENING
 10
3629.937585429491
 20
2464.447093051733
 30
0.0
1001
REVIT
1002
{
1070
     1
1000
453742
1002
}
1002
{
1070
     5
1000
569180
1002
}
1002
{
1070
     2
1000
-2002000
1002
}
  0
INSERT
  5
1FA
330
70
100
AcDbEntity
  8
_ARDEX - WELDTEC_
 62
     8
420
  8421504
100
AcDbBlockReference
  2
RES Fixed Head _ Jamb _ Sill - RES Fixed Head _ Jamb-547261-AB-02 THRESHOLD AT OPENING
 10
3603.902159271601
 20
2493.047256608117
 30
0.0
1001
REVIT
1002
{
1070
     1
1000
458783
1002
}
1002
{
1070
     5
1000
458781
1002
}
1002
{
1070
     2
1000
-2002000
1002
}
  0
INSERT
  5
20A
330
70
100
AcDbEntity
  8
_ARDEX - WELDTEC_
100
AcDbBlockReference
  2
_ARDEX_ Flashing - Sill - _ARDEX_ Sill Flashing-602852-AB-02 THRESHOLD AT OPENING
 10
3654.132794340409
 20
2468.986157919547
 30
0.0
 50
180.0
1001
REVIT
1002
{
1070
     1
1000
459327
1002
}
1002
{
1070
     5
1000
459319
1002
}
1002
{
1070
     2
1000
-2002000
1002
}
  0
LINE
  5
20B
330
70
100
AcDbEntity
  8
_ARDEX - BUTYNOL_
  6
Dash
 62
     8
420
  8421504
370
     9
100
AcDbLine
 10
3629.937585429489
 20
2464.447093051733
 30
0.0
 11
3629.937585429489
 21
2564.447093051733
 31
0.0
1001
REVIT
1002
{
1070
     1
1000
461531
1002
}
1002
{
1070
     2
1000
-2000051
1002
}
1002
{
1070
     3
1000
330683
1002
}
  0
LINE
  5
20C
330
70
100
AcDbEntity
  8
_ARDEX - BUTYNOL_
  6
Dash
 62
     8
420
  8421504
370
     9
100
AcDbLine
 10
3629.937585429489
 20
2564.447093051733
 30
0.0
 11
3724.952159271602
 21
2564.447093051733
 31
0.0
1001
REVIT
1002
{
1070
     1
1000
461574
1002
}
1002
{
1070
     2
1000
-2000051
1002
}
1002
{
1070
     3
1000
330683
1002
}
  0
LINE
  5
20D
330
70
100
AcDbEntity
  8
_ARDEX - BUTYNOL_
  6
Dash
 62
     8
420
  8421504
370
     9
100
AcDbLine
 10
3724.952159271602
 20
2464.447093051733
 30
0.0
 11
3724.952159271602
 21
2564.447093051733
 31
0.0
1001
REVIT
1002
{
1070
     1
1000
461624
1002
}
1002
{
1070
     2
1000
-2000051
1002
}
1002
{
1070
     3
1000
330683
1002
}
  0
INSERT
  5
216
330
70
100
AcDbEntity
  8
_ARDEX - WELDTEC_
 62
   156
420
    16512
100
AcDbBlockReference
  2
_ARDEX_ Framing - Packing-540345-AB-02 THRESHOLD AT OPENING
 10
3592.089601985425
 20
2575.398377133025
 30
0.0
1001
REVIT
1002
{
1070
     1
1000
493462
1002
}
1002
{
1070
     5
1000
489120
1002
}
1002
{
1070
     2
1000
-2002000
1002
}
  0
MTEXT
  5
218
330
70
100
AcDbEntity
  8
_ARDEX - WELDTEC_
100
AcDbMText
 10
3748.045374480086
 20
2456.406612443809
 30
0.0
 40
4.0
 41
63.3333125
 46
0.0
 71
     1
 72
     1
  1
FLOOR STRUCTURE
  7
Swis721 Lt BT
 73
     2
 44
1.0
1001
REVIT
1002
{
1070
     1
1000
407688
1002
}
1002
{
1070
     5
1000
343954
1002
}
1002
{
1070
     2
1000
-2000300
1002
}
  0
INSERT
  5
21F
330
70
100
AcDbEntity
  8
_ARDEX - WELDTEC_
100
AcDbBlockReference
  2
_ARDEX_ Level Manual - _ARDEX_ Level Manual-406101-AB-02 THRESHOLD AT OPENING
 10
3806.078652940044
 20
2463.197093051732
 30
0.0
 41
2.0
 42
2.0
 43
2.0
1001
REVIT
1002
{
1070
     1
1000
407694
1002
}
1002
{
1070
     5
1000
406101
1002
}
1002
{
1070
     2
1000
-2000150
1002
}
  0
MTEXT
  5
220
330
70
100
AcDbEntity
  8
_ARDEX - WELDTEC_
100
AcDbMText
 10
3802.67201322829
 20
2475.297092065658
 30
0.0
 40
4.0
 41
75.03795000000001
 46
0.0
 71
     1
 72
     1
  1
FINISHED FLOOR LEVEL
  7
Swis721 Lt BT
 73
     2
 44
1.0
1001
REVIT
1002
{
1070
     1
1000
407694
1002
}
1002
{
1070
     5
1000
406101
1002
}
1002
{
1070
     2
1000
-2000150
1002
}
  0
CIRCLE
  5
221
330
70
100
AcDbEntity
  8
_ARDEX - WELDTEC_
100
AcDbCircle
 10
3626.479649993887
 20
2467.246357977212
 30
0.0
 40
1.50000000000021
1001
REVIT
1002
{
1070
     1
1000
461134
1002
}
1002
{
1070
     5
1000
372253
1002
}
1002
{
1070
     2
1000
-2005022
1002
}
  0
HATCH
  5
222
330
70
100
AcDbEntity
  8
_ARDEX - WELDTEC_
100
AcDbHatch
 10
0.0
 20
0.0
 30
0.0
210
0.0
220
0.0
230
1.0
  2
SOLID
 70
     1
 71
     0
 91
        1
 92
        1
 93
        1
 72
     2
 10
3626.479649993887
 20
2467.246357977212
 40
1.50000000000021
 50
0.0
 51
360.0
 73
     1
 97
        0
 75
     0
 76
     1
 98
        1
 10
0.0
 20
0.0
450
        0
451
        0
460
0.0
461
0.0
452
        0
462
0.0
453
        0
470

1001
REVIT
1002
{
1070
     1
1000
461134
1002
}
1002
{
1070
     5
1000
372253
1002
}
1002
{
1070
     2
1000
-2005022
1002
}
  0
LINE
  5
223
330
70
100
AcDbEntity
  8
_ARDEX - WELDTEC_
100
AcDbLine
 10
3613.201744259793
 20
2473.941010794845
 30
0.0
 11
3565.043671994475
 21
2473.941010794845
 31
0.0
1001
REVIT
1002
{
1070
     1
1000
461134
1002
}
1002
{
1070
     5
1000
372253
1002
}
1002
{
1070
     2
1000
-2005022
1002
}
  0
LINE
  5
224
330
70
100
AcDbEntity
  8
_ARDEX - WELDTEC_
100
AcDbLine
 10
3626.479649993887
 20
2467.246357977212
 30
0.0
 11
3613.201744259793
 21
2473.941010794845
 31
0.0
1001
REVIT
1002
{
1070
     1
1000
461134
1002
}
1002
{
1070
     5
1000
372253
1002
}
1002
{
1070
     2
1000
-2005022
1002
}
  0
MTEXT
  5
225
330
70
100
AcDbEntity
  8
_ARDEX - WELDTEC_
100
AcDbMText
 10
3472.963671994475
 20
2479.267052461512
 30
0.0
 40
4.0
 41
111.4345625
 46
0.0
 71
     1
 72
     1
  1
SILL FLASHING WITH 5º SLOPE AND
  7
Swis721 Lt BT
 73
     2
 44
1.0
1001
REVIT
1002
{
1070
     1
1000
461134
1002
}
1002
{
1070
     5
1000
372253
1002
}
1002
{
1070
     2
1000
-2005022
1002
}
  0
MTEXT
  5
226
330
70
100
AcDbEntity
  8
_ARDEX - WELDTEC_
100
AcDbMText
 10
3472.963671994475
 20
2472.520177461512
 30
0.0
 40
4.0
 41
35.27425
 46
0.0
 71
     1
 72
     1
  1
STOPENDS
  7
Swis721 Lt BT
 73
     2
 44
1.0
1001
REVIT
1002
{
1070
     1
1000
461134
1002
}
1002
{
1070
     5
1000
372253
1002
}
1002
{
1070
     2
1000
-2005022
1002
}
  0
CIRCLE
  5
227
330
70
100
AcDbEntity
  8
_ARDEX - WELDTEC_
100
AcDbCircle
 10
3725.472321991958
 20
2518.69366081786
 30
0.0
 40
1.5
1001
REVIT
1002
{
1070
     1
1000
461636
1002
}
1002
{
1070
     5
1000
343954
1002
}
1002
{
1070
     2
1000
-2000300
1002
}
  0
HATCH
  5
228
330
70
100
AcDbEntity
  8
_ARDEX - WELDTEC_
100
AcDbHatch
 10
0.0
 20
0.0
 30
0.0
210
0.0
220
0.0
230
1.0
  2
SOLID
 70
     1
 71
     0
 91
        1
 92
        1
 93
        1
 72
     2
 10
3725.472321991958
 20
2518.69366081786
 40
1.5
 50
0.0
 51
360.0
 73
     1
 97
        0
 75
     0
 76
     1
 98
        1
 10
0.0
 20
0.0
450
        0
451
        0
460
0.0
461
0.0
452
        0
462
0.0
453
        0
470

1001
REVIT
1002
{
1070
     1
1000
461636
1002
}
1002
{
1070
     5
1000
343954
1002
}
1002
{
1070
     2
1000
-2000300
1002
}
  0
LINE
  5
229
330
70
100
AcDbEntity
  8
_ARDEX - WELDTEC_
100
AcDbLine
 10
3725.472321991958
 20
2518.69366081786
 30
0.0
 11
3798.843842443114
 21
2518.69366081786
 31
0.0
1001
REVIT
1002
{
1070
     1
1000
461636
1002
}
1002
{
1070
     5
1000
343954
1002
}
1002
{
1070
     2
1000
-2000300
1002
}
  0
MTEXT
  5
22A
330
70
100
AcDbEntity
  8
_ARDEX - WELDTEC_
100
AcDbMText
 10
3802.907842443114
 20
2520.69366081786
 30
0.0
 40
4.0
 41
102.7763375
 46
0.0
 71
     1
 72
     1
  1
DRESS MEMBRANE 100mm MIN. 
  7
Swis721 Lt BT
 73
     2
 44
1.0
1001
REVIT
1002
{
1070
     1
1000
461636
1002
}
1002
{
1070
     5
1000
343954
1002
}
1002
{
1070
     2
1000
-2000300
1002
}
  0
MTEXT
  5
22B
330
70
100
AcDbEntity
  8
_ARDEX - WELDTEC_
100
AcDbMText
 10
3802.907842443114
 20
2513.946785817861
 30
0.0
 40
4.0
 41
106.6244375
 46
0.0
 71
     1
 72
     1
  1
UP FRAMING AT ENDS. WIDTH TO 
  7
Swis721 Lt BT
 73
     2
 44
1.0
1001
REVIT
1002
{
1070
     1
1000
461636
1002
}
1002
{
1070
     5
1000
343954
1002
}
1002
{
1070
     2
1000
-2000300
1002
}
  0
MTEXT
  5
22C
330
70
100
AcDbEntity
  8
_ARDEX - WELDTEC_
100
AcDbMText
 10
3802.907842443114
 20
2507.19991081786
 30
0.0
 40
4.0
 41
94.59912499999997
 46
0.0
 71
     1
 72
     1
  1
SUIT JOINERY AND CLADDING
  7
Swis721 Lt BT
 73
     2
 44
1.0
1001
REVIT
1002
{
1070
     1
1000
461636
1002
}
1002
{
1070
     5
1000
343954
1002
}
1002
{
1070
     2
1000
-2000300
1002
}
  0
LINE
  5
22D
330
70
100
AcDbEntity
  8
_ARDEX - WELDTEC_
100
AcDbLine
 10
3530.732216676987
 20
2440.521977557831
 30
0.0
 11
3522.95639357998
 21
2440.521977557831
 31
0.0
1001
REVIT
1002
{
1070
     1
1000
461644
1002
}
1002
{
1070
     5
1000
343954
1002
}
1002
{
1070
     2
1000
-2000300
1002
}
  0
CIRCLE
  5
22E
330
70
100
AcDbEntity
  8
_ARDEX - WELDTEC_
100
AcDbCircle
 10
3617.953101405726
 20
2440.521977557831
 30
0.0
 40
1.5
1001
REVIT
1002
{
1070
     1
1000
461644
1002
}
1002
{
1070
     5
1000
343954
1002
}
1002
{
1070
     2
1000
-2000300
1002
}
  0
HATCH
  5
22F
330
70
100
AcDbEntity
  8
_ARDEX - WELDTEC_
100
AcDbHatch
 10
0.0
 20
0.0
 30
0.0
210
0.0
220
0.0
230
1.0
  2
SOLID
 70
     1
 71
     0
 91
        1
 92
        1
 93
        1
 72
     2
 10
3617.953101405726
 20
2440.521977557831
 40
1.5
 50
0.0
 51
360.0
 73
     1
 97
        0
 75
     0
 76
     1
 98
        1
 10
0.0
 20
0.0
450
        0
451
        0
460
0.0
461
0.0
452
        0
462
0.0
453
        0
470

1001
REVIT
1002
{
1070
     1
1000
461644
1002
}
1002
{
1070
     5
1000
343954
1002
}
1002
{
1070
     2
1000
-2000300
1002
}
  0
LINE
  5
230
330
70
100
AcDbEntity
  8
_ARDEX - WELDTEC_
100
AcDbLine
 10
3617.953101405726
 20
2440.521977557831
 30
0.0
 11
3530.732216676987
 21
2440.521977557831
 31
0.0
1001
REVIT
1002
{
1070
     1
1000
461644
1002
}
1002
{
1070
     5
1000
343954
1002
}
1002
{
1070
     2
1000
-2000300
1002
}
  0
MTEXT
  5
231
330
70
100
AcDbEntity
  8
_ARDEX - WELDTEC_
100
AcDbMText
 10
3472.325726913313
 20
2442.521977557832
 30
0.0
 40
4.0
 41
56.43879999999999
 46
0.0
 71
     1
 72
     1
  1
WALL OFFSET TO 
  7
Swis721 Lt BT
 73
     2
 44
1.0
1001
REVIT
1002
{
1070
     1
1000
461644
1002
}
1002
{
1070
     5
1000
343954
1002
}
1002
{
1070
     2
1000
-2000300
1002
}
  0
MTEXT
  5
232
330
70
100
AcDbEntity
  8
_ARDEX - WELDTEC_
100
AcDbMText
 10
3472.325726913313
 20
2435.775102557832
 30
0.0
 40
4.0
 41
59.00419999999999
 46
0.0
 71
     1
 72
     1
  1
DECK STRUCTURE
  7
Swis721 Lt BT
 73
     2
 44
1.0
1001
REVIT
1002
{
1070
     1
1000
461644
1002
}
1002
{
1070
     5
1000
343954
1002
}
1002
{
1070
     2
1000
-2000300
1002
}
  0
CIRCLE
  5
233
330
70
100
AcDbEntity
  8
_ARDEX - WELDTEC_
100
AcDbCircle
 10
3727.436305549194
 20
2468.64469587985
 30
0.0
 40
1.499999999999925
1001
REVIT
1002
{
1070
     1
1000
549063
1002
}
1002
{
1070
     5
1000
372253
1002
}
1002
{
1070
     2
1000
-2005022
1002
}
  0
HATCH
  5
234
330
70
100
AcDbEntity
  8
_ARDEX - WELDTEC_
100
AcDbHatch
 10
0.0
 20
0.0
 30
0.0
210
0.0
220
0.0
230
1.0
  2
SOLID
 70
     1
 71
     0
 91
        1
 92
        1
 93
        1
 72
     2
 10
3727.436305549194
 20
2468.64469587985
 40
1.499999999999925
 50
0.0
 51
360.0
 73
     1
 97
        0
 75
     0
 76
     1
 98
        1
 10
0.0
 20
0.0
450
        0
451
        0
460
0.0
461
0.0
452
        0
462
0.0
453
        0
470

1001
REVIT
1002
{
1070
     1
1000
549063
1002
}
1002
{
1070
     5
1000
372253
1002
}
1002
{
1070
     2
1000
-2005022
1002
}
  0
LINE
  5
235
330
70
100
AcDbEntity
  8
_ARDEX - WELDTEC_
100
AcDbLine
 10
3758.186746600462
 20
2494.224708789754
 30
0.0
 11
3798.461660543715
 21
2494.224708789754
 31
0.0
1001
REVIT
1002
{
1070
     1
1000
549063
1002
}
1002
{
1070
     5
1000
372253
1002
}
1002
{
1070
     2
1000
-2005022
1002
}
  0
LINE
  5
236
330
70
100
AcDbEntity
  8
_ARDEX - WELDTEC_
100
AcDbLine
 10
3727.436305549194
 20
2468.64469587985
 30
0.0
 11
3758.186746600462
 21
2494.224708789754
 31
0.0
1001
REVIT
1002
{
1070
     1
1000
549063
1002
}
1002
{
1070
     5
1000
372253
1002
}
1002
{
1070
     2
1000
-2005022
1002
}
  0
MTEXT
  5
237
330
70
100
AcDbEntity
  8
_ARDEX - WELDTEC_
100
AcDbMText
 10
3802.505219612927
 20
2496.180750456421
 30
0.0
 40
4.0
 41
43.932475
 46
0.0
 71
     1
 72
     1
  1
ARDEX CA20P
  7
Swis721 Lt BT
 73
     2
 44
1.0
1001
REVIT
1002
{
1070
     1
1000
549063
1002
}
1002
{
1070
     5
1000
372253
1002
}
1002
{
1070
     2
1000
-2005022
1002
}
  0
CIRCLE
  5
238
330
70
100
AcDbEntity
  8
_ARDEX - WELDTEC_
100
AcDbCircle
 10
3545.828400946812
 20
2364.956953901061
 30
0.0
 40
1.500000000000454
1001
REVIT
1002
{
1070
     1
1000
579960
1002
}
1002
{
1070
     5
1000
372253
1002
}
1002
{
1070
     2
1000
-2005022
1002
}
  0
HATCH
  5
239
330
70
100
AcDbEntity
  8
_ARDEX - WELDTEC_
100
AcDbHatch
 10
0.0
 20
0.0
 30
0.0
210
0.0
220
0.0
230
1.0
  2
SOLID
 70
     1
 71
     0
 91
        1
 92
        1
 93
        1
 72
     2
 10
3545.828400946812
 20
2364.956953901061
 40
1.500000000000454
 50
0.0
 51
360.0
 73
     1
 97
        0
 75
     0
 76
     1
 98
        1
 10
0.0
 20
0.0
450
        0
451
        0
460
0.0
461
0.0
452
        0
462
0.0
453
        0
470

1001
REVIT
1002
{
1070
     1
1000
579960
1002
}
1002
{
1070
     5
1000
372253
1002
}
1002
{
1070
     2
1000
-2005022
1002
}
  0
LINE
  5
23A
330
70
100
AcDbEntity
  8
_ARDEX - WELDTEC_
100
AcDbLine
 10
3545.828400946812
 20
2386.20475556963
 30
0.0
 11
3507.124369504416
 21
2386.20475556963
 31
0.0
1001
REVIT
1002
{
1070
     1
1000
579960
1002
}
1002
{
1070
     5
1000
372253
1002
}
1002
{
1070
     2
1000
-2005022
1002
}
  0
LINE
  5
23B
330
70
100
AcDbEntity
  8
_ARDEX - WELDTEC_
100
AcDbLine
 10
3545.828400946812
 20
2364.956953901061
 30
0.0
 11
3545.828400946812
 21
2386.20475556963
 31
0.0
1001
REVIT
1002
{
1070
     1
1000
579960
1002
}
1002
{
1070
     5
1000
372253
1002
}
1002
{
1070
     2
1000
-2005022
1002
}
  0
MTEXT
  5
23C
330
70
100
AcDbEntity
  8
_ARDEX - WELDTEC_
100
AcDbMText
 10
3456.724369504416
 20
2388.160797236297
 30
0.0
 40
4.0
 41
60.92825
 46
0.0
 71
     1
 72
     1
  1
ARDEX MEMBRANE
  7
Swis721 Lt BT
 73
     2
 44
1.0
1001
REVIT
1002
{
1070
     1
1000
579960
1002
}
1002
{
1070
     5
1000
372253
1002
}
1002
{
1070
     2
1000
-2005022
1002
}
  0
MTEXT
  5
23D
330
70
100
AcDbEntity
  8
_ARDEX - WELDTEC_
100
AcDbMText
 10
3536.481144498703
 20
2345.9031347184
 30
0.0
 40
4.0
 41
76.32065
 46
0.0
 71
     1
 72
     1
  1
ARDEX POLYISO BOARD
  7
Swis721 Lt BT
 73
     2
 44
1.0
1001
REVIT
1002
{
1070
     1
1000
579961
1002
}
1002
{
1070
     5
1000
372253
1002
}
1002
{
1070
     2
1000
-2005022
1002
}
  0
MTEXT
  5
23E
330
70
100
AcDbEntity
  8
_ARDEX - WELDTEC_
100
AcDbMText
 10
3553.351144498704
 20
2318.870794432998
 30
0.0
 40
4.0
 41
37.83965
 46
0.0
 71
     1
 72
     1
  1
SUBSTRATE
  7
Swis721 Lt BT
 73
     2
 44
1.0
1001
REVIT
1002
{
1070
     1
1000
579962
1002
}
1002
{
1070
     5
1000
372253
1002
}
1002
{
1070
     2
1000
-2005022
1002
}
  0
CIRCLE
  5
23F
330
70
100
AcDbEntity
  8
_ARDEX - WELDTEC_
100
AcDbCircle
 10
3527.753058825896
 20
2327.756995502758
 30
0.0
 40
1.500000000000454
1001
REVIT
1002
{
1070
     1
1000
579963
1002
}
1002
{
1070
     5
1000
372253
1002
}
1002
{
1070
     2
1000
-2005022
1002
}
  0
HATCH
  5
240
330
70
100
AcDbEntity
  8
_ARDEX - WELDTEC_
100
AcDbHatch
 10
0.0
 20
0.0
 30
0.0
210
0.0
220
0.0
230
1.0
  2
SOLID
 70
     1
 71
     0
 91
        1
 92
        1
 93
        1
 72
     2
 10
3527.753058825896
 20
2327.756995502758
 40
1.500000000000454
 50
0.0
 51
360.0
 73
     1
 97
        0
 75
     0
 76
     1
 98
        1
 10
0.0
 20
0.0
450
        0
451
        0
460
0.0
461
0.0
452
        0
462
0.0
453
        0
470

1001
REVIT
1002
{
1070
     1
1000
579963
1002
}
1002
{
1070
     5
1000
372253
1002
}
1002
{
1070
     2
1000
-2005022
1002
}
  0
LINE
  5
241
330
70
100
AcDbEntity
  8
_ARDEX - WELDTEC_
100
AcDbLine
 10
3527.753058825896
 20
2373.662739848432
 30
0.0
 11
3522.244369504416
 21
2373.662739848432
 31
0.0
1001
REVIT
1002
{
1070
     1
1000
579963
1002
}
1002
{
1070
     5
1000
372253
1002
}
1002
{
1070
     2
1000
-2005022
1002
}
  0
LINE
  5
242
330
70
100
AcDbEntity
  8
_ARDEX - WELDTEC_
100
AcDbLine
 10
3527.753058825896
 20
2327.756995502758
 30
0.0
 11
3527.753058825896
 21
2373.662739848432
 31
0.0
1001
REVIT
1002
{
1070
     1
1000
579963
1002
}
1002
{
1070
     5
1000
372253
1002
}
1002
{
1070
     2
1000
-2005022
1002
}
  0
MTEXT
  5
243
330
70
100
AcDbEntity
  8
_ARDEX - WELDTEC_
100
AcDbMText
 10
3456.224369504416
 20
2375.618781515099
 30
0.0
 40
4.0
 41
79.84807499999999
 46
0.0
 71
     1
 72
     1
  1
ARDEX VAPOUR BARRIER
  7
Swis721 Lt BT
 73
     2
 44
1.0
1001
REVIT
1002
{
1070
     1
1000
579963
1002
}
1002
{
1070
     5
1000
372253
1002
}
1002
{
1070
     2
1000
-2005022
1002
}
  0
DIMENSION
  5
257
330
70
100
AcDbEntity
  8
_ARDEX - WELDTEC_
100
AcDbDimension
  2
DIMBLOCK1-AB-02 THRESHOLD AT OPENING
 10
3576.956053723789
 20
2363.447093051733
 30
0.0
 11
3573.900385022488
 21
2413.197093051731
 31
0.0
 70
    32
 71
     5
 42
99.49999999999954
 73
     0
 74
     0
 75
     0
  3
_ARDEX__-_2mm
100
AcDbAlignedDimension
 13
3586.956053723788
 23
2462.947093051731
 33
0.0
 14
3586.956053723787
 24
2363.447093051732
 34
0.0
 50
89.99999999999991
100
AcDbRotatedDimension
1001
ACAD
1000
DSTYLE
1002
{
1070
    49
1040
99.49999999999954
1002
}
1001
REVIT
1002
{
1070
     1
1000
580553
1002
}
1002
{
1070
     5
1000
337368
1002
}
1002
{
1070
     2
1000
-2000260
1002
}
  0
CIRCLE
  5
266
330
70
100
AcDbEntity
  8
_ARDEX - WELDTEC_
100
AcDbCircle
 10
3632.437585429491
 20
2369.947093051732
 30
0.0
 40
1.500000000000454
1001
REVIT
1002
{
1070
     1
1000
605030
1002
}
1002
{
1070
     5
1000
372253
1002
}
1002
{
1070
     2
1000
-2005022
1002
}
  0
HATCH
  5
267
330
70
100
AcDbEntity
  8
_ARDEX - WELDTEC_
100
AcDbHatch
 10
0.0
 20
0.0
 30
0.0
210
0.0
220
0.0
230
1.0
  2
SOLID
 70
     1
 71
     0
 91
        1
 92
        1
 93
        1
 72
     2
 10
3632.437585429491
 20
2369.947093051732
 40
1.500000000000454
 50
0.0
 51
360.0
 73
     1
 97
        0
 75
     0
 76
     1
 98
        1
 10
0.0
 20
0.0
450
        0
451
        0
460
0.0
461
0.0
452
        0
462
0.0
453
        0
470

1001
REVIT
1002
{
1070
     1
1000
605030
1002
}
1002
{
1070
     5
1000
372253
1002
}
1002
{
1070
     2
1000
-2005022
1002
}
  0
LINE
  5
268
330
70
100
AcDbEntity
  8
_ARDEX - WELDTEC_
100
AcDbLine
 10
3632.437585429491
 20
2369.947093051732
 30
0.0
 11
3657.837585429491
 21
2369.947093051732
 31
0.0
1001
REVIT
1002
{
1070
     1
1000
605030
1002
}
1002
{
1070
     5
1000
372253
1002
}
1002
{
1070
     2
1000
-2005022
1002
}
  0
MTEXT
  5
269
330
70
100
AcDbEntity
  8
_ARDEX - WELDTEC_
100
AcDbMText
 10
3661.881144498704
 20
2375.273134718399
 30
0.0
 40
4.0
 41
106.784775
 46
0.0
 71
     1
 72
     1
  1
FILLET OPTIONAL DEPENDING ON
  7
Swis721 Lt BT
 73
     2
 44
1.0
1001
REVIT
1002
{
1070
     1
1000
605030
1002
}
1002
{
1070
     5
1000
372253
1002
}
1002
{
1070
     2
1000
-2005022
1002
}
  0
MTEXT
  5
26A
330
70
100
AcDbEntity
  8
_ARDEX - WELDTEC_
100
AcDbMText
 10
3661.881144498704
 20
2368.526259718399
 30
0.0
 40
4.0
 41
37.518975
 46
0.0
 71
     1
 72
     1
  1
MEMBRANE
  7
Swis721 Lt BT
 73
     2
 44
1.0
1001
REVIT
1002
{
1070
     1
1000
605030
1002
}
1002
{
1070
     5
1000
372253
1002
}
1002
{
1070
     2
1000
-2005022
1002
}
  0
VIEWPORT
  5
26B
330
6C
100
AcDbEntity
 67
     1
  8
_ARDEX - WELDTEC_
100
AcDbViewport
 10
145.3206558342062
 20
98.90468347537337
 30
0.0
 40
283.0000115076765
 41
200.6000046070426
 68
    -1
 69
     2
 12
3652.384083370216
 22
2446.357793104156
 13
0.0
 23
0.0
 14
0.0
 24
0.0
 15
0.0
 25
0.0
 16
0.0
 26
0.0
 36
1.0
 17
0.0
 27
0.0
 37
0.0
 42
0.0
 43
0.0
 44
0.0
 45
401.2000092140852
 50
0.0
 51
0.0
 72
  1000
 90
    32768
  1

281
     0
 71
     1
 74
     1
110
0.0
120
0.0
130
0.0
111
1.0
121
0.0
131
0.0
112
0.0
122
1.0
132
0.0
 79
     0
146
0.0
170
     0
 61
     5
292
     1
282
     1
141
0.0
142
0.0
 63
   250
421
  3355443
  0
VIEWPORT
  5
26D
330
6C
100
AcDbEntity
 67
     1
  8
0
100
AcDbViewport
 10
6.0
 20
4.5
 30
0.0
 40
12.0
 41
9.0
 68
    -1
 69
     1
 12
6.0
 22
4.5
 13
0.0
 23
0.0
 14
0.0
 24
0.0
 15
0.0
 25
0.0
 16
0.0
 26
0.0
 36
1.0
 17
0.0
 27
0.0
 37
0.0
 42
50.0
 43
0.0
 44
0.0
 45
12.0
 50
0.0
 51
0.0
 72
   100
 90
    32800
  1

281
     0
 71
     1
 74
     1
110
0.0
120
0.0
130
0.0
111
1.0
121
0.0
131
0.0
112
0.0
122
1.0
132
0.0
 79
     0
146
0.0
170
     0
 61
     5
292
     1
282
     1
141
0.0
142
0.0
 63
   250
421
  3355443
  0
INSERT
  5
2FE
330
6C
100
AcDbEntity
 67
     1
  8
_ARDEX - WELDTEC_
100
AcDbBlockReference
  2
_ARDEX_ Landscape Title block - _ARDEX_ Landscape Title block-333213-THRESHOLD AT OPENING
 10
0.0
 20
0.0
 30
0.0
1001
REVIT
1002
{
1070
     1
1000
333591
1002
}
1002
{
1070
     5
1000
333213
1002
}
1002
{
1070
     2
1000
-2000280
1002
}
  0
MTEXT
  5
300
330
6C
100
AcDbEntity
 67
     1
  8
_ARDEX - WELDTEC_
100
AcDbMText
 10
231.0292895384866
 20
4.159953483062439
 30
0.0
 40
2.0
 41
7.295356249999999
 46
0.0
 71
     1
 72
     1
  1
 1 : 2
  7
Swis721 Lt BT_4
 73
     2
 44
1.0
 90
        3
 63
     9
421
 13158600
 45
1.25
441
        0
1001
REVIT
1002
{
1070
     1
1000
333591
1002
}
1002
{
1070
     5
1000
333213
1002
}
1002
{
1070
     2
1000
-2000280
1002
}
  0
MTEXT
  5
302
330
6C
100
AcDbEntity
 67
     1
  8
_ARDEX - WELDTEC_
 62
   133
420
  7589074
100
AcDbMText
 10
7.016261025088629
 20
17.11411991695474
 30
0.0
 40
5.0
 41
101.517688125
 46
0.0
 71
     1
 72
     1
  1
ARDEX WARM ROOFING
  7
Arial Black_B
 73
     2
 44
1.0
1001
REVIT
1002
{
1070
     1
1000
333591
1002
}
1002
{
1070
     5
1000
333213
1002
}
1002
{
1070
     2
1000
-2000280
1002
}
  0
MTEXT
  5
304
330
6C
100
AcDbEntity
 67
     1
  8
_ARDEX - WELDTEC_
100
AcDbMText
 10
95.1576274176504
 20
13.00813448458874
 30
0.0
 40
3.0
 41
60.52740625
 46
0.0
 71
     1
 72
     1
  1
THRESHOLD AT OPENING
  7
Swis721 Lt BT_5
 73
     2
 44
1.0
 90
        3
 63
     9
421
 13158600
 45
1.25
441
        0
1001
REVIT
1002
{
1070
     1
1000
333591
1002
}
1002
{
1070
     5
1000
333213
1002
}
1002
{
1070
     2
1000
-2000280
1002
}
  0
MTEXT
  5
306
330
6C
100
AcDbEntity
 67
     1
  8
_ARDEX - WELDTEC_
100
AcDbMText
 10
231.6542895384866
 20
17.41984908362141
 30
0.0
 40
4.0
 41
26.05484375
 46
0.0
 71
     1
 72
     1
  1
AWR-02
  7
Arial
 73
     2
 44
1.0
 90
        3
 63
     9
421
 13158600
 45
1.25
441
        0
1001
REVIT
1002
{
1070
     1
1000
333591
1002
}
1002
{
1070
     5
1000
333213
1002
}
1002
{
1070
     2
1000
-2000280
1002
}
  0
MTEXT
  5
307
330
6C
100
AcDbEntity
 67
     1
  8
_ARDEX - WELDTEC_
100
AcDbMText
 10
231.6542895384866
 20
8.218762607224865
 30
0.0
 40
2.0
 41
16.8354375
 46
0.0
 71
     1
 72
     1
  1
30/06/2022
  7
Swis721 Lt BT_4
 73
     2
 44
1.0
 90
        3
 63
     9
421
 13158600
 45
1.25
441
        0
1001
REVIT
1002
{
1070
     1
1000
333591
1002
}
1002
{
1070
     5
1000
333213
1002
}
1002
{
1070
     2
1000
-2000280
1002
}
  0
ENDSEC
  0
SECTION
  2
OBJECTS
  0
DICTIONARY
  5
C
330
0
100
AcDbDictionary
281
     1
  3
ACAD_CIP_PREVIOUS_PRODUCT_INFO
350
79
  3
ACAD_COLOR
350
63
  3
ACAD_DETAILVIEWSTYLE
350
6A
  3
ACAD_GROUP
350
D
  3
ACAD_IMAGE_VARS
350
7A
  3
ACAD_LAYOUT
350
62
  3
ACAD_MATERIAL
350
10
  3
ACAD_MLEADERSTYLE
350
66
  3
ACAD_MLINESTYLE
350
5F
  3
ACAD_PLOTSETTINGS
350
61
  3
ACAD_PLOTSTYLENAME
350
E
  3
ACAD_SCALELIST
350
42
  3
ACAD_SECTIONVIEWSTYLE
350
68
  3
ACAD_TABLESTYLE
350
64
  3
ACAD_VISUALSTYLE
350
29
  3
ACDB_RECOMPOSE_DATA
350
315
  3
AcDbVariableDictionary
350
7B
  3
REVIT_DICTIONARY
350
308
  0
SUN
  5
30F
330
57
100
AcDbSun
 90
        1
290
     1
 63
     7
421
 16777215
 40
0.3
291
     1
 91
  2459407
 92
 65350000
292
     0
 70
     1
 71
   128
280
     1
1001
ACAD
1000
AcDbSavedByObjectVersion
1070
     0
  0
DICTIONARY
  5
30D
330
70
100
AcDbDictionary
280
     1
281
     1
  3
ACAD_SORTENTS
360
30E
  0
XRECORD
  5
79
102
{ACAD_REACTORS
330
C
102
}
330
C
100
AcDbXrecord
280
     1
300
RVT
300
2023
300
RVT2023
  0
DICTIONARY
  5
63
102
{ACAD_REACTORS
330
C
102
}
330
C
100
AcDbDictionary
281
     1
  0
DICTIONARY
  5
6A
102
{ACAD_REACTORS
330
C
102
}
330
C
100
AcDbDictionary
281
     1
  3
Imperial24
350
6B
  0
DICTIONARY
  5
D
102
{ACAD_REACTORS
330
C
102
}
330
C
100
AcDbDictionary
281
     1
  0
RASTERVARIABLES
  5
7A
102
{ACAD_REACTORS
330
C
102
}
330
C
100
AcDbRasterVariables
 90
        0
 70
     0
 71
     1
 72
     1
  0
DICTIONARY
  5
62
102
{ACAD_REACTORS
330
C
102
}
330
C
100
AcDbDictionary
281
     1
  3
Layout1
350
6F
  3
Layout2
350
77
  3
Model
350
73
  0
DICTIONARY
  5
10
102
{ACAD_REACTORS
330
C
102
}
330
C
100
AcDbDictionary
281
     1
  3
ByBlock
350
19
  3
ByLayer
350
11
  3
Global
350
21
  0
DICTIONARY
  5
66
102
{ACAD_REACTORS
330
C
102
}
330
C
100
AcDbDictionary
281
     1
  3
Standard
350
67
  0
DICTIONARY
  5
5F
102
{ACAD_REACTORS
330
C
102
}
330
C
100
AcDbDictionary
281
     1
  3
Standard
350
60
  0
DICTIONARY
  5
61
102
{ACAD_REACTORS
330
C
102
}
330
C
100
AcDbDictionary
281
     1
  0
ACDBDICTIONARYWDFLT
  5
E
102
{ACAD_REACTORS
330
C
102
}
330
C
100
AcDbDictionary
281
     1
  3
Normal
350
F
100
AcDbDictionaryWithDefault
340
F
  0
DICTIONARY
  5
42
102
{ACAD_REACTORS
330
C
102
}
330
C
100
AcDbDictionary
281
     1
  3
A0
350
43
  3
A1
350
44
  3
A2
350
45
  3
A3
350
46
  3
A4
350
47
  3
A5
350
48
  3
A6
350
49
  3
A7
350
4A
  3
A8
350
4B
  3
A9
350
4C
  3
B0
350
4D
  3
B1
350
4E
  3
B2
350
4F
  3
B3
350
50
  3
B4
350
51
  3
B5
350
52
  3
B6
350
53
  0
DICTIONARY
  5
68
102
{ACAD_REACTORS
330
C
102
}
330
C
100
AcDbDictionary
281
     1
  3
Imperial24
350
69
  0
DICTIONARY
  5
64
102
{ACAD_REACTORS
330
C
102
}
330
C
100
AcDbDictionary
281
     1
  3
Standard
350
65
  0
DICTIONARY
  5
29
102
{ACAD_REACTORS
330
C
102
}
330
C
100
AcDbDictionary
281
     1
  3
2dWireframe
350
2F
  3
Basic
350
2E
  3
Brighten
350
35
  3
ColorChange
350
39
  3
Conceptual
350
32
  3
Dim
350
34
  3
EdgeColorOff
350
41
  3
Facepattern
350
38
  3
Flat
350
2A
  3
FlatWithEdges
350
2B
  3
Gouraud
350
2C
  3
GouraudWithEdges
350
2D
  3
Hidden
350
31
  3
JitterOff
350
3F
  3
Linepattern
350
37
  3
OverhangOff
350
40
  3
Realistic
350
33
  3
Shaded
350
3E
  3
Shaded with edges
350
3D
  3
Shades of Gray
350
3A
  3
Sketchy
350
3B
  3
Thicken
350
36
  3
Wireframe
350
30
  3
X-Ray
350
3C
  0
XRECORD
  5
315
102
{ACAD_REACTORS
330
C
102
}
330
C
100
AcDbXrecord
280
     1
 90
        1
330
65
  0
DICTIONARY
  5
7B
102
{ACAD_REACTORS
330
C
102
}
330
C
100
AcDbDictionary
281
     1
  3
CANNOSCALE
350
80
  3
CMLEADERSTYLE
350
7D
  3
CTABLESTYLE
350
7C
  3
CVIEWDETAILSTYLE
350
7E
  3
CVIEWSECTIONSTYLE
350
7F
  3
XCLIPFRAME
350
81
  0
DICTIONARY
  5
308
102
{ACAD_REACTORS
330
C
102
}
330
C
100
AcDbDictionary
281
     1
  3
DRAWING_TOOL
350
30C
  3
REVIT_CATEGORY_MAPPING
350
30A
  3
REVIT_SUB_CATEGORY_MAPPING
350
30B
  3
REVIT_TYPE_MAPPING
350
309
  0
SORTENTSTABLE
  5
30E
102
{ACAD_REACTORS
330
30D
102
}
330
30D
100
AcDbSortentsTable
330
70
  0
ACDBDETAILVIEWSTYLE
  5
6B
102
{ACAD_XDICTIONARY
360
34B
102
}
102
{ACAD_REACTORS
330
6A
102
}
330
6A
100
AcDbModelDocViewStyle
 70
     0
  3
Imperial24
290
     0
100
AcDbDetailViewStyle
 70
     0
 71
     0
 90
        3
 71
     1
340
55
 62
   256
 40
0.24
340
0
 62
   256
 40
0.24
300

 40
0.36
280
     3
 71
     2
340
5D
 90
       25
 62
   256
 71
     3
340
55
 62
   256
 40
0.24
 90
        1
 40
0.75
 90
        1
300
%<\AcVar ViewType \f "%tc1">% %<\AcVar ViewDetailId>%\PSCALE %<\AcVar ViewScale \f "%sn">%
 71
     4
340
5D
 90
       25
 62
   256
340
5D
 90
       25
 62
   256
280
     0
  0
LAYOUT
  5
6F
102
{ACAD_REACTORS
330
62
102
}
330
62
100
AcDbPlotSettings
  1

  2

  4

  6

 40
0.0
 41
0.0
 42
0.0
 43
0.0
 44
0.0
 45
0.0
 46
0.0
 47
0.0
 48
0.0
 49
0.0
140
0.0
141
0.0
142
1.0
143
1.0
 70
   688
 72
     0
 73
     0
 74
     5
  7

 75
    16
147
1.0
 76
     0
 77
     2
 78
   300
148
0.0
149
0.0
100
AcDbLayout
  1
Layout1
 70
     1
 71
     1
 10
0.0
 20
0.0
 11
12.0
 21
9.0
 12
0.0
 22
0.0
 32
0.0
 14
0.0
 24
0.0
 34
0.0
 15
0.0
 25
0.0
 35
0.0
146
0.0
 13
0.0
 23
0.0
 33
0.0
 16
1.0
 26
0.0
 36
0.0
 17
0.0
 27
1.0
 37
0.0
 76
     0
330
6C
  0
LAYOUT
  5
77
102
{ACAD_REACTORS
330
62
102
}
330
62
100
AcDbPlotSettings
  1

  2

  4

  6

 40
0.0
 41
0.0
 42
0.0
 43
0.0
 44
0.0
 45
0.0
 46
0.0
 47
0.0
 48
0.0
 49
0.0
140
0.0
141
0.0
142
1.0
143
1.0
 70
   688
 72
     0
 73
     0
 74
     5
  7

 75
    16
147
1.0
 76
     0
 77
     2
 78
   300
148
0.0
149
0.0
100
AcDbLayout
  1
Layout2
 70
     1
 71
     2
 10
0.0
 20
0.0
 11
12.0
 21
9.0
 12
0.0
 22
0.0
 32
0.0
 14
0.0
 24
0.0
 34
0.0
 15
0.0
 25
0.0
 35
0.0
146
0.0
 13
0.0
 23
0.0
 33
0.0
 16
1.0
 26
0.0
 36
0.0
 17
0.0
 27
1.0
 37
0.0
 76
     0
330
74
  0
LAYOUT
  5
73
102
{ACAD_REACTORS
330
62
102
}
330
62
100
AcDbPlotSettings
  1

  2

  4

  6

 40
0.0
 41
0.0
 42
0.0
 43
0.0
 44
0.0
 45
0.0
 46
0.0
 47
0.0
 48
0.0
 49
0.0
140
0.0
141
0.0
142
1.0
143
1.0
 70
  1712
 72
     0
 73
     0
 74
     0
  7

 75
     0
147
1.0
 76
     0
 77
     2
 78
   300
148
0.0
149
0.0
100
AcDbLayout
  1
Model
 70
     1
 71
     0
 10
0.0
 20
0.0
 11
12.0
 21
9.0
 12
0.0
 22
0.0
 32
0.0
 14
0.0
 24
0.0
 34
0.0
 15
0.0
 25
0.0
 35
0.0
146
0.0
 13
0.0
 23
0.0
 33
0.0
 16
1.0
 26
0.0
 36
0.0
 17
0.0
 27
1.0
 37
0.0
 76
     0
330
70
  0
MATERIAL
  5
19
102
{ACAD_XDICTIONARY
360
1A
102
}
102
{ACAD_REACTORS
330
10
102
}
330
10
100
AcDbMaterial
  1
ByBlock
 72
     0
 43
0.0208333333333333
 43
0.0
 43
0.0
 43
0.0
 43
0.0
 43
0.0208333333333333
 43
0.0
 43
0.0
 43
0.0
 43
0.0
 43
1.0
 43
0.0
 43
0.0
 43
0.0
 43
0.0
 43
1.0
 77
     0
 47
0.0208333333333333
 47
0.0
 47
0.0
 47
0.0
 47
0.0
 47
0.0208333333333333
 47
0.0
 47
0.0
 47
0.0
 47
0.0
 47
1.0
 47
0.0
 47
0.0
 47
0.0
 47
0.0
 47
1.0
171
     0
 49
0.0208333333333333
 49
0.0
 49
0.0
 49
0.0
 49
0.0
 49
0.0208333333333333
 49
0.0
 49
0.0
 49
0.0
 49
0.0
 49
1.0
 49
0.0
 49
0.0
 49
0.0
 49
0.0
 49
1.0
175
     0
142
0.0208333333333333
142
0.0
142
0.0
142
0.0
142
0.0
142
0.0208333333333333
142
0.0
142
0.0
142
0.0
142
0.0
142
1.0
142
0.0
142
0.0
142
0.0
142
0.0
142
1.0
179
     0
144
0.0208333333333333
144
0.0
144
0.0
144
0.0
144
0.0
144
0.0208333333333333
144
0.0
144
0.0
144
0.0
144
0.0
144
1.0
144
0.0
144
0.0
144
0.0
144
0.0
144
1.0
147
0.0208333333333333
147
0.0
147
0.0
147
0.0
147
0.0
147
0.0208333333333333
147
0.0
147
0.0
147
0.0
147
0.0
147
1.0
147
0.0
147
0.0
147
0.0
147
0.0
147
1.0
  0
MATERIAL
  5
11
102
{ACAD_XDICTIONARY
360
12
102
}
102
{ACAD_REACTORS
330
10
102
}
330
10
100
AcDbMaterial
  1
ByLayer
 72
     0
 43
0.0208333333333333
 43
0.0
 43
0.0
 43
0.0
 43
0.0
 43
0.0208333333333333
 43
0.0
 43
0.0
 43
0.0
 43
0.0
 43
1.0
 43
0.0
 43
0.0
 43
0.0
 43
0.0
 43
1.0
 77
     0
 47
0.0208333333333333
 47
0.0
 47
0.0
 47
0.0
 47
0.0
 47
0.0208333333333333
 47
0.0
 47
0.0
 47
0.0
 47
0.0
 47
1.0
 47
0.0
 47
0.0
 47
0.0
 47
0.0
 47
1.0
171
     0
 49
0.0208333333333333
 49
0.0
 49
0.0
 49
0.0
 49
0.0
 49
0.0208333333333333
 49
0.0
 49
0.0
 49
0.0
 49
0.0
 49
1.0
 49
0.0
 49
0.0
 49
0.0
 49
0.0
 49
1.0
175
     0
142
0.0208333333333333
142
0.0
142
0.0
142
0.0
142
0.0
142
0.0208333333333333
142
0.0
142
0.0
142
0.0
142
0.0
142
1.0
142
0.0
142
0.0
142
0.0
142
0.0
142
1.0
179
     0
144
0.0208333333333333
144
0.0
144
0.0
144
0.0
144
0.0
144
0.0208333333333333
144
0.0
144
0.0
144
0.0
144
0.0
144
1.0
144
0.0
144
0.0
144
0.0
144
0.0
144
1.0
147
0.0208333333333333
147
0.0
147
0.0
147
0.0
147
0.0
147
0.0208333333333333
147
0.0
147
0.0
147
0.0
147
0.0
147
1.0
147
0.0
147
0.0
147
0.0
147
0.0
147
1.0
  0
MATERIAL
  5
21
102
{ACAD_XDICTIONARY
360
22
102
}
102
{ACAD_REACTORS
330
10
102
}
330
10
100
AcDbMaterial
  1
Global
 72
     0
 43
0.0208333333333333
 43
0.0
 43
0.0
 43
0.0
 43
0.0
 43
0.0208333333333333
 43
0.0
 43
0.0
 43
0.0
 43
0.0
 43
1.0
 43
0.0
 43
0.0
 43
0.0
 43
0.0
 43
1.0
 77
     0
 47
0.0208333333333333
 47
0.0
 47
0.0
 47
0.0
 47
0.0
 47
0.0208333333333333
 47
0.0
 47
0.0
 47
0.0
 47
0.0
 47
1.0
 47
0.0
 47
0.0
 47
0.0
 47
0.0
 47
1.0
171
     0
 49
0.0208333333333333
 49
0.0
 49
0.0
 49
0.0
 49
0.0
 49
0.0208333333333333
 49
0.0
 49
0.0
 49
0.0
 49
0.0
 49
1.0
 49
0.0
 49
0.0
 49
0.0
 49
0.0
 49
1.0
175
     0
142
0.0208333333333333
142
0.0
142
0.0
142
0.0
142
0.0
142
0.0208333333333333
142
0.0
142
0.0
142
0.0
142
0.0
142
1.0
142
0.0
142
0.0
142
0.0
142
0.0
142
1.0
179
     0
144
0.0208333333333333
144
0.0
144
0.0
144
0.0
144
0.0
144
0.0208333333333333
144
0.0
144
0.0
144
0.0
144
0.0
144
1.0
144
0.0
144
0.0
144
0.0
144
0.0
144
1.0
147
0.0208333333333333
147
0.0
147
0.0
147
0.0
147
0.0
147
0.0208333333333333
147
0.0
147
0.0
147
0.0
147
0.0
147
1.0
147
0.0
147
0.0
147
0.0
147
0.0
147
1.0
  0
MLEADERSTYLE
  5
67
102
{ACAD_XDICTIONARY
360
347
102
}
102
{ACAD_REACTORS
330
66
102
}
330
66
100
AcDbMLeaderStyle
170
     2
171
     1
172
     0
 90
        2
 40
0.0
 41
0.0
173
     1
 91
-1056964608
340
5B
 92
       -2
290
     1
 42
0.09
291
     1
 43
0.36
  3
Standard
 44
0.18
300

342
55
174
     1
178
     6
175
     1
176
     0
 93
-1056964608
 45
0.18
292
     0
297
     0
 46
0.18
 94
-1056964608
 47
1.0
 49
1.0
140
1.0
293
     1
141
0.0
294
     1
177
     0
142
1.0
295
     0
296
     0
143
0.125
1001
ACAD_MLEADERVER
1070
     2
  0
MLINESTYLE
  5
60
102
{ACAD_REACTORS
330
5F
102
}
330
5F
100
AcDbMlineStyle
  2
STANDARD
 70
     0
  3

 62
   256
 51
90.0
 52
90.0
 71
     2
 49
0.5
 62
   256
  6
BYLAYER
 49
-0.5
 62
   256
  6
BYLAYER
  0
ACDBPLACEHOLDER
  5
F
102
{ACAD_REACTORS
330
E
102
}
330
E
  0
SCALE
  5
43
102
{ACAD_REACTORS
330
42
102
}
330
42
100
AcDbScale
 70
     0
300
1:1
140
1.0
141
1.0
290
     1
  0
SCALE
  5
44
102
{ACAD_REACTORS
330
42
102
}
330
42
100
AcDbScale
 70
     0
300
1/128" = 1'-0"
140
0.0078125
141
12.0
290
     0
  0
SCALE
  5
45
102
{ACAD_REACTORS
330
42
102
}
330
42
100
AcDbScale
 70
     0
300
1/64" = 1'-0"
140
0.015625
141
12.0
290
     0
  0
SCALE
  5
46
102
{ACAD_REACTORS
330
42
102
}
330
42
100
AcDbScale
 70
     0
300
1/32" = 1'-0"
140
0.03125
141
12.0
290
     0
  0
SCALE
  5
47
102
{ACAD_REACTORS
330
42
102
}
330
42
100
AcDbScale
 70
     0
300
1/16" = 1'-0"
140
0.0625
141
12.0
290
     0
  0
SCALE
  5
48
102
{ACAD_REACTORS
330
42
102
}
330
42
100
AcDbScale
 70
     0
300
3/32" = 1'-0"
140
0.09375
141
12.0
290
     0
  0
SCALE
  5
49
102
{ACAD_REACTORS
330
42
102
}
330
42
100
AcDbScale
 70
     0
300
1/8" = 1'-0"
140
0.125
141
12.0
290
     0
  0
SCALE
  5
4A
102
{ACAD_REACTORS
330
42
102
}
330
42
100
AcDbScale
 70
     0
300
3/16" = 1'-0"
140
0.1875
141
12.0
290
     0
  0
SCALE
  5
4B
102
{ACAD_REACTORS
330
42
102
}
330
42
100
AcDbScale
 70
     0
300
1/4" = 1'-0"
140
0.25
141
12.0
290
     0
  0
SCALE
  5
4C
102
{ACAD_REACTORS
330
42
102
}
330
42
100
AcDbScale
 70
     0
300
3/8" = 1'-0"
140
0.375
141
12.0
290
     0
  0
SCALE
  5
4D
102
{ACAD_REACTORS
330
42
102
}
330
42
100
AcDbScale
 70
     0
300
1/2" = 1'-0"
140
0.5
141
12.0
290
     0
  0
SCALE
  5
4E
102
{ACAD_REACTORS
330
42
102
}
330
42
100
AcDbScale
 70
     0
300
3/4" = 1'-0"
140
0.75
141
12.0
290
     0
  0
SCALE
  5
4F
102
{ACAD_REACTORS
330
42
102
}
330
42
100
AcDbScale
 70
     0
300
1" = 1'-0"
140
1.0
141
12.0
290
     0
  0
SCALE
  5
50
102
{ACAD_REACTORS
330
42
102
}
330
42
100
AcDbScale
 70
     0
300
1-1/2" = 1'-0"
140
1.5
141
12.0
290
     0
  0
SCALE
  5
51
102
{ACAD_REACTORS
330
42
102
}
330
42
100
AcDbScale
 70
     0
300
3" = 1'-0"
140
3.0
141
12.0
290
     0
  0
SCALE
  5
52
102
{ACAD_REACTORS
330
42
102
}
330
42
100
AcDbScale
 70
     0
300
6" = 1'-0"
140
6.0
141
12.0
290
     0
  0
SCALE
  5
53
102
{ACAD_REACTORS
330
42
102
}
330
42
100
AcDbScale
 70
     0
300
1'-0" = 1'-0"
140
12.0
141
12.0
290
     0
  0
ACDBSECTIONVIEWSTYLE
  5
69
102
{ACAD_XDICTIONARY
360
349
102
}
102
{ACAD_REACTORS
330
68
102
}
330
68
100
AcDbModelDocViewStyle
 70
     0
  3
Imperial24
290
     0
100
AcDbSectionViewStyle
 70
     0
 71
     0
 90
       78
 71
     1
340
55
 62
   256
 40
0.24
340
0
340
0
 62
   256
 40
0.24
300
I, O, Q, S, X, Z
 40
0.48
 90
        3
 40
0.18
 90
        1
 71
     2
340
5D
 90
       25
 62
   256
340
5D
 90
       50
 62
   256
 40
0.24
 40
0.0
 40
0.24
 71
     3
340
55
 62
   256
 40
0.24
 90
        1
 40
0.75
 90
        1
300
%<\AcVar ViewType \f "%tc1">% %<\AcVar ViewSectionStartId>%-%<\AcVar ViewSectionEndId>%\PSCALE %<\AcVar ViewScale \f "%sn">%
 71
     4
 62
   256
 62
   257
300
ANSI31
 40
1.0
 90
        0
290
     0
290
     0
 90
        6
 40
0.0
 40
1.570796326794896
 40
0.2617993877991494
 40
1.308996938995747
 40
-0.2617993877991494
 40
1.832595714594046
  0
TABLESTYLE
  5
65
102
{ACAD_XDICTIONARY
360
310
102
}
102
{ACAD_REACTORS
330
64
102
}
330
64
100
AcDbTableStyle
  3
Standard
 70
     0
 71
     0
 40
0.06
 41
0.06
280
     0
281
     0
  7
Standard
140
0.18
170
     2
 62
     0
 63
     7
283
     0
 90
      512
 91
        0
  1

274
    -2
284
     1
 64
     0
275
    -2
285
     1
 65
     0
276
    -2
286
     1
 66
     0
277
    -2
287
     1
 67
     0
278
    -2
288
     1
 68
     0
279
    -2
289
     1
 69
     0
  7
Standard
140
0.25
170
     5
 62
     0
 63
     7
283
     0
 90
      512
 91
        0
  1

274
    -2
284
     1
 64
     0
275
    -2
285
     1
 65
     0
276
    -2
286
     1
 66
     0
277
    -2
287
     1
 67
     0
278
    -2
288
     1
 68
     0
279
    -2
289
     1
 69
     0
  7
Standard
140
0.18
170
     5
 62
     0
 63
     7
283
     0
 90
      512
 91
        0
  1

274
    -2
284
     1
 64
     0
275
    -2
285
     1
 65
     0
276
    -2
286
     1
 66
     0
277
    -2
287
     1
 67
     0
278
    -2
288
     1
 68
     0
279
    -2
289
     1
 69
     0
  0
VISUALSTYLE
  5
2F
102
{ACAD_XDICTIONARY
360
320
102
}
102
{ACAD_REACTORS
330
29
102
}
330
29
100
AcDbVisualStyle
  2
2dWireframe
 70
     4
 71
     0
 72
     2
 73
     0
 90
        0
 40
-0.6
 41
-30.0
 62
     5
 63
     7
421
 16777215
 74
     1
 91
        4
 64
     7
 65
   257
 75
     1
175
     1
 42
1.0
 92
        0
 66
   257
 43
1.0
 76
     1
 77
     6
 78
     2
 67
     7
 79
     5
170
     0
171
     0
290
     0
174
     0
 93
        1
 44
0.0
173
     0
291
     0
 45
0.0
1001
ACAD
1000
AcDbSavedByObjectVersion
1070
     0
  0
VISUALSTYLE
  5
2E
102
{ACAD_XDICTIONARY
360
31E
102
}
102
{ACAD_REACTORS
330
29
102
}
330
29
100
AcDbVisualStyle
  2
Basic
 70
     7
 71
     1
 72
     0
 73
     1
 90
        0
 40
-0.6
 41
-30.0
 62
     5
 63
     7
421
 16777215
 74
     0
 91
        4
 64
     7
 65
   257
 75
     1
175
     1
 42
1.0
 92
        8
 66
     7
 43
1.0
 76
     1
 77
     6
 78
     2
 67
     7
 79
     5
170
     0
171
     0
290
     0
174
     0
 93
        1
 44
0.0
173
     0
291
     1
 45
0.0
1001
ACAD
1000
AcDbSavedByObjectVersion
1070
     0
  0
VISUALSTYLE
  5
35
102
{ACAD_XDICTIONARY
360
32C
102
}
102
{ACAD_REACTORS
330
29
102
}
330
29
100
AcDbVisualStyle
  2
Brighten
 70
    12
 71
     2
 72
     2
 73
     0
 90
        0
 40
-0.6
 41
-30.0
 62
     5
 63
     7
421
 16777215
 74
     1
 91
        4
 64
     7
 65
   257
 75
     1
175
     1
 42
1.0
 92
        8
 66
     7
 43
1.0
 76
     1
 77
     6
 78
     2
 67
     7
 79
     5
170
     0
171
     0
290
     0
174
     0
 93
        1
 44
50.0
173
     0
291
     1
 45
0.0
1001
ACAD
1000
AcDbSavedByObjectVersion
1070
     0
  0
VISUALSTYLE
  5
39
102
{ACAD_XDICTIONARY
360
334
102
}
102
{ACAD_REACTORS
330
29
102
}
330
29
100
AcDbVisualStyle
  2
ColorChange
 70
    16
 71
     2
 72
     2
 73
     3
 90
        0
 40
-0.6
 41
-30.0
 62
     5
 63
     8
421
  8421504
 74
     1
 91
        4
 64
     7
 65
   257
 75
     1
175
     1
 42
1.0
 92
        8
 66
     8
424
  8421504
 43
1.0
 76
     1
 77
     6
 78
     2
 67
     7
 79
     5
170
     0
171
     0
290
     0
174
     0
 93
        1
 44
0.0
173
     0
291
     1
 45
0.0
1001
ACAD
1000
AcDbSavedByObjectVersion
1070
     0
  0
VISUALSTYLE
  5
32
102
{ACAD_XDICTIONARY
360
326
102
}
102
{ACAD_REACTORS
330
29
102
}
330
29
100
AcDbVisualStyle
  2
Conceptual
 70
     9
 71
     3
 72
     2
 73
     0
 90
        0
 40
-0.6
 41
-30.0
 62
     5
 63
     7
421
 16777215
 74
     2
 91
        2
 64
     7
 65
   257
 75
     1
175
     1
 42
179.0
 92
        8
 66
     7
 43
1.0
 76
     1
 77
     6
 78
     2
 67
     7
 79
     3
170
     0
171
     0
290
     0
174
     0
 93
        1
 44
0.0
173
     0
291
     0
 45
0.0
1001
ACAD
1000
AcDbSavedByObjectVersion
1070
     0
  0
VISUALSTYLE
  5
34
102
{ACAD_XDICTIONARY
360
32A
102
}
102
{ACAD_REACTORS
330
29
102
}
330
29
100
AcDbVisualStyle
  2
Dim
 70
    11
 71
     2
 72
     2
 73
     0
 90
        0
 40
-0.6
 41
-30.0
 62
     5
 63
     7
421
 16777215
 74
     1
 91
        4
 64
     7
 65
   257
 75
     1
175
     1
 42
1.0
 92
        8
 66
     7
 43
1.0
 76
     1
 77
     6
 78
     2
 67
     7
 79
     5
170
     0
171
     0
290
     0
174
     0
 93
        1
 44
-50.0
173
     0
291
     1
 45
0.0
1001
ACAD
1000
AcDbSavedByObjectVersion
1070
     0
  0
VISUALSTYLE
  5
41
102
{ACAD_XDICTIONARY
360
344
102
}
102
{ACAD_REACTORS
330
29
102
}
330
29
100
AcDbVisualStyle
  2
EdgeColorOff
 70
    22
 71
     2
 72
     2
 73
     0
 90
        0
 40
-0.6
 41
-30.0
 62
     5
 63
     7
421
 16777215
 74
     1
 91
        4
 64
     7
 65
   257
 75
     1
175
     1
 42
1.0
 92
        8
 66
     7
 43
1.0
 76
     1
 77
     6
 78
     2
 67
     7
 79
     5
170
     0
171
     0
290
     0
174
     0
 93
        1
 44
0.0
173
     0
291
     1
 45
0.0
1001
ACAD
1000
AcDbSavedByObjectVersion
1070
     0
  0
VISUALSTYLE
  5
38
102
{ACAD_XDICTIONARY
360
332
102
}
102
{ACAD_REACTORS
330
29
102
}
330
29
100
AcDbVisualStyle
  2
Facepattern
 70
    15
 71
     2
 72
     2
 73
     0
 90
        0
 40
-0.6
 41
-30.0
 62
     5
 63
     7
421
 16777215
 74
     1
 91
        4
 64
     7
 65
   257
 75
     1
175
     1
 42
1.0
 92
        8
 66
     7
 43
1.0
 76
     1
 77
     6
 78
     2
 67
     7
 79
     5
170
     0
171
     0
290
     0
174
     0
 93
        1
 44
0.0
173
     0
291
     1
 45
0.0
1001
ACAD
1000
AcDbSavedByObjectVersion
1070
     0
  0
VISUALSTYLE
  5
2A
102
{ACAD_XDICTIONARY
360
316
102
}
102
{ACAD_REACTORS
330
29
102
}
330
29
100
AcDbVisualStyle
  2
Flat
 70
     0
 71
     2
 72
     1
 73
     1
 90
        2
 40
-0.6
 41
30.0
 62
     5
 63
     7
421
 16777215
 74
     0
 91
        0
 64
     7
 65
   257
 75
     1
175
     1
 42
1.0
 92
        8
 66
     7
 43
1.0
 76
     1
 77
     6
 78
     2
 67
     7
 79
     5
170
     0
171
     0
290
     0
174
     0
 93
       13
 44
0.0
173
     0
291
     1
 45
0.0
1001
ACAD
1000
AcDbSavedByObjectVersion
1070
     0
  0
VISUALSTYLE
  5
2B
102
{ACAD_XDICTIONARY
360
318
102
}
102
{ACAD_REACTORS
330
29
102
}
330
29
100
AcDbVisualStyle
  2
FlatWithEdges
 70
     1
 71
     2
 72
     1
 73
     1
 90
        2
 40
-0.6
 41
30.0
 62
     5
 63
     7
421
 16777215
 74
     1
 91
        0
 64
     7
 65
   257
 75
     1
175
     1
 42
1.0
 92
        0
 66
   257
 43
1.0
 76
     1
 77
     6
 78
     2
 67
     7
 79
     5
170
     0
171
     0
290
     0
174
     0
 93
       13
 44
0.0
173
     0
291
     1
 45
0.0
1001
ACAD
1000
AcDbSavedByObjectVersion
1070
     0
  0
VISUALSTYLE
  5
2C
102
{ACAD_XDICTIONARY
360
31A
102
}
102
{ACAD_REACTORS
330
29
102
}
330
29
100
AcDbVisualStyle
  2
Gouraud
 70
     2
 71
     2
 72
     2
 73
     1
 90
        2
 40
-0.6
 41
30.0
 62
     5
 63
     7
421
 16777215
 74
     0
 91
        0
 64
     7
 65
   257
 75
     1
175
     1
 42
1.0
 92
        0
 66
     7
 43
1.0
 76
     1
 77
     6
 78
     2
 67
     7
 79
     5
170
     0
171
     0
290
     0
174
     0
 93
       13
 44
0.0
173
     0
291
     1
 45
0.0
1001
ACAD
1000
AcDbSavedByObjectVersion
1070
     0
  0
VISUALSTYLE
  5
2D
102
{ACAD_XDICTIONARY
360
31C
102
}
102
{ACAD_REACTORS
330
29
102
}
330
29
100
AcDbVisualStyle
  2
GouraudWithEdges
 70
     3
 71
     2
 72
     2
 73
     1
 90
        2
 40
-0.6
 41
30.0
 62
     5
 63
     7
421
 16777215
 74
     1
 91
        0
 64
     7
 65
   257
 75
     1
175
     1
 42
1.0
 92
        0
 66
   257
 43
1.0
 76
     1
 77
     6
 78
     2
 67
     7
 79
     5
170
     0
171
     0
290
     0
174
     0
 93
       13
 44
0.0
173
     0
291
     1
 45
0.0
1001
ACAD
1000
AcDbSavedByObjectVersion
1070
     0
  0
VISUALSTYLE
  5
31
102
{ACAD_XDICTIONARY
360
324
102
}
102
{ACAD_REACTORS
330
29
102
}
330
29
100
AcDbVisualStyle
  2
Hidden
 70
     6
 71
     1
 72
     2
 73
     2
 90
        0
 40
-0.6
 41
-30.0
 62
     5
 63
     7
421
 16777215
 74
     2
 91
        2
 64
     7
 65
   257
 75
     2
175
     1
 42
40.0
 92
        0
 66
   257
 43
1.0
 76
     1
 77
     6
 78
     2
 67
     7
 79
     3
170
     0
171
     0
290
     0
174
     0
 93
        1
 44
0.0
173
     0
291
     0
 45
0.0
1001
ACAD
1000
AcDbSavedByObjectVersion
1070
     0
  0
VISUALSTYLE
  5
3F
102
{ACAD_XDICTIONARY
360
340
102
}
102
{ACAD_REACTORS
330
29
102
}
330
29
100
AcDbVisualStyle
  2
JitterOff
 70
    20
 71
     2
 72
     2
 73
     0
 90
        0
 40
-0.6
 41
-30.0
 62
     5
 63
     7
421
 16777215
 74
     1
 91
        4
 64
     7
 65
   257
 75
     1
175
     1
 42
1.0
 92
       10
 66
     7
 43
1.0
 76
     1
 77
     6
 78
     2
 67
     7
 79
     5
170
     0
171
     0
290
     0
174
     0
 93
        1
 44
0.0
173
     0
291
     1
 45
0.0
1001
ACAD
1000
AcDbSavedByObjectVersion
1070
     0
  0
VISUALSTYLE
  5
37
102
{ACAD_XDICTIONARY
360
330
102
}
102
{ACAD_REACTORS
330
29
102
}
330
29
100
AcDbVisualStyle
  2
Linepattern
 70
    14
 71
     2
 72
     2
 73
     0
 90
        0
 40
-0.6
 41
-30.0
 62
     5
 63
     7
421
 16777215
 74
     1
 91
        4
 64
     7
 65
   257
 75
     7
175
     7
 42
1.0
 92
        8
 66
     7
 43
1.0
 76
     1
 77
     6
 78
     2
 67
     7
 79
     5
170
     0
171
     0
290
     0
174
     0
 93
        1
 44
0.0
173
     0
291
     1
 45
0.0
1001
ACAD
1000
AcDbSavedByObjectVersion
1070
     0
  0
VISUALSTYLE
  5
40
102
{ACAD_XDICTIONARY
360
342
102
}
102
{ACAD_REACTORS
330
29
102
}
330
29
100
AcDbVisualStyle
  2
OverhangOff
 70
    21
 71
     2
 72
     2
 73
     0
 90
        0
 40
-0.6
 41
-30.0
 62
     5
 63
     7
421
 16777215
 74
     1
 91
        4
 64
     7
 65
   257
 75
     1
175
     1
 42
1.0
 92
        9
 66
     7
 43
1.0
 76
     1
 77
     6
 78
     2
 67
     7
 79
     5
170
     0
171
     0
290
     0
174
     0
 93
        1
 44
0.0
173
     0
291
     1
 45
0.0
1001
ACAD
1000
AcDbSavedByObjectVersion
1070
     0
  0
VISUALSTYLE
  5
33
102
{ACAD_XDICTIONARY
360
328
102
}
102
{ACAD_REACTORS
330
29
102
}
330
29
100
AcDbVisualStyle
  2
Realistic
 70
     8
 71
     2
 72
     3
 73
     0
 90
        2
 40
-0.6
 41
30.0
 62
     5
 63
     7
421
 16777215
 74
     0
 91
        0
 64
     7
 65
   257
 75
     1
175
     1
 42
1.0
 92
        8
 66
   257
 43
1.0
 76
     1
 77
     6
 78
     2
 67
     7
 79
     3
170
     0
171
     0
290
     0
174
     0
 93
       13
 44
0.0
173
     0
291
     0
 45
0.0
1001
ACAD
1000
AcDbSavedByObjectVersion
1070
     0
  0
VISUALSTYLE
  5
3E
102
{ACAD_XDICTIONARY
360
33E
102
}
102
{ACAD_REACTORS
330
29
102
}
330
29
100
AcDbVisualStyle
  2
Shaded
 70
    27
 71
     2
 72
     2
 73
     1
 90
        2
 40
-0.6
 41
30.0
 62
     5
 63
     7
421
 16777215
 74
     0
 91
        4
 64
     7
 65
   257
 75
     1
175
     1
 42
1.0
 92
        8
 66
   257
 43
1.0
 76
     1
 77
     6
 78
     2
 67
     8
425
  7895160
 79
     3
170
     0
171
     0
290
     0
174
     0
 93
        5
 44
0.0
173
     0
291
     0
 45
0.0
1001
ACAD
1000
AcDbSavedByObjectVersion
1070
     0
  0
VISUALSTYLE
  5
3D
102
{ACAD_XDICTIONARY
360
33C
102
}
102
{ACAD_REACTORS
330
29
102
}
330
29
100
AcDbVisualStyle
  2
Shaded with edges
 70
    26
 71
     2
 72
     2
 73
     1
 90
        2
 40
-0.6
 41
30.0
 62
     5
 63
     7
421
 16777215
 74
     1
 91
        2
 64
     7
 65
   257
 75
     2
175
     1
 42
1.0
 92
        8
 66
   257
 43
1.0
 76
     1
 77
     6
 78
     2
 67
     7
 79
     3
170
     0
171
     0
290
     0
174
     0
 93
        5
 44
0.0
173
     0
291
     0
 45
0.0
1001
ACAD
1000
AcDbSavedByObjectVersion
1070
     0
  0
VISUALSTYLE
  5
3A
102
{ACAD_XDICTIONARY
360
336
102
}
102
{ACAD_REACTORS
330
29
102
}
330
29
100
AcDbVisualStyle
  2
Shades of Gray
 70
    23
 71
     2
 72
     2
 73
     3
 90
        0
 40
-0.6
 41
-30.0
 62
     5
 63
     7
421
 16777215
 74
     2
 91
        2
 64
     7
 65
     7
 75
     1
175
     1
 42
40.0
 92
        8
 66
     7
 43
1.0
 76
     1
 77
     6
 78
     2
 67
     7
 79
     3
170
     0
171
     0
290
     0
174
     0
 93
        1
 44
0.0
173
     0
291
     0
 45
0.0
1001
ACAD
1000
AcDbSavedByObjectVersion
1070
     0
  0
VISUALSTYLE
  5
3B
102
{ACAD_XDICTIONARY
360
338
102
}
102
{ACAD_REACTORS
330
29
102
}
330
29
100
AcDbVisualStyle
  2
Sketchy
 70
    24
 71
     1
 72
     2
 73
     2
 90
        0
 40
-0.6
 41
-30.0
 62
     5
 63
     7
421
 16777215
 74
     2
 91
        2
 64
     7
 65
     7
 75
     1
175
     1
 42
40.0
 92
       11
 66
     7
 43
1.0
 76
     1
 77
     6
 78
     2
 67
     7
 79
     6
170
     0
171
     0
290
     0
174
     0
 93
        1
 44
0.0
173
     0
291
     0
 45
0.0
1001
ACAD
1000
AcDbSavedByObjectVersion
1070
     0
  0
VISUALSTYLE
  5
36
102
{ACAD_XDICTIONARY
360
32E
102
}
102
{ACAD_REACTORS
330
29
102
}
330
29
100
AcDbVisualStyle
  2
Thicken
 70
    13
 71
     2
 72
     2
 73
     0
 90
        0
 40
-0.6
 41
-30.0
 62
     5
 63
     7
421
 16777215
 74
     1
 91
        4
 64
     7
 65
   257
 75
     1
175
     1
 42
1.0
 92
       12
 66
     7
 43
1.0
 76
     1
 77
     6
 78
     2
 67
     7
 79
     5
170
     0
171
     0
290
     0
174
     0
 93
        1
 44
0.0
173
     0
291
     1
 45
0.0
1001
ACAD
1000
AcDbSavedByObjectVersion
1070
     0
  0
VISUALSTYLE
  5
30
102
{ACAD_XDICTIONARY
360
322
102
}
102
{ACAD_REACTORS
330
29
102
}
330
29
100
AcDbVisualStyle
  2
Wireframe
 70
     5
 71
     0
 72
     2
 73
     0
 90
        0
 40
-0.6
 41
-30.0
 62
     5
 63
     7
421
 16777215
 74
     1
 91
        4
 64
     7
 65
   257
 75
     1
175
     1
 42
1.0
 92
        0
 66
   257
 43
1.0
 76
     1
 77
     6
 78
     2
 67
     7
 79
     3
170
     0
171
     0
290
     0
174
     0
 93
        1
 44
0.0
173
     0
291
     0
 45
0.0
1001
ACAD
1000
AcDbSavedByObjectVersion
1070
     0
  0
VISUALSTYLE
  5
3C
102
{ACAD_XDICTIONARY
360
33A
102
}
102
{ACAD_REACTORS
330
29
102
}
330
29
100
AcDbVisualStyle
  2
X-Ray
 70
    25
 71
     2
 72
     2
 73
     1
 90
        1
 40
0.5
 41
-30.0
 62
     5
 63
     7
421
 16777215
 74
     1
 91
        0
 64
     7
 65
   257
 75
     1
175
     1
 42
1.0
 92
        8
 66
     7
 43
1.0
 76
     1
 77
     6
 78
     2
 67
     7
 79
     3
170
     0
171
     0
290
     0
174
     0
 93
       13
 44
0.0
173
     0
291
     0
 45
0.0
1001
ACAD
1000
AcDbSavedByObjectVersion
1070
     0
  0
DICTIONARYVAR
  5
80
102
{ACAD_REACTORS
330
7B
102
}
330
7B
100
DictionaryVariables
280
     0
  1
1:1
  0
DICTIONARYVAR
  5
7D
102
{ACAD_REACTORS
330
7B
102
}
330
7B
100
DictionaryVariables
280
     0
  1
STANDARD
  0
DICTIONARYVAR
  5
7C
102
{ACAD_REACTORS
330
7B
102
}
330
7B
100
DictionaryVariables
280
     0
  1
STANDARD
  0
DICTIONARYVAR
  5
7E
102
{ACAD_REACTORS
330
7B
102
}
330
7B
100
DictionaryVariables
280
     0
  1
Imperial24
  0
DICTIONARYVAR
  5
7F
102
{ACAD_REACTORS
330
7B
102
}
330
7B
100
DictionaryVariables
280
     0
  1
Imperial24
  0
DICTIONARYVAR
  5
81
102
{ACAD_REACTORS
330
7B
102
}
330
7B
100
DictionaryVariables
280
     0
  1
2
  0
XRECORD
  5
30C
102
{ACAD_REACTORS
330
308
102
}
330
308
100
AcDbXrecord
280
     1
  1
BUILDING_ID
  1
22-07-08 Ardex Mebrane 2023 Revit File
  1
FLOOR_ID
  1
333586
  0
XRECORD
  5
30A
102
{ACAD_REACTORS
330
308
102
}
330
308
100
AcDbXrecord
280
     1
  1
-2000051
  1
Lines
  1
-2000150
  1
Generic Annotations
  1
-2000260
  1
Dimensions
  1
-2000280
  1
Title Blocks
  1
-2000300
  1
Text Notes
  1
-2002000
  1
Detail Items
  1
-2005022
  1
Multi-Category Tags
  0
XRECORD
  5
30B
102
{ACAD_REACTORS
330
308
102
}
330
308
100
AcDbXrecord
280
     1
  1
330683
  1
(ARDEX) Lines 01 Grey Dashed
  1
335606
  1
(ARDEX) Lines 01
  1
335610
  1
(ARDEX) Lines 03
  1
335612
  1
(ARDEX) Lines 05
  1
342012
  1
(ARDEX) Lines 05 Dashed
  1
352413
  1
(ARDEX) Lines 08 Dashed
  1
411603
  1
Light Lines
  1
439454
  1
Flashing
  1
453781
  1
Glass
  1
453783
  1
Glass hatch
  1
453787
  1
Projection Lines
  1
488774
  1
05
  1
488778
  1
Cut Lines
  0
XRECORD
  5
309
102
{ACAD_REACTORS
330
308
102
}
330
308
100
AcDbXrecord
280
     1
  1
333213
  1
(ARDEX) Landscape Title block : (ARDEX) Landscape Title block
  1
337368
  1
Linear Dimension Style : (ARDEX) - 2mm
  1
343954
  1
Text : (ARDEX) 2mm Text
  1
372253
  1
(ARDEX) Tag Multi Category : Detail components
  1
404702
  1
(ARDEX) Concrete corner : (ARDEX) Enclosed deck structure
  1
406101
  1
(ARDEX) Level Manual : (ARDEX) Level Manual
  1
458781
  1
RES Fixed Head & Jamb & Sill : RES Fixed Head & Jamb
  1
459319
  1
(ARDEX) Flashing - Sill : (ARDEX) Sill Flashing
  1
474001
  1
(ARDEX) Sealant : (ARDEX) Sealant - CA20P
  1
489120
  1
(ARDEX) Framing : Packing
  1
569180
  1
(ARDEX) Lines : Membrane
  1
569182
  1
(ARDEX) Lining - Various : Polyiso Board 35MM
  1
569184
  1
(ARDEX) Lines : Barrier
  1
569186
  1
(ARDEX) Lining - Various : Substrate
  1
579000
  1
(ARDEX) Fillet : (ARDEX) Fillet 20mm FOR AW03
  0
DICTIONARY
  5
34B
330
6B
100
AcDbDictionary
280
     1
281
     1
  3
ACAD_XREC_ROUNDTRIP
360
34C
  0
DICTIONARY
  5
1A
330
19
100
AcDbDictionary
280
     1
281
     1
  3
BUMPTILE
360
1C
  3
DIFFUSETILE
360
1B
  3
OPACITYTILE
360
1F
  3
REFLECTIONTILE
360
1E
  3
REFRACTIONTILE
360
20
  3
SPECULARTILE
360
1D
  0
DICTIONARY
  5
12
330
11
100
AcDbDictionary
280
     1
281
     1
  3
BUMPTILE
360
14
  3
DIFFUSETILE
360
13
  3
OPACITYTILE
360
17
  3
REFLECTIONTILE
360
16
  3
REFRACTIONTILE
360
18
  3
SPECULARTILE
360
15
  0
DICTIONARY
  5
22
330
21
100
AcDbDictionary
280
     1
281
     1
  3
BUMPTILE
360
24
  3
DIFFUSETILE
360
23
  3
OPACITYTILE
360
27
  3
REFLECTIONTILE
360
26
  3
REFRACTIONTILE
360
28
  3
SPECULARTILE
360
25
  0
DICTIONARY
  5
347
330
67
100
AcDbDictionary
280
     1
281
     1
  3
ACAD_XREC_ROUNDTRIP
360
348
  0
DICTIONARY
  5
349
330
69
100
AcDbDictionary
280
     1
281
     1
  3
ACAD_XREC_ROUNDTRIP
360
34A
  0
DICTIONARY
  5
310
330
65
100
AcDbDictionary
280
     1
281
     1
  3
ACAD_ROUNDTRIP_2008_TABLESTYLE_CELLSTYLEMAP
360
311
  0
DICTIONARY
  5
320
330
2F
100
AcDbDictionary
280
     1
281
     1
  3
ACAD_XREC_ROUNDTRIP
360
321
  0
DICTIONARY
  5
31E
330
2E
100
AcDbDictionary
280
     1
281
     1
  3
ACAD_XREC_ROUNDTRIP
360
31F
  0
DICTIONARY
  5
32C
330
35
100
AcDbDictionary
280
     1
281
     1
  3
ACAD_XREC_ROUNDTRIP
360
32D
  0
DICTIONARY
  5
334
330
39
100
AcDbDictionary
280
     1
281
     1
  3
ACAD_XREC_ROUNDTRIP
360
335
  0
DICTIONARY
  5
326
330
32
100
AcDbDictionary
280
     1
281
     1
  3
ACAD_XREC_ROUNDTRIP
360
327
  0
DICTIONARY
  5
32A
330
34
100
AcDbDictionary
280
     1
281
     1
  3
ACAD_XREC_ROUNDTRIP
360
32B
  0
DICTIONARY
  5
344
330
41
100
AcDbDictionary
280
     1
281
     1
  3
ACAD_XREC_ROUNDTRIP
360
345
  0
DICTIONARY
  5
332
330
38
100
AcDbDictionary
280
     1
281
     1
  3
ACAD_XREC_ROUNDTRIP
360
333
  0
DICTIONARY
  5
316
330
2A
100
AcDbDictionary
280
     1
281
     1
  3
ACAD_XREC_ROUNDTRIP
360
317
  0
DICTIONARY
  5
318
330
2B
100
AcDbDictionary
280
     1
281
     1
  3
ACAD_XREC_ROUNDTRIP
360
319
  0
DICTIONARY
  5
31A
330
2C
100
AcDbDictionary
280
     1
281
     1
  3
ACAD_XREC_ROUNDTRIP
360
31B
  0
DICTIONARY
  5
31C
330
2D
100
AcDbDictionary
280
     1
281
     1
  3
ACAD_XREC_ROUNDTRIP
360
31D
  0
DICTIONARY
  5
324
330
31
100
AcDbDictionary
280
     1
281
     1
  3
ACAD_XREC_ROUNDTRIP
360
325
  0
DICTIONARY
  5
340
330
3F
100
AcDbDictionary
280
     1
281
     1
  3
ACAD_XREC_ROUNDTRIP
360
341
  0
DICTIONARY
  5
330
330
37
100
AcDbDictionary
280
     1
281
     1
  3
ACAD_XREC_ROUNDTRIP
360
331
  0
DICTIONARY
  5
342
330
40
100
AcDbDictionary
280
     1
281
     1
  3
ACAD_XREC_ROUNDTRIP
360
343
  0
DICTIONARY
  5
328
330
33
100
AcDbDictionary
280
     1
281
     1
  3
ACAD_XREC_ROUNDTRIP
360
329
  0
DICTIONARY
  5
33E
330
3E
100
AcDbDictionary
280
     1
281
     1
  3
ACAD_XREC_ROUNDTRIP
360
33F
  0
DICTIONARY
  5
33C
330
3D
100
AcDbDictionary
280
     1
281
     1
  3
ACAD_XREC_ROUNDTRIP
360
33D
  0
DICTIONARY
  5
336
330
3A
100
AcDbDictionary
280
     1
281
     1
  3
ACAD_XREC_ROUNDTRIP
360
337
  0
DICTIONARY
  5
338
330
3B
100
AcDbDictionary
280
     1
281
     1
  3
ACAD_XREC_ROUNDTRIP
360
339
  0
DICTIONARY
  5
32E
330
36
100
AcDbDictionary
280
     1
281
     1
  3
ACAD_XREC_ROUNDTRIP
360
32F
  0
DICTIONARY
  5
322
330
30
100
AcDbDictionary
280
     1
281
     1
  3
ACAD_XREC_ROUNDTRIP
360
323
  0
DICTIONARY
  5
33A
330
3C
100
AcDbDictionary
280
     1
281
     1
  3
ACAD_XREC_ROUNDTRIP
360
33B
  0
XRECORD
  5
34C
102
{ACAD_REACTORS
330
34B
102
}
330
34B
100
AcDbXrecord
280
     1
102
DISPLAYNAME
  1
Imperial24
102
FLAGS
 90
        0
  0
XRECORD
  5
1C
102
{ACAD_REACTORS
330
1A
102
}
330
1A
100
AcDbXrecord
280
     1
270
     1
271
     1
  0
XRECORD
  5
1B
102
{ACAD_REACTORS
330
1A
102
}
330
1A
100
AcDbXrecord
280
     1
270
     1
271
     1
  0
XRECORD
  5
1F
102
{ACAD_REACTORS
330
1A
102
}
330
1A
100
AcDbXrecord
280
     1
270
     1
271
     1
  0
XRECORD
  5
1E
102
{ACAD_REACTORS
330
1A
102
}
330
1A
100
AcDbXrecord
280
     1
270
     1
271
     1
  0
XRECORD
  5
20
102
{ACAD_REACTORS
330
1A
102
}
330
1A
100
AcDbXrecord
280
     1
270
     1
271
     1
  0
XRECORD
  5
1D
102
{ACAD_REACTORS
330
1A
102
}
330
1A
100
AcDbXrecord
280
     1
270
     1
271
     1
  0
XRECORD
  5
14
102
{ACAD_REACTORS
330
12
102
}
330
12
100
AcDbXrecord
280
     1
270
     1
271
     1
  0
XRECORD
  5
13
102
{ACAD_REACTORS
330
12
102
}
330
12
100
AcDbXrecord
280
     1
270
     1
271
     1
  0
XRECORD
  5
17
102
{ACAD_REACTORS
330
12
102
}
330
12
100
AcDbXrecord
280
     1
270
     1
271
     1
  0
XRECORD
  5
16
102
{ACAD_REACTORS
330
12
102
}
330
12
100
AcDbXrecord
280
     1
270
     1
271
     1
  0
XRECORD
  5
18
102
{ACAD_REACTORS
330
12
102
}
330
12
100
AcDbXrecord
280
     1
270
     1
271
     1
  0
XRECORD
  5
15
102
{ACAD_REACTORS
330
12
102
}
330
12
100
AcDbXrecord
280
     1
270
     1
271
     1
  0
XRECORD
  5
24
102
{ACAD_REACTORS
330
22
102
}
330
22
100
AcDbXrecord
280
     1
270
     1
271
     1
  0
XRECORD
  5
23
102
{ACAD_REACTORS
330
22
102
}
330
22
100
AcDbXrecord
280
     1
270
     1
271
     1
  0
XRECORD
  5
27
102
{ACAD_REACTORS
330
22
102
}
330
22
100
AcDbXrecord
280
     1
270
     1
271
     1
  0
XRECORD
  5
26
102
{ACAD_REACTORS
330
22
102
}
330
22
100
AcDbXrecord
280
     1
270
     1
271
     1
  0
XRECORD
  5
28
102
{ACAD_REACTORS
330
22
102
}
330
22
100
AcDbXrecord
280
     1
270
     1
271
     1
  0
XRECORD
  5
25
102
{ACAD_REACTORS
330
22
102
}
330
22
100
AcDbXrecord
280
     1
270
     1
271
     1
  0
XRECORD
  5
348
102
{ACAD_REACTORS
330
347
102
}
330
347
100
AcDbXrecord
280
     1
102
ACAD_ROUNDTRIP_2012_MLEADER_STYLE
298
     1
  0
XRECORD
  5
34A
102
{ACAD_REACTORS
330
349
102
}
330
349
100
AcDbXrecord
280
     1
102
DISPLAYNAME
  1
Imperial24
102
FLAGS
 90
        0
  0
CELLSTYLEMAP
  5
311
102
{ACAD_REACTORS
330
310
102
}
330
310
100
AcDbCellStyleMap
 90
        3
300
CELLSTYLE
  1
TABLEFORMAT_BEGIN
 90
        5
170
     1
 91
        0
 92
    32768
 62
   257
 93
        1
300
CONTENTFORMAT
  1
CONTENTFORMAT_BEGIN
 90
        0
 91
        0
 92
      512
 93
        0
300

 40
0.0
140
1.0
 94
        5
 62
     0
340
55
144
0.25
309
CONTENTFORMAT_END
171
     0
 94
        0
309
TABLEFORMAT_END
  1
CELLSTYLE_BEGIN
 90
        1
 91
        1
300
_TITLE
309
CELLSTYLE_END
300
CELLSTYLE
  1
TABLEFORMAT_BEGIN
 90
        5
170
     1
 91
        0
 92
        0
 62
   257
 93
        1
300
CONTENTFORMAT
  1
CONTENTFORMAT_BEGIN
 90
        0
 91
        0
 92
      512
 93
        0
300

 40
0.0
140
1.0
 94
        5
 62
     0
340
55
144
0.18
309
CONTENTFORMAT_END
171
     0
 94
        0
309
TABLEFORMAT_END
  1
CELLSTYLE_BEGIN
 90
        2
 91
        1
300
_HEADER
309
CELLSTYLE_END
300
CELLSTYLE
  1
TABLEFORMAT_BEGIN
 90
        5
170
     1
 91
        0
 92
        0
 62
   257
 93
        1
300
CONTENTFORMAT
  1
CONTENTFORMAT_BEGIN
 90
        0
 91
        0
 92
      512
 93
        0
300

 40
0.0
140
1.0
 94
        2
 62
     0
340
55
144
0.18
309
CONTENTFORMAT_END
171
     0
 94
        0
309
TABLEFORMAT_END
  1
CELLSTYLE_BEGIN
 90
        3
 91
        2
300
_DATA
309
CELLSTYLE_END
  0
XRECORD
  5
321
102
{ACAD_REACTORS
330
320
102
}
330
320
100
AcDbXrecord
280
     1
102
RTVSPost2010Prop28
280
     1
102
RTVSPost2010PropOp28
 70
     1
102
RTVSPost2010Prop29
280
     1
102
RTVSPost2010PropOp29
 70
     1
102
RTVSPost2010Prop30
280
     0
102
RTVSPost2010PropOp30
 70
     1
102
RTVSPost2010Prop31
280
     0
102
RTVSPost2010PropOp31
 70
     1
102
RTVSPost2010Prop32
280
     0
102
RTVSPost2010PropOp32
 70
     1
102
RTVSPost2010Prop33
280
     0
102
RTVSPost2010PropOp33
 70
     1
102
RTVSPost2010Prop34
280
     0
102
RTVSPost2010PropOp34
 70
     1
102
RTVSPost2010Prop35
280
     0
102
RTVSPost2010PropOp35
 70
     1
102
RTVSPost2010Prop36
280
     0
102
RTVSPost2010PropOp36
 70
     1
102
RTVSPost2010Prop37
 90
       50
102
RTVSPost2010PropOp37
 70
     1
102
RTVSPost2010Prop38
140
0.0
102
RTVSPost2010PropOp38
 70
     1
102
RTVSPost2010Prop39
140
1.0
102
RTVSPost2010PropOp39
 70
     1
102
RTVSPost2010Prop40
 90
        0
102
RTVSPost2010PropOp40
 70
     1
102
RTVSPost2010Prop41ColorIndex
 90
       18
102
RTVSPost2010Prop41ColorRGB
 90
        0
102
RTVSPost2010PropOp41
 70
     1
102
RTVSPost2010Prop42
 90
       50
102
RTVSPost2010PropOp42
 70
     1
102
RTVSPost2010Prop43
 90
        3
102
RTVSPost2010PropOp43
 70
     1
102
RTVSPost2010Prop44ColorIndex
 90
        5
102
RTVSPost2010Prop44ColorRGB
 90
      255
102
RTVSPost2010PropOp44
 70
     1
102
RTVSPost2010Prop45
280
     0
102
RTVSPost2010PropOp45
 70
     1
102
RTVSPost2010Prop46
 90
       50
102
RTVSPost2010PropOp46
 70
     1
102
RTVSPost2010Prop47
 90
       50
102
RTVSPost2010PropOp47
 70
     1
102
RTVSPost2010Prop48
 90
       50
102
RTVSPost2010PropOp48
 70
     1
102
RTVSPost2010Prop49
280
     0
102
RTVSPost2010PropOp49
 70
     1
102
RTVSPost2010Prop50
 90
       50
102
RTVSPost2010PropOp50
 70
     1
102
RTVSPost2010Prop51ColorIndex
 90
      256
102
RTVSPost2010Prop51ColorRGB
 90
-16777216
102
RTVSPost2010PropOp51
 70
     0
102
RTVSPost2010Prop52
140
1.0
102
RTVSPost2010PropOp52
 70
     0
102
RTVSPost2010Prop53
 90
        2
102
RTVSPost2010PropOp53
 70
     1
102
RTVSPost2010Prop54
  1
strokes_ogs.tif
102
RTVSPost2010PropOp54
 70
     1
102
RTVSPost2010Prop55
280
     0
102
RTVSPost2010PropOp55
 70
     1
102
RTVSPost2010Prop56
140
1.0
102
RTVSPost2010PropOp56
 70
     1
102
RTVSPost2010Prop57
140
1.0
102
RTVSPost2010PropOp57
 70
     1
102
RTVSPropertyOp0
 70
     1
102
RTVSPropertyOp1
 70
     1
102
RTVSPropertyOp2
 70
     1
102
RTVSPropertyOp3
 70
     1
102
RTVSPropertyOp4
 70
     1
102
RTVSPropertyOp5
 70
     1
102
RTVSPropertyOp6
 70
     1
102
RTVSPropertyOp7
 70
     1
102
RTVSPropertyOp8
 70
     1
102
RTVSPropertyOp9
 70
     1
102
RTVSPropertyOp10
 70
     1
102
RTVSPropertyOp11
 70
     1
102
RTVSPropertyOp12
 70
     1
102
RTVSPropertyOp13
 70
     1
102
RTVSPropertyOp14
 70
     1
102
RTVSPropertyOp15
 70
     1
102
RTVSPropertyOp16
 70
     1
102
RTVSPropertyOp17
 70
     1
102
RTVSPropertyOp18
 70
     1
102
RTVSPropertyOp19
 70
     1
102
RTVSPropertyOp20
 70
     1
102
RTVSPropertyOp21
 70
     1
102
RTVSPropertyOp22
 70
     1
102
RTVSPropertyOp23
 70
     1
102
RTVSPropertyOp24
 70
     1
102
RTVSPropertyOp25
 70
     1
102
RTVSPropertyOp26
 70
     1
102
RTVSPropertyOp27
 70
     1
102
RTVSPropertyOp28
 70
     1
102
RTVSPropertyOp29
 70
     1
102
RTVSPropertyOp30
 70
     1
102
RTVSPropertyOp31
 70
     1
102
RTVSPropertyOp32
 70
     1
102
RTVSPropertyOp33
 70
     1
102
RTVSPropertyOp34
 70
     1
102
RTVSPropertyOp35
 70
     1
102
RTVSPropertyOp36
 70
     1
102
RTVSPropertyOp37
 70
     1
102
RTVSPropertyOp38
 70
     1
102
RTVSPropertyOp39
 70
     1
102
RTVSPropertyOp40
 70
     1
102
RTVSPropertyOp41
 70
     1
102
RTVSPropertyOp42
 70
     1
102
RTVSPropertyOp43
 70
     1
102
RTVSPropertyOp44
 70
     1
102
RTVSPropertyOp45
 70
     1
102
RTVSPropertyOp46
 70
     1
102
RTVSPropertyOp47
 70
     1
102
RTVSPropertyOp48
 70
     1
102
RTVSPropertyOp49
 70
     1
102
RTVSPropertyOp50
 70
     1
102
RTVSPropertyOp51
 70
     0
102
RTVSPropertyOp52
 70
     0
102
RTVSPropertyOp53
 70
     1
102
RTVSPropertyOp54
 70
     1
102
RTVSPropertyOp55
 70
     1
102
RTVSPropertyOp56
 70
     1
102
RTVSPropertyOp57
 70
     1
102
RTVSPropertyOp58
 70
     1
102
RTVSPropertyOp59
 70
     1
102
RTVSPropertyOp60
 70
     1
102
RTVSPropertyOp61
 70
     1
102
RTVSPropertyOp62
 70
     1
  0
XRECORD
  5
31F
102
{ACAD_REACTORS
330
31E
102
}
330
31E
100
AcDbXrecord
280
     1
102
RTVSPost2010Prop28
280
     0
102
RTVSPost2010PropOp28
 70
     1
102
RTVSPost2010Prop29
280
     1
102
RTVSPost2010PropOp29
 70
     1
102
RTVSPost2010Prop30
280
     1
102
RTVSPost2010PropOp30
 70
     1
102
RTVSPost2010Prop31
280
     0
102
RTVSPost2010PropOp31
 70
     1
102
RTVSPost2010Prop32
280
     0
102
RTVSPost2010PropOp32
 70
     1
102
RTVSPost2010Prop33
280
     0
102
RTVSPost2010PropOp33
 70
     1
102
RTVSPost2010Prop34
280
     0
102
RTVSPost2010PropOp34
 70
     1
102
RTVSPost2010Prop35
280
     0
102
RTVSPost2010PropOp35
 70
     1
102
RTVSPost2010Prop36
280
     0
102
RTVSPost2010PropOp36
 70
     1
102
RTVSPost2010Prop37
 90
       50
102
RTVSPost2010PropOp37
 70
     1
102
RTVSPost2010Prop38
140
0.0
102
RTVSPost2010PropOp38
 70
     1
102
RTVSPost2010Prop39
140
1.0
102
RTVSPost2010PropOp39
 70
     1
102
RTVSPost2010Prop40
 90
        0
102
RTVSPost2010PropOp40
 70
     1
102
RTVSPost2010Prop41ColorIndex
 90
       18
102
RTVSPost2010Prop41ColorRGB
 90
        0
102
RTVSPost2010PropOp41
 70
     1
102
RTVSPost2010Prop42
 90
       50
102
RTVSPost2010PropOp42
 70
     1
102
RTVSPost2010Prop43
 90
        3
102
RTVSPost2010PropOp43
 70
     1
102
RTVSPost2010Prop44ColorIndex
 90
        5
102
RTVSPost2010Prop44ColorRGB
 90
      255
102
RTVSPost2010PropOp44
 70
     1
102
RTVSPost2010Prop45
280
     0
102
RTVSPost2010PropOp45
 70
     1
102
RTVSPost2010Prop46
 90
       50
102
RTVSPost2010PropOp46
 70
     1
102
RTVSPost2010Prop47
 90
       50
102
RTVSPost2010PropOp47
 70
     1
102
RTVSPost2010Prop48
 90
       50
102
RTVSPost2010PropOp48
 70
     1
102
RTVSPost2010Prop49
280
     0
102
RTVSPost2010PropOp49
 70
     1
102
RTVSPost2010Prop50
 90
       50
102
RTVSPost2010PropOp50
 70
     1
102
RTVSPost2010Prop51ColorIndex
 90
      256
102
RTVSPost2010Prop51ColorRGB
 90
-16777216
102
RTVSPost2010PropOp51
 70
     0
102
RTVSPost2010Prop52
140
1.0
102
RTVSPost2010PropOp52
 70
     0
102
RTVSPost2010Prop53
 90
        2
102
RTVSPost2010PropOp53
 70
     1
102
RTVSPost2010Prop54
  1
strokes_ogs.tif
102
RTVSPost2010PropOp54
 70
     1
102
RTVSPost2010Prop55
280
     0
102
RTVSPost2010PropOp55
 70
     1
102
RTVSPost2010Prop56
140
1.0
102
RTVSPost2010PropOp56
 70
     1
102
RTVSPost2010Prop57
140
1.0
102
RTVSPost2010PropOp57
 70
     1
102
RTVSPropertyOp0
 70
     1
102
RTVSPropertyOp1
 70
     1
102
RTVSPropertyOp2
 70
     1
102
RTVSPropertyOp3
 70
     1
102
RTVSPropertyOp4
 70
     1
102
RTVSPropertyOp5
 70
     1
102
RTVSPropertyOp6
 70
     1
102
RTVSPropertyOp7
 70
     1
102
RTVSPropertyOp8
 70
     1
102
RTVSPropertyOp9
 70
     1
102
RTVSPropertyOp10
 70
     1
102
RTVSPropertyOp11
 70
     1
102
RTVSPropertyOp12
 70
     1
102
RTVSPropertyOp13
 70
     1
102
RTVSPropertyOp14
 70
     1
102
RTVSPropertyOp15
 70
     1
102
RTVSPropertyOp16
 70
     1
102
RTVSPropertyOp17
 70
     1
102
RTVSPropertyOp18
 70
     1
102
RTVSPropertyOp19
 70
     1
102
RTVSPropertyOp20
 70
     1
102
RTVSPropertyOp21
 70
     1
102
RTVSPropertyOp22
 70
     1
102
RTVSPropertyOp23
 70
     1
102
RTVSPropertyOp24
 70
     1
102
RTVSPropertyOp25
 70
     1
102
RTVSPropertyOp26
 70
     1
102
RTVSPropertyOp27
 70
     1
102
RTVSPropertyOp28
 70
     1
102
RTVSPropertyOp29
 70
     1
102
RTVSPropertyOp30
 70
     1
102
RTVSPropertyOp31
 70
     1
102
RTVSPropertyOp32
 70
     1
102
RTVSPropertyOp33
 70
     1
102
RTVSPropertyOp34
 70
     1
102
RTVSPropertyOp35
 70
     1
102
RTVSPropertyOp36
 70
     1
102
RTVSPropertyOp37
 70
     1
102
RTVSPropertyOp38
 70
     1
102
RTVSPropertyOp39
 70
     1
102
RTVSPropertyOp40
 70
     1
102
RTVSPropertyOp41
 70
     1
102
RTVSPropertyOp42
 70
     1
102
RTVSPropertyOp43
 70
     1
102
RTVSPropertyOp44
 70
     1
102
RTVSPropertyOp45
 70
     1
102
RTVSPropertyOp46
 70
     1
102
RTVSPropertyOp47
 70
     1
102
RTVSPropertyOp48
 70
     1
102
RTVSPropertyOp49
 70
     1
102
RTVSPropertyOp50
 70
     1
102
RTVSPropertyOp51
 70
     0
102
RTVSPropertyOp52
 70
     0
102
RTVSPropertyOp53
 70
     1
102
RTVSPropertyOp54
 70
     1
102
RTVSPropertyOp55
 70
     1
102
RTVSPropertyOp56
 70
     1
102
RTVSPropertyOp57
 70
     1
102
RTVSPropertyOp58
 70
     1
102
RTVSPropertyOp59
 70
     1
102
RTVSPropertyOp60
 70
     1
102
RTVSPropertyOp61
 70
     1
102
RTVSPropertyOp62
 70
     1
  0
XRECORD
  5
32D
102
{ACAD_REACTORS
330
32C
102
}
330
32C
100
AcDbXrecord
280
     1
102
RTVSPost2010Prop28
280
     0
102
RTVSPost2010PropOp28
 70
     1
102
RTVSPost2010Prop29
280
     1
102
RTVSPost2010PropOp29
 70
     1
102
RTVSPost2010Prop30
280
     1
102
RTVSPost2010PropOp30
 70
     1
102
RTVSPost2010Prop31
280
     0
102
RTVSPost2010PropOp31
 70
     1
102
RTVSPost2010Prop32
280
     0
102
RTVSPost2010PropOp32
 70
     1
102
RTVSPost2010Prop33
280
     0
102
RTVSPost2010PropOp33
 70
     1
102
RTVSPost2010Prop34
280
     0
102
RTVSPost2010PropOp34
 70
     1
102
RTVSPost2010Prop35
280
     0
102
RTVSPost2010PropOp35
 70
     1
102
RTVSPost2010Prop36
280
     0
102
RTVSPost2010PropOp36
 70
     1
102
RTVSPost2010Prop37
 90
       50
102
RTVSPost2010PropOp37
 70
     1
102
RTVSPost2010Prop38
140
0.0
102
RTVSPost2010PropOp38
 70
     1
102
RTVSPost2010Prop39
140
1.0
102
RTVSPost2010PropOp39
 70
     1
102
RTVSPost2010Prop40
 90
        0
102
RTVSPost2010PropOp40
 70
     1
102
RTVSPost2010Prop41ColorIndex
 90
       18
102
RTVSPost2010Prop41ColorRGB
 90
        0
102
RTVSPost2010PropOp41
 70
     1
102
RTVSPost2010Prop42
 90
       50
102
RTVSPost2010PropOp42
 70
     1
102
RTVSPost2010Prop43
 90
        3
102
RTVSPost2010PropOp43
 70
     1
102
RTVSPost2010Prop44ColorIndex
 90
        5
102
RTVSPost2010Prop44ColorRGB
 90
      255
102
RTVSPost2010PropOp44
 70
     1
102
RTVSPost2010Prop45
280
     0
102
RTVSPost2010PropOp45
 70
     1
102
RTVSPost2010Prop46
 90
       50
102
RTVSPost2010PropOp46
 70
     1
102
RTVSPost2010Prop47
 90
       50
102
RTVSPost2010PropOp47
 70
     1
102
RTVSPost2010Prop48
 90
       50
102
RTVSPost2010PropOp48
 70
     1
102
RTVSPost2010Prop49
280
     0
102
RTVSPost2010PropOp49
 70
     1
102
RTVSPost2010Prop50
 90
       50
102
RTVSPost2010PropOp50
 70
     1
102
RTVSPost2010Prop51ColorIndex
 90
      256
102
RTVSPost2010Prop51ColorRGB
 90
-16777216
102
RTVSPost2010PropOp51
 70
     0
102
RTVSPost2010Prop52
140
1.0
102
RTVSPost2010PropOp52
 70
     0
102
RTVSPost2010Prop53
 90
        2
102
RTVSPost2010PropOp53
 70
     1
102
RTVSPost2010Prop54
  1
strokes_ogs.tif
102
RTVSPost2010PropOp54
 70
     1
102
RTVSPost2010Prop55
280
     0
102
RTVSPost2010PropOp55
 70
     1
102
RTVSPost2010Prop56
140
1.0
102
RTVSPost2010PropOp56
 70
     1
102
RTVSPost2010Prop57
140
1.0
102
RTVSPost2010PropOp57
 70
     1
102
RTVSPropertyOp0
 70
     1
102
RTVSPropertyOp1
 70
     1
102
RTVSPropertyOp2
 70
     1
102
RTVSPropertyOp3
 70
     1
102
RTVSPropertyOp4
 70
     1
102
RTVSPropertyOp5
 70
     1
102
RTVSPropertyOp6
 70
     1
102
RTVSPropertyOp7
 70
     1
102
RTVSPropertyOp8
 70
     1
102
RTVSPropertyOp9
 70
     1
102
RTVSPropertyOp10
 70
     1
102
RTVSPropertyOp11
 70
     1
102
RTVSPropertyOp12
 70
     1
102
RTVSPropertyOp13
 70
     1
102
RTVSPropertyOp14
 70
     1
102
RTVSPropertyOp15
 70
     1
102
RTVSPropertyOp16
 70
     1
102
RTVSPropertyOp17
 70
     1
102
RTVSPropertyOp18
 70
     1
102
RTVSPropertyOp19
 70
     1
102
RTVSPropertyOp20
 70
     1
102
RTVSPropertyOp21
 70
     1
102
RTVSPropertyOp22
 70
     1
102
RTVSPropertyOp23
 70
     1
102
RTVSPropertyOp24
 70
     1
102
RTVSPropertyOp25
 70
     1
102
RTVSPropertyOp26
 70
     1
102
RTVSPropertyOp27
 70
     1
102
RTVSPropertyOp28
 70
     1
102
RTVSPropertyOp29
 70
     1
102
RTVSPropertyOp30
 70
     1
102
RTVSPropertyOp31
 70
     1
102
RTVSPropertyOp32
 70
     1
102
RTVSPropertyOp33
 70
     1
102
RTVSPropertyOp34
 70
     1
102
RTVSPropertyOp35
 70
     1
102
RTVSPropertyOp36
 70
     1
102
RTVSPropertyOp37
 70
     1
102
RTVSPropertyOp38
 70
     1
102
RTVSPropertyOp39
 70
     1
102
RTVSPropertyOp40
 70
     1
102
RTVSPropertyOp41
 70
     1
102
RTVSPropertyOp42
 70
     1
102
RTVSPropertyOp43
 70
     1
102
RTVSPropertyOp44
 70
     1
102
RTVSPropertyOp45
 70
     1
102
RTVSPropertyOp46
 70
     1
102
RTVSPropertyOp47
 70
     1
102
RTVSPropertyOp48
 70
     1
102
RTVSPropertyOp49
 70
     1
102
RTVSPropertyOp50
 70
     1
102
RTVSPropertyOp51
 70
     0
102
RTVSPropertyOp52
 70
     0
102
RTVSPropertyOp53
 70
     1
102
RTVSPropertyOp54
 70
     1
102
RTVSPropertyOp55
 70
     1
102
RTVSPropertyOp56
 70
     1
102
RTVSPropertyOp57
 70
     1
102
RTVSPropertyOp58
 70
     1
102
RTVSPropertyOp59
 70
     1
102
RTVSPropertyOp60
 70
     1
102
RTVSPropertyOp61
 70
     1
102
RTVSPropertyOp62
 70
     1
  0
XRECORD
  5
335
102
{ACAD_REACTORS
330
334
102
}
330
334
100
AcDbXrecord
280
     1
102
RTVSPost2010Prop28
280
     0
102
RTVSPost2010PropOp28
 70
     1
102
RTVSPost2010Prop29
280
     1
102
RTVSPost2010PropOp29
 70
     1
102
RTVSPost2010Prop30
280
     1
102
RTVSPost2010PropOp30
 70
     1
102
RTVSPost2010Prop31
280
     0
102
RTVSPost2010PropOp31
 70
     1
102
RTVSPost2010Prop32
280
     0
102
RTVSPost2010PropOp32
 70
     1
102
RTVSPost2010Prop33
280
     0
102
RTVSPost2010PropOp33
 70
     1
102
RTVSPost2010Prop34
280
     0
102
RTVSPost2010PropOp34
 70
     1
102
RTVSPost2010Prop35
280
     0
102
RTVSPost2010PropOp35
 70
     1
102
RTVSPost2010Prop36
280
     0
102
RTVSPost2010PropOp36
 70
     1
102
RTVSPost2010Prop37
 90
       50
102
RTVSPost2010PropOp37
 70
     1
102
RTVSPost2010Prop38
140
0.0
102
RTVSPost2010PropOp38
 70
     1
102
RTVSPost2010Prop39
140
1.0
102
RTVSPost2010PropOp39
 70
     1
102
RTVSPost2010Prop40
 90
        0
102
RTVSPost2010PropOp40
 70
     1
102
RTVSPost2010Prop41ColorIndex
 90
       18
102
RTVSPost2010Prop41ColorRGB
 90
        0
102
RTVSPost2010PropOp41
 70
     1
102
RTVSPost2010Prop42
 90
       50
102
RTVSPost2010PropOp42
 70
     1
102
RTVSPost2010Prop43
 90
        3
102
RTVSPost2010PropOp43
 70
     1
102
RTVSPost2010Prop44ColorIndex
 90
        5
102
RTVSPost2010Prop44ColorRGB
 90
      255
102
RTVSPost2010PropOp44
 70
     1
102
RTVSPost2010Prop45
280
     0
102
RTVSPost2010PropOp45
 70
     1
102
RTVSPost2010Prop46
 90
       50
102
RTVSPost2010PropOp46
 70
     1
102
RTVSPost2010Prop47
 90
       50
102
RTVSPost2010PropOp47
 70
     1
102
RTVSPost2010Prop48
 90
       50
102
RTVSPost2010PropOp48
 70
     1
102
RTVSPost2010Prop49
280
     0
102
RTVSPost2010PropOp49
 70
     1
102
RTVSPost2010Prop50
 90
       50
102
RTVSPost2010PropOp50
 70
     1
102
RTVSPost2010Prop51ColorIndex
 90
      256
102
RTVSPost2010Prop51ColorRGB
 90
-16777216
102
RTVSPost2010PropOp51
 70
     0
102
RTVSPost2010Prop52
140
1.0
102
RTVSPost2010PropOp52
 70
     0
102
RTVSPost2010Prop53
 90
        2
102
RTVSPost2010PropOp53
 70
     1
102
RTVSPost2010Prop54
  1
strokes_ogs.tif
102
RTVSPost2010PropOp54
 70
     1
102
RTVSPost2010Prop55
280
     0
102
RTVSPost2010PropOp55
 70
     1
102
RTVSPost2010Prop56
140
1.0
102
RTVSPost2010PropOp56
 70
     1
102
RTVSPost2010Prop57
140
1.0
102
RTVSPost2010PropOp57
 70
     1
102
RTVSPropertyOp0
 70
     1
102
RTVSPropertyOp1
 70
     1
102
RTVSPropertyOp2
 70
     1
102
RTVSPropertyOp3
 70
     1
102
RTVSPropertyOp4
 70
     1
102
RTVSPropertyOp5
 70
     1
102
RTVSPropertyOp6
 70
     1
102
RTVSPropertyOp7
 70
     1
102
RTVSPropertyOp8
 70
     1
102
RTVSPropertyOp9
 70
     1
102
RTVSPropertyOp10
 70
     1
102
RTVSPropertyOp11
 70
     1
102
RTVSPropertyOp12
 70
     1
102
RTVSPropertyOp13
 70
     1
102
RTVSPropertyOp14
 70
     1
102
RTVSPropertyOp15
 70
     1
102
RTVSPropertyOp16
 70
     1
102
RTVSPropertyOp17
 70
     1
102
RTVSPropertyOp18
 70
     1
102
RTVSPropertyOp19
 70
     1
102
RTVSPropertyOp20
 70
     1
102
RTVSPropertyOp21
 70
     1
102
RTVSPropertyOp22
 70
     1
102
RTVSPropertyOp23
 70
     1
102
RTVSPropertyOp24
 70
     1
102
RTVSPropertyOp25
 70
     1
102
RTVSPropertyOp26
 70
     1
102
RTVSPropertyOp27
 70
     1
102
RTVSPropertyOp28
 70
     1
102
RTVSPropertyOp29
 70
     1
102
RTVSPropertyOp30
 70
     1
102
RTVSPropertyOp31
 70
     1
102
RTVSPropertyOp32
 70
     1
102
RTVSPropertyOp33
 70
     1
102
RTVSPropertyOp34
 70
     1
102
RTVSPropertyOp35
 70
     1
102
RTVSPropertyOp36
 70
     1
102
RTVSPropertyOp37
 70
     1
102
RTVSPropertyOp38
 70
     1
102
RTVSPropertyOp39
 70
     1
102
RTVSPropertyOp40
 70
     1
102
RTVSPropertyOp41
 70
     1
102
RTVSPropertyOp42
 70
     1
102
RTVSPropertyOp43
 70
     1
102
RTVSPropertyOp44
 70
     1
102
RTVSPropertyOp45
 70
     1
102
RTVSPropertyOp46
 70
     1
102
RTVSPropertyOp47
 70
     1
102
RTVSPropertyOp48
 70
     1
102
RTVSPropertyOp49
 70
     1
102
RTVSPropertyOp50
 70
     1
102
RTVSPropertyOp51
 70
     0
102
RTVSPropertyOp52
 70
     0
102
RTVSPropertyOp53
 70
     1
102
RTVSPropertyOp54
 70
     1
102
RTVSPropertyOp55
 70
     1
102
RTVSPropertyOp56
 70
     1
102
RTVSPropertyOp57
 70
     1
102
RTVSPropertyOp58
 70
     1
102
RTVSPropertyOp59
 70
     1
102
RTVSPropertyOp60
 70
     1
102
RTVSPropertyOp61
 70
     1
102
RTVSPropertyOp62
 70
     1
  0
XRECORD
  5
327
102
{ACAD_REACTORS
330
326
102
}
330
326
100
AcDbXrecord
280
     1
102
RTVSPost2010Prop28
280
     0
102
RTVSPost2010PropOp28
 70
     1
102
RTVSPost2010Prop29
280
     1
102
RTVSPost2010PropOp29
 70
     1
102
RTVSPost2010Prop30
280
     1
102
RTVSPost2010PropOp30
 70
     1
102
RTVSPost2010Prop31
280
     0
102
RTVSPost2010PropOp31
 70
     1
102
RTVSPost2010Prop32
280
     0
102
RTVSPost2010PropOp32
 70
     1
102
RTVSPost2010Prop33
280
     0
102
RTVSPost2010PropOp33
 70
     1
102
RTVSPost2010Prop34
280
     0
102
RTVSPost2010PropOp34
 70
     1
102
RTVSPost2010Prop35
280
     0
102
RTVSPost2010PropOp35
 70
     1
102
RTVSPost2010Prop36
280
     0
102
RTVSPost2010PropOp36
 70
     1
102
RTVSPost2010Prop37
 90
       50
102
RTVSPost2010PropOp37
 70
     1
102
RTVSPost2010Prop38
140
0.0
102
RTVSPost2010PropOp38
 70
     1
102
RTVSPost2010Prop39
140
1.0
102
RTVSPost2010PropOp39
 70
     1
102
RTVSPost2010Prop40
 90
        0
102
RTVSPost2010PropOp40
 70
     1
102
RTVSPost2010Prop41ColorIndex
 90
       18
102
RTVSPost2010Prop41ColorRGB
 90
        0
102
RTVSPost2010PropOp41
 70
     1
102
RTVSPost2010Prop42
 90
       50
102
RTVSPost2010PropOp42
 70
     1
102
RTVSPost2010Prop43
 90
        3
102
RTVSPost2010PropOp43
 70
     1
102
RTVSPost2010Prop44ColorIndex
 90
        5
102
RTVSPost2010Prop44ColorRGB
 90
      255
102
RTVSPost2010PropOp44
 70
     1
102
RTVSPost2010Prop45
280
     0
102
RTVSPost2010PropOp45
 70
     1
102
RTVSPost2010Prop46
 90
       50
102
RTVSPost2010PropOp46
 70
     1
102
RTVSPost2010Prop47
 90
       50
102
RTVSPost2010PropOp47
 70
     1
102
RTVSPost2010Prop48
 90
       50
102
RTVSPost2010PropOp48
 70
     1
102
RTVSPost2010Prop49
280
     0
102
RTVSPost2010PropOp49
 70
     1
102
RTVSPost2010Prop50
 90
       50
102
RTVSPost2010PropOp50
 70
     1
102
RTVSPost2010Prop51ColorIndex
 90
      256
102
RTVSPost2010Prop51ColorRGB
 90
-16777216
102
RTVSPost2010PropOp51
 70
     0
102
RTVSPost2010Prop52
140
1.0
102
RTVSPost2010PropOp52
 70
     0
102
RTVSPost2010Prop53
 90
        2
102
RTVSPost2010PropOp53
 70
     1
102
RTVSPost2010Prop54
  1
strokes_ogs.tif
102
RTVSPost2010PropOp54
 70
     1
102
RTVSPost2010Prop55
280
     0
102
RTVSPost2010PropOp55
 70
     1
102
RTVSPost2010Prop56
140
1.0
102
RTVSPost2010PropOp56
 70
     1
102
RTVSPost2010Prop57
140
1.0
102
RTVSPost2010PropOp57
 70
     1
102
RTVSPropertyOp0
 70
     1
102
RTVSPropertyOp1
 70
     1
102
RTVSPropertyOp2
 70
     1
102
RTVSPropertyOp3
 70
     1
102
RTVSPropertyOp4
 70
     1
102
RTVSPropertyOp5
 70
     1
102
RTVSPropertyOp6
 70
     1
102
RTVSPropertyOp7
 70
     1
102
RTVSPropertyOp8
 70
     1
102
RTVSPropertyOp9
 70
     1
102
RTVSPropertyOp10
 70
     1
102
RTVSPropertyOp11
 70
     1
102
RTVSPropertyOp12
 70
     1
102
RTVSPropertyOp13
 70
     1
102
RTVSPropertyOp14
 70
     1
102
RTVSPropertyOp15
 70
     1
102
RTVSPropertyOp16
 70
     1
102
RTVSPropertyOp17
 70
     1
102
RTVSPropertyOp18
 70
     1
102
RTVSPropertyOp19
 70
     1
102
RTVSPropertyOp20
 70
     1
102
RTVSPropertyOp21
 70
     1
102
RTVSPropertyOp22
 70
     1
102
RTVSPropertyOp23
 70
     1
102
RTVSPropertyOp24
 70
     1
102
RTVSPropertyOp25
 70
     1
102
RTVSPropertyOp26
 70
     1
102
RTVSPropertyOp27
 70
     1
102
RTVSPropertyOp28
 70
     1
102
RTVSPropertyOp29
 70
     1
102
RTVSPropertyOp30
 70
     1
102
RTVSPropertyOp31
 70
     1
102
RTVSPropertyOp32
 70
     1
102
RTVSPropertyOp33
 70
     1
102
RTVSPropertyOp34
 70
     1
102
RTVSPropertyOp35
 70
     1
102
RTVSPropertyOp36
 70
     1
102
RTVSPropertyOp37
 70
     1
102
RTVSPropertyOp38
 70
     1
102
RTVSPropertyOp39
 70
     1
102
RTVSPropertyOp40
 70
     1
102
RTVSPropertyOp41
 70
     1
102
RTVSPropertyOp42
 70
     1
102
RTVSPropertyOp43
 70
     1
102
RTVSPropertyOp44
 70
     1
102
RTVSPropertyOp45
 70
     1
102
RTVSPropertyOp46
 70
     1
102
RTVSPropertyOp47
 70
     1
102
RTVSPropertyOp48
 70
     1
102
RTVSPropertyOp49
 70
     1
102
RTVSPropertyOp50
 70
     1
102
RTVSPropertyOp51
 70
     0
102
RTVSPropertyOp52
 70
     0
102
RTVSPropertyOp53
 70
     1
102
RTVSPropertyOp54
 70
     1
102
RTVSPropertyOp55
 70
     1
102
RTVSPropertyOp56
 70
     1
102
RTVSPropertyOp57
 70
     1
102
RTVSPropertyOp58
 70
     1
102
RTVSPropertyOp59
 70
     1
102
RTVSPropertyOp60
 70
     1
102
RTVSPropertyOp61
 70
     1
102
RTVSPropertyOp62
 70
     1
  0
XRECORD
  5
32B
102
{ACAD_REACTORS
330
32A
102
}
330
32A
100
AcDbXrecord
280
     1
102
RTVSPost2010Prop28
280
     0
102
RTVSPost2010PropOp28
 70
     1
102
RTVSPost2010Prop29
280
     1
102
RTVSPost2010PropOp29
 70
     1
102
RTVSPost2010Prop30
280
     1
102
RTVSPost2010PropOp30
 70
     1
102
RTVSPost2010Prop31
280
     0
102
RTVSPost2010PropOp31
 70
     1
102
RTVSPost2010Prop32
280
     0
102
RTVSPost2010PropOp32
 70
     1
102
RTVSPost2010Prop33
280
     0
102
RTVSPost2010PropOp33
 70
     1
102
RTVSPost2010Prop34
280
     0
102
RTVSPost2010PropOp34
 70
     1
102
RTVSPost2010Prop35
280
     0
102
RTVSPost2010PropOp35
 70
     1
102
RTVSPost2010Prop36
280
     0
102
RTVSPost2010PropOp36
 70
     1
102
RTVSPost2010Prop37
 90
       50
102
RTVSPost2010PropOp37
 70
     1
102
RTVSPost2010Prop38
140
0.0
102
RTVSPost2010PropOp38
 70
     1
102
RTVSPost2010Prop39
140
1.0
102
RTVSPost2010PropOp39
 70
     1
102
RTVSPost2010Prop40
 90
        0
102
RTVSPost2010PropOp40
 70
     1
102
RTVSPost2010Prop41ColorIndex
 90
       18
102
RTVSPost2010Prop41ColorRGB
 90
        0
102
RTVSPost2010PropOp41
 70
     1
102
RTVSPost2010Prop42
 90
       50
102
RTVSPost2010PropOp42
 70
     1
102
RTVSPost2010Prop43
 90
        3
102
RTVSPost2010PropOp43
 70
     1
102
RTVSPost2010Prop44ColorIndex
 90
        5
102
RTVSPost2010Prop44ColorRGB
 90
      255
102
RTVSPost2010PropOp44
 70
     1
102
RTVSPost2010Prop45
280
     0
102
RTVSPost2010PropOp45
 70
     1
102
RTVSPost2010Prop46
 90
       50
102
RTVSPost2010PropOp46
 70
     1
102
RTVSPost2010Prop47
 90
       50
102
RTVSPost2010PropOp47
 70
     1
102
RTVSPost2010Prop48
 90
       50
102
RTVSPost2010PropOp48
 70
     1
102
RTVSPost2010Prop49
280
     0
102
RTVSPost2010PropOp49
 70
     1
102
RTVSPost2010Prop50
 90
       50
102
RTVSPost2010PropOp50
 70
     1
102
RTVSPost2010Prop51ColorIndex
 90
      256
102
RTVSPost2010Prop51ColorRGB
 90
-16777216
102
RTVSPost2010PropOp51
 70
     0
102
RTVSPost2010Prop52
140
1.0
102
RTVSPost2010PropOp52
 70
     0
102
RTVSPost2010Prop53
 90
        2
102
RTVSPost2010PropOp53
 70
     1
102
RTVSPost2010Prop54
  1
strokes_ogs.tif
102
RTVSPost2010PropOp54
 70
     1
102
RTVSPost2010Prop55
280
     0
102
RTVSPost2010PropOp55
 70
     1
102
RTVSPost2010Prop56
140
1.0
102
RTVSPost2010PropOp56
 70
     1
102
RTVSPost2010Prop57
140
1.0
102
RTVSPost2010PropOp57
 70
     1
102
RTVSPropertyOp0
 70
     1
102
RTVSPropertyOp1
 70
     1
102
RTVSPropertyOp2
 70
     1
102
RTVSPropertyOp3
 70
     1
102
RTVSPropertyOp4
 70
     1
102
RTVSPropertyOp5
 70
     1
102
RTVSPropertyOp6
 70
     1
102
RTVSPropertyOp7
 70
     1
102
RTVSPropertyOp8
 70
     1
102
RTVSPropertyOp9
 70
     1
102
RTVSPropertyOp10
 70
     1
102
RTVSPropertyOp11
 70
     1
102
RTVSPropertyOp12
 70
     1
102
RTVSPropertyOp13
 70
     1
102
RTVSPropertyOp14
 70
     1
102
RTVSPropertyOp15
 70
     1
102
RTVSPropertyOp16
 70
     1
102
RTVSPropertyOp17
 70
     1
102
RTVSPropertyOp18
 70
     1
102
RTVSPropertyOp19
 70
     1
102
RTVSPropertyOp20
 70
     1
102
RTVSPropertyOp21
 70
     1
102
RTVSPropertyOp22
 70
     1
102
RTVSPropertyOp23
 70
     1
102
RTVSPropertyOp24
 70
     1
102
RTVSPropertyOp25
 70
     1
102
RTVSPropertyOp26
 70
     1
102
RTVSPropertyOp27
 70
     1
102
RTVSPropertyOp28
 70
     1
102
RTVSPropertyOp29
 70
     1
102
RTVSPropertyOp30
 70
     1
102
RTVSPropertyOp31
 70
     1
102
RTVSPropertyOp32
 70
     1
102
RTVSPropertyOp33
 70
     1
102
RTVSPropertyOp34
 70
     1
102
RTVSPropertyOp35
 70
     1
102
RTVSPropertyOp36
 70
     1
102
RTVSPropertyOp37
 70
     1
102
RTVSPropertyOp38
 70
     1
102
RTVSPropertyOp39
 70
     1
102
RTVSPropertyOp40
 70
     1
102
RTVSPropertyOp41
 70
     1
102
RTVSPropertyOp42
 70
     1
102
RTVSPropertyOp43
 70
     1
102
RTVSPropertyOp44
 70
     1
102
RTVSPropertyOp45
 70
     1
102
RTVSPropertyOp46
 70
     1
102
RTVSPropertyOp47
 70
     1
102
RTVSPropertyOp48
 70
     1
102
RTVSPropertyOp49
 70
     1
102
RTVSPropertyOp50
 70
     1
102
RTVSPropertyOp51
 70
     0
102
RTVSPropertyOp52
 70
     0
102
RTVSPropertyOp53
 70
     1
102
RTVSPropertyOp54
 70
     1
102
RTVSPropertyOp55
 70
     1
102
RTVSPropertyOp56
 70
     1
102
RTVSPropertyOp57
 70
     1
102
RTVSPropertyOp58
 70
     1
102
RTVSPropertyOp59
 70
     1
102
RTVSPropertyOp60
 70
     1
102
RTVSPropertyOp61
 70
     1
102
RTVSPropertyOp62
 70
     1
  0
XRECORD
  5
345
102
{ACAD_REACTORS
330
344
102
}
330
344
100
AcDbXrecord
280
     1
102
RTVSPost2010Prop28
280
     0
102
RTVSPost2010PropOp28
 70
     0
102
RTVSPost2010Prop29
280
     1
102
RTVSPost2010PropOp29
 70
     0
102
RTVSPost2010Prop30
280
     1
102
RTVSPost2010PropOp30
 70
     0
102
RTVSPost2010Prop31
280
     0
102
RTVSPost2010PropOp31
 70
     0
102
RTVSPost2010Prop32
280
     0
102
RTVSPost2010PropOp32
 70
     0
102
RTVSPost2010Prop33
280
     0
102
RTVSPost2010PropOp33
 70
     0
102
RTVSPost2010Prop34
280
     0
102
RTVSPost2010PropOp34
 70
     0
102
RTVSPost2010Prop35
280
     0
102
RTVSPost2010PropOp35
 70
     0
102
RTVSPost2010Prop36
280
     0
102
RTVSPost2010PropOp36
 70
     0
102
RTVSPost2010Prop37
 90
       50
102
RTVSPost2010PropOp37
 70
     0
102
RTVSPost2010Prop38
140
0.0
102
RTVSPost2010PropOp38
 70
     0
102
RTVSPost2010Prop39
140
1.0
102
RTVSPost2010PropOp39
 70
     0
102
RTVSPost2010Prop40
 90
        0
102
RTVSPost2010PropOp40
 70
     0
102
RTVSPost2010Prop41ColorIndex
 90
       18
102
RTVSPost2010Prop41ColorRGB
 90
        0
102
RTVSPost2010PropOp41
 70
     0
102
RTVSPost2010Prop42
 90
       50
102
RTVSPost2010PropOp42
 70
     0
102
RTVSPost2010Prop43
 90
        3
102
RTVSPost2010PropOp43
 70
     0
102
RTVSPost2010Prop44ColorIndex
 90
        5
102
RTVSPost2010Prop44ColorRGB
 90
      255
102
RTVSPost2010PropOp44
 70
     0
102
RTVSPost2010Prop45
280
     0
102
RTVSPost2010PropOp45
 70
     0
102
RTVSPost2010Prop46
 90
       50
102
RTVSPost2010PropOp46
 70
     0
102
RTVSPost2010Prop47
 90
       50
102
RTVSPost2010PropOp47
 70
     0
102
RTVSPost2010Prop48
 90
       50
102
RTVSPost2010PropOp48
 70
     0
102
RTVSPost2010Prop49
280
     0
102
RTVSPost2010PropOp49
 70
     0
102
RTVSPost2010Prop50
 90
       50
102
RTVSPost2010PropOp50
 70
     0
102
RTVSPost2010Prop51ColorIndex
 90
      256
102
RTVSPost2010Prop51ColorRGB
 90
-16777216
102
RTVSPost2010PropOp51
 70
     0
102
RTVSPost2010Prop52
140
1.0
102
RTVSPost2010PropOp52
 70
     0
102
RTVSPost2010Prop53
 90
        2
102
RTVSPost2010PropOp53
 70
     0
102
RTVSPost2010Prop54
  1
strokes_ogs.tif
102
RTVSPost2010PropOp54
 70
     0
102
RTVSPost2010Prop55
280
     0
102
RTVSPost2010PropOp55
 70
     0
102
RTVSPost2010Prop56
140
1.0
102
RTVSPost2010PropOp56
 70
     0
102
RTVSPost2010Prop57
140
1.0
102
RTVSPost2010PropOp57
 70
     0
102
RTVSPropertyOp0
 70
     0
102
RTVSPropertyOp1
 70
     0
102
RTVSPropertyOp2
 70
     0
102
RTVSPropertyOp3
 70
     0
102
RTVSPropertyOp4
 70
     0
102
RTVSPropertyOp5
 70
     0
102
RTVSPropertyOp6
 70
     0
102
RTVSPropertyOp7
 70
     0
102
RTVSPropertyOp8
 70
     0
102
RTVSPropertyOp9
 70
     0
102
RTVSPropertyOp10
 70
     0
102
RTVSPropertyOp11
 70
     0
102
RTVSPropertyOp12
 70
     0
102
RTVSPropertyOp13
 70
     0
102
RTVSPropertyOp14
 70
     2
102
RTVSPropertyOp15
 70
     0
102
RTVSPropertyOp16
 70
     0
102
RTVSPropertyOp17
 70
     0
102
RTVSPropertyOp18
 70
     0
102
RTVSPropertyOp19
 70
     0
102
RTVSPropertyOp20
 70
     0
102
RTVSPropertyOp21
 70
     0
102
RTVSPropertyOp22
 70
     0
102
RTVSPropertyOp23
 70
     0
102
RTVSPropertyOp24
 70
     0
102
RTVSPropertyOp25
 70
     0
102
RTVSPropertyOp26
 70
     0
102
RTVSPropertyOp27
 70
     0
102
RTVSPropertyOp28
 70
     0
102
RTVSPropertyOp29
 70
     0
102
RTVSPropertyOp30
 70
     0
102
RTVSPropertyOp31
 70
     0
102
RTVSPropertyOp32
 70
     0
102
RTVSPropertyOp33
 70
     0
102
RTVSPropertyOp34
 70
     0
102
RTVSPropertyOp35
 70
     0
102
RTVSPropertyOp36
 70
     0
102
RTVSPropertyOp37
 70
     0
102
RTVSPropertyOp38
 70
     0
102
RTVSPropertyOp39
 70
     0
102
RTVSPropertyOp40
 70
     0
102
RTVSPropertyOp41
 70
     0
102
RTVSPropertyOp42
 70
     0
102
RTVSPropertyOp43
 70
     0
102
RTVSPropertyOp44
 70
     0
102
RTVSPropertyOp45
 70
     0
102
RTVSPropertyOp46
 70
     0
102
RTVSPropertyOp47
 70
     0
102
RTVSPropertyOp48
 70
     0
102
RTVSPropertyOp49
 70
     0
102
RTVSPropertyOp50
 70
     0
102
RTVSPropertyOp51
 70
     0
102
RTVSPropertyOp52
 70
     0
102
RTVSPropertyOp53
 70
     0
102
RTVSPropertyOp54
 70
     0
102
RTVSPropertyOp55
 70
     0
102
RTVSPropertyOp56
 70
     0
102
RTVSPropertyOp57
 70
     0
102
RTVSPropertyOp58
 70
     0
102
RTVSPropertyOp59
 70
     0
102
RTVSPropertyOp60
 70
     0
102
RTVSPropertyOp61
 70
     0
102
RTVSPropertyOp62
 70
     0
  0
XRECORD
  5
333
102
{ACAD_REACTORS
330
332
102
}
330
332
100
AcDbXrecord
280
     1
102
RTVSPost2010Prop28
280
     0
102
RTVSPost2010PropOp28
 70
     1
102
RTVSPost2010Prop29
280
     1
102
RTVSPost2010PropOp29
 70
     1
102
RTVSPost2010Prop30
280
     1
102
RTVSPost2010PropOp30
 70
     1
102
RTVSPost2010Prop31
280
     0
102
RTVSPost2010PropOp31
 70
     1
102
RTVSPost2010Prop32
280
     0
102
RTVSPost2010PropOp32
 70
     1
102
RTVSPost2010Prop33
280
     0
102
RTVSPost2010PropOp33
 70
     1
102
RTVSPost2010Prop34
280
     0
102
RTVSPost2010PropOp34
 70
     1
102
RTVSPost2010Prop35
280
     0
102
RTVSPost2010PropOp35
 70
     1
102
RTVSPost2010Prop36
280
     0
102
RTVSPost2010PropOp36
 70
     1
102
RTVSPost2010Prop37
 90
       50
102
RTVSPost2010PropOp37
 70
     1
102
RTVSPost2010Prop38
140
0.0
102
RTVSPost2010PropOp38
 70
     1
102
RTVSPost2010Prop39
140
1.0
102
RTVSPost2010PropOp39
 70
     1
102
RTVSPost2010Prop40
 90
        0
102
RTVSPost2010PropOp40
 70
     1
102
RTVSPost2010Prop41ColorIndex
 90
       18
102
RTVSPost2010Prop41ColorRGB
 90
        0
102
RTVSPost2010PropOp41
 70
     1
102
RTVSPost2010Prop42
 90
       50
102
RTVSPost2010PropOp42
 70
     1
102
RTVSPost2010Prop43
 90
        3
102
RTVSPost2010PropOp43
 70
     1
102
RTVSPost2010Prop44ColorIndex
 90
        5
102
RTVSPost2010Prop44ColorRGB
 90
      255
102
RTVSPost2010PropOp44
 70
     1
102
RTVSPost2010Prop45
280
     0
102
RTVSPost2010PropOp45
 70
     1
102
RTVSPost2010Prop46
 90
       50
102
RTVSPost2010PropOp46
 70
     1
102
RTVSPost2010Prop47
 90
       50
102
RTVSPost2010PropOp47
 70
     1
102
RTVSPost2010Prop48
 90
       50
102
RTVSPost2010PropOp48
 70
     1
102
RTVSPost2010Prop49
280
     0
102
RTVSPost2010PropOp49
 70
     1
102
RTVSPost2010Prop50
 90
       50
102
RTVSPost2010PropOp50
 70
     1
102
RTVSPost2010Prop51ColorIndex
 90
      256
102
RTVSPost2010Prop51ColorRGB
 90
-16777216
102
RTVSPost2010PropOp51
 70
     0
102
RTVSPost2010Prop52
140
1.0
102
RTVSPost2010PropOp52
 70
     0
102
RTVSPost2010Prop53
 90
        2
102
RTVSPost2010PropOp53
 70
     1
102
RTVSPost2010Prop54
  1
strokes_ogs.tif
102
RTVSPost2010PropOp54
 70
     1
102
RTVSPost2010Prop55
280
     0
102
RTVSPost2010PropOp55
 70
     1
102
RTVSPost2010Prop56
140
1.0
102
RTVSPost2010PropOp56
 70
     1
102
RTVSPost2010Prop57
140
1.0
102
RTVSPost2010PropOp57
 70
     1
102
RTVSPropertyOp0
 70
     1
102
RTVSPropertyOp1
 70
     1
102
RTVSPropertyOp2
 70
     1
102
RTVSPropertyOp3
 70
     1
102
RTVSPropertyOp4
 70
     1
102
RTVSPropertyOp5
 70
     1
102
RTVSPropertyOp6
 70
     1
102
RTVSPropertyOp7
 70
     1
102
RTVSPropertyOp8
 70
     1
102
RTVSPropertyOp9
 70
     1
102
RTVSPropertyOp10
 70
     1
102
RTVSPropertyOp11
 70
     1
102
RTVSPropertyOp12
 70
     1
102
RTVSPropertyOp13
 70
     1
102
RTVSPropertyOp14
 70
     1
102
RTVSPropertyOp15
 70
     1
102
RTVSPropertyOp16
 70
     1
102
RTVSPropertyOp17
 70
     1
102
RTVSPropertyOp18
 70
     1
102
RTVSPropertyOp19
 70
     1
102
RTVSPropertyOp20
 70
     1
102
RTVSPropertyOp21
 70
     1
102
RTVSPropertyOp22
 70
     1
102
RTVSPropertyOp23
 70
     1
102
RTVSPropertyOp24
 70
     1
102
RTVSPropertyOp25
 70
     1
102
RTVSPropertyOp26
 70
     1
102
RTVSPropertyOp27
 70
     1
102
RTVSPropertyOp28
 70
     1
102
RTVSPropertyOp29
 70
     1
102
RTVSPropertyOp30
 70
     1
102
RTVSPropertyOp31
 70
     1
102
RTVSPropertyOp32
 70
     1
102
RTVSPropertyOp33
 70
     1
102
RTVSPropertyOp34
 70
     1
102
RTVSPropertyOp35
 70
     1
102
RTVSPropertyOp36
 70
     1
102
RTVSPropertyOp37
 70
     1
102
RTVSPropertyOp38
 70
     1
102
RTVSPropertyOp39
 70
     1
102
RTVSPropertyOp40
 70
     1
102
RTVSPropertyOp41
 70
     1
102
RTVSPropertyOp42
 70
     1
102
RTVSPropertyOp43
 70
     1
102
RTVSPropertyOp44
 70
     1
102
RTVSPropertyOp45
 70
     1
102
RTVSPropertyOp46
 70
     1
102
RTVSPropertyOp47
 70
     1
102
RTVSPropertyOp48
 70
     1
102
RTVSPropertyOp49
 70
     1
102
RTVSPropertyOp50
 70
     1
102
RTVSPropertyOp51
 70
     0
102
RTVSPropertyOp52
 70
     0
102
RTVSPropertyOp53
 70
     1
102
RTVSPropertyOp54
 70
     1
102
RTVSPropertyOp55
 70
     1
102
RTVSPropertyOp56
 70
     1
102
RTVSPropertyOp57
 70
     1
102
RTVSPropertyOp58
 70
     1
102
RTVSPropertyOp59
 70
     1
102
RTVSPropertyOp60
 70
     1
102
RTVSPropertyOp61
 70
     1
102
RTVSPropertyOp62
 70
     1
  0
XRECORD
  5
317
102
{ACAD_REACTORS
330
316
102
}
330
316
100
AcDbXrecord
280
     1
102
RTVSPost2010Prop28
280
     0
102
RTVSPost2010PropOp28
 70
     1
102
RTVSPost2010Prop29
280
     1
102
RTVSPost2010PropOp29
 70
     1
102
RTVSPost2010Prop30
280
     1
102
RTVSPost2010PropOp30
 70
     1
102
RTVSPost2010Prop31
280
     0
102
RTVSPost2010PropOp31
 70
     1
102
RTVSPost2010Prop32
280
     0
102
RTVSPost2010PropOp32
 70
     1
102
RTVSPost2010Prop33
280
     0
102
RTVSPost2010PropOp33
 70
     1
102
RTVSPost2010Prop34
280
     0
102
RTVSPost2010PropOp34
 70
     1
102
RTVSPost2010Prop35
280
     0
102
RTVSPost2010PropOp35
 70
     1
102
RTVSPost2010Prop36
280
     0
102
RTVSPost2010PropOp36
 70
     1
102
RTVSPost2010Prop37
 90
       50
102
RTVSPost2010PropOp37
 70
     1
102
RTVSPost2010Prop38
140
0.0
102
RTVSPost2010PropOp38
 70
     1
102
RTVSPost2010Prop39
140
1.0
102
RTVSPost2010PropOp39
 70
     1
102
RTVSPost2010Prop40
 90
        0
102
RTVSPost2010PropOp40
 70
     1
102
RTVSPost2010Prop41ColorIndex
 90
       18
102
RTVSPost2010Prop41ColorRGB
 90
        0
102
RTVSPost2010PropOp41
 70
     1
102
RTVSPost2010Prop42
 90
       50
102
RTVSPost2010PropOp42
 70
     1
102
RTVSPost2010Prop43
 90
        3
102
RTVSPost2010PropOp43
 70
     1
102
RTVSPost2010Prop44ColorIndex
 90
        5
102
RTVSPost2010Prop44ColorRGB
 90
      255
102
RTVSPost2010PropOp44
 70
     1
102
RTVSPost2010Prop45
280
     0
102
RTVSPost2010PropOp45
 70
     1
102
RTVSPost2010Prop46
 90
       50
102
RTVSPost2010PropOp46
 70
     1
102
RTVSPost2010Prop47
 90
       50
102
RTVSPost2010PropOp47
 70
     1
102
RTVSPost2010Prop48
 90
       50
102
RTVSPost2010PropOp48
 70
     1
102
RTVSPost2010Prop49
280
     0
102
RTVSPost2010PropOp49
 70
     1
102
RTVSPost2010Prop50
 90
       50
102
RTVSPost2010PropOp50
 70
     1
102
RTVSPost2010Prop51ColorIndex
 90
      256
102
RTVSPost2010Prop51ColorRGB
 90
-16777216
102
RTVSPost2010PropOp51
 70
     0
102
RTVSPost2010Prop52
140
1.0
102
RTVSPost2010PropOp52
 70
     0
102
RTVSPost2010Prop53
 90
        2
102
RTVSPost2010PropOp53
 70
     1
102
RTVSPost2010Prop54
  1
strokes_ogs.tif
102
RTVSPost2010PropOp54
 70
     1
102
RTVSPost2010Prop55
280
     0
102
RTVSPost2010PropOp55
 70
     1
102
RTVSPost2010Prop56
140
1.0
102
RTVSPost2010PropOp56
 70
     1
102
RTVSPost2010Prop57
140
1.0
102
RTVSPost2010PropOp57
 70
     1
102
RTVSPropertyOp0
 70
     1
102
RTVSPropertyOp1
 70
     1
102
RTVSPropertyOp2
 70
     1
102
RTVSPropertyOp3
 70
     1
102
RTVSPropertyOp4
 70
     1
102
RTVSPropertyOp5
 70
     1
102
RTVSPropertyOp6
 70
     1
102
RTVSPropertyOp7
 70
     1
102
RTVSPropertyOp8
 70
     1
102
RTVSPropertyOp9
 70
     1
102
RTVSPropertyOp10
 70
     1
102
RTVSPropertyOp11
 70
     1
102
RTVSPropertyOp12
 70
     1
102
RTVSPropertyOp13
 70
     1
102
RTVSPropertyOp14
 70
     1
102
RTVSPropertyOp15
 70
     1
102
RTVSPropertyOp16
 70
     1
102
RTVSPropertyOp17
 70
     1
102
RTVSPropertyOp18
 70
     1
102
RTVSPropertyOp19
 70
     1
102
RTVSPropertyOp20
 70
     1
102
RTVSPropertyOp21
 70
     1
102
RTVSPropertyOp22
 70
     1
102
RTVSPropertyOp23
 70
     1
102
RTVSPropertyOp24
 70
     1
102
RTVSPropertyOp25
 70
     1
102
RTVSPropertyOp26
 70
     1
102
RTVSPropertyOp27
 70
     1
102
RTVSPropertyOp28
 70
     1
102
RTVSPropertyOp29
 70
     1
102
RTVSPropertyOp30
 70
     1
102
RTVSPropertyOp31
 70
     1
102
RTVSPropertyOp32
 70
     1
102
RTVSPropertyOp33
 70
     1
102
RTVSPropertyOp34
 70
     1
102
RTVSPropertyOp35
 70
     1
102
RTVSPropertyOp36
 70
     1
102
RTVSPropertyOp37
 70
     1
102
RTVSPropertyOp38
 70
     1
102
RTVSPropertyOp39
 70
     1
102
RTVSPropertyOp40
 70
     1
102
RTVSPropertyOp41
 70
     1
102
RTVSPropertyOp42
 70
     1
102
RTVSPropertyOp43
 70
     1
102
RTVSPropertyOp44
 70
     1
102
RTVSPropertyOp45
 70
     1
102
RTVSPropertyOp46
 70
     1
102
RTVSPropertyOp47
 70
     1
102
RTVSPropertyOp48
 70
     1
102
RTVSPropertyOp49
 70
     1
102
RTVSPropertyOp50
 70
     1
102
RTVSPropertyOp51
 70
     0
102
RTVSPropertyOp52
 70
     0
102
RTVSPropertyOp53
 70
     1
102
RTVSPropertyOp54
 70
     1
102
RTVSPropertyOp55
 70
     1
102
RTVSPropertyOp56
 70
     1
102
RTVSPropertyOp57
 70
     1
102
RTVSPropertyOp58
 70
     1
102
RTVSPropertyOp59
 70
     1
102
RTVSPropertyOp60
 70
     1
102
RTVSPropertyOp61
 70
     1
102
RTVSPropertyOp62
 70
     1
  0
XRECORD
  5
319
102
{ACAD_REACTORS
330
318
102
}
330
318
100
AcDbXrecord
280
     1
102
RTVSPost2010Prop28
280
     0
102
RTVSPost2010PropOp28
 70
     1
102
RTVSPost2010Prop29
280
     1
102
RTVSPost2010PropOp29
 70
     1
102
RTVSPost2010Prop30
280
     1
102
RTVSPost2010PropOp30
 70
     1
102
RTVSPost2010Prop31
280
     0
102
RTVSPost2010PropOp31
 70
     1
102
RTVSPost2010Prop32
280
     0
102
RTVSPost2010PropOp32
 70
     1
102
RTVSPost2010Prop33
280
     0
102
RTVSPost2010PropOp33
 70
     1
102
RTVSPost2010Prop34
280
     0
102
RTVSPost2010PropOp34
 70
     1
102
RTVSPost2010Prop35
280
     0
102
RTVSPost2010PropOp35
 70
     1
102
RTVSPost2010Prop36
280
     0
102
RTVSPost2010PropOp36
 70
     1
102
RTVSPost2010Prop37
 90
       50
102
RTVSPost2010PropOp37
 70
     1
102
RTVSPost2010Prop38
140
0.0
102
RTVSPost2010PropOp38
 70
     1
102
RTVSPost2010Prop39
140
1.0
102
RTVSPost2010PropOp39
 70
     1
102
RTVSPost2010Prop40
 90
        0
102
RTVSPost2010PropOp40
 70
     1
102
RTVSPost2010Prop41ColorIndex
 90
       18
102
RTVSPost2010Prop41ColorRGB
 90
        0
102
RTVSPost2010PropOp41
 70
     1
102
RTVSPost2010Prop42
 90
       50
102
RTVSPost2010PropOp42
 70
     1
102
RTVSPost2010Prop43
 90
        3
102
RTVSPost2010PropOp43
 70
     1
102
RTVSPost2010Prop44ColorIndex
 90
        5
102
RTVSPost2010Prop44ColorRGB
 90
      255
102
RTVSPost2010PropOp44
 70
     1
102
RTVSPost2010Prop45
280
     0
102
RTVSPost2010PropOp45
 70
     1
102
RTVSPost2010Prop46
 90
       50
102
RTVSPost2010PropOp46
 70
     1
102
RTVSPost2010Prop47
 90
       50
102
RTVSPost2010PropOp47
 70
     1
102
RTVSPost2010Prop48
 90
       50
102
RTVSPost2010PropOp48
 70
     1
102
RTVSPost2010Prop49
280
     0
102
RTVSPost2010PropOp49
 70
     1
102
RTVSPost2010Prop50
 90
       50
102
RTVSPost2010PropOp50
 70
     1
102
RTVSPost2010Prop51ColorIndex
 90
      256
102
RTVSPost2010Prop51ColorRGB
 90
-16777216
102
RTVSPost2010PropOp51
 70
     0
102
RTVSPost2010Prop52
140
1.0
102
RTVSPost2010PropOp52
 70
     0
102
RTVSPost2010Prop53
 90
        2
102
RTVSPost2010PropOp53
 70
     1
102
RTVSPost2010Prop54
  1
strokes_ogs.tif
102
RTVSPost2010PropOp54
 70
     1
102
RTVSPost2010Prop55
280
     0
102
RTVSPost2010PropOp55
 70
     1
102
RTVSPost2010Prop56
140
1.0
102
RTVSPost2010PropOp56
 70
     1
102
RTVSPost2010Prop57
140
1.0
102
RTVSPost2010PropOp57
 70
     1
102
RTVSPropertyOp0
 70
     1
102
RTVSPropertyOp1
 70
     1
102
RTVSPropertyOp2
 70
     1
102
RTVSPropertyOp3
 70
     1
102
RTVSPropertyOp4
 70
     1
102
RTVSPropertyOp5
 70
     1
102
RTVSPropertyOp6
 70
     1
102
RTVSPropertyOp7
 70
     1
102
RTVSPropertyOp8
 70
     1
102
RTVSPropertyOp9
 70
     1
102
RTVSPropertyOp10
 70
     1
102
RTVSPropertyOp11
 70
     1
102
RTVSPropertyOp12
 70
     1
102
RTVSPropertyOp13
 70
     1
102
RTVSPropertyOp14
 70
     1
102
RTVSPropertyOp15
 70
     1
102
RTVSPropertyOp16
 70
     1
102
RTVSPropertyOp17
 70
     1
102
RTVSPropertyOp18
 70
     1
102
RTVSPropertyOp19
 70
     1
102
RTVSPropertyOp20
 70
     1
102
RTVSPropertyOp21
 70
     1
102
RTVSPropertyOp22
 70
     1
102
RTVSPropertyOp23
 70
     1
102
RTVSPropertyOp24
 70
     1
102
RTVSPropertyOp25
 70
     1
102
RTVSPropertyOp26
 70
     1
102
RTVSPropertyOp27
 70
     1
102
RTVSPropertyOp28
 70
     1
102
RTVSPropertyOp29
 70
     1
102
RTVSPropertyOp30
 70
     1
102
RTVSPropertyOp31
 70
     1
102
RTVSPropertyOp32
 70
     1
102
RTVSPropertyOp33
 70
     1
102
RTVSPropertyOp34
 70
     1
102
RTVSPropertyOp35
 70
     1
102
RTVSPropertyOp36
 70
     1
102
RTVSPropertyOp37
 70
     1
102
RTVSPropertyOp38
 70
     1
102
RTVSPropertyOp39
 70
     1
102
RTVSPropertyOp40
 70
     1
102
RTVSPropertyOp41
 70
     1
102
RTVSPropertyOp42
 70
     1
102
RTVSPropertyOp43
 70
     1
102
RTVSPropertyOp44
 70
     1
102
RTVSPropertyOp45
 70
     1
102
RTVSPropertyOp46
 70
     1
102
RTVSPropertyOp47
 70
     1
102
RTVSPropertyOp48
 70
     1
102
RTVSPropertyOp49
 70
     1
102
RTVSPropertyOp50
 70
     1
102
RTVSPropertyOp51
 70
     0
102
RTVSPropertyOp52
 70
     0
102
RTVSPropertyOp53
 70
     1
102
RTVSPropertyOp54
 70
     1
102
RTVSPropertyOp55
 70
     1
102
RTVSPropertyOp56
 70
     1
102
RTVSPropertyOp57
 70
     1
102
RTVSPropertyOp58
 70
     1
102
RTVSPropertyOp59
 70
     1
102
RTVSPropertyOp60
 70
     1
102
RTVSPropertyOp61
 70
     1
102
RTVSPropertyOp62
 70
     1
  0
XRECORD
  5
31B
102
{ACAD_REACTORS
330
31A
102
}
330
31A
100
AcDbXrecord
280
     1
102
RTVSPost2010Prop28
280
     0
102
RTVSPost2010PropOp28
 70
     1
102
RTVSPost2010Prop29
280
     1
102
RTVSPost2010PropOp29
 70
     1
102
RTVSPost2010Prop30
280
     1
102
RTVSPost2010PropOp30
 70
     1
102
RTVSPost2010Prop31
280
     0
102
RTVSPost2010PropOp31
 70
     1
102
RTVSPost2010Prop32
280
     0
102
RTVSPost2010PropOp32
 70
     1
102
RTVSPost2010Prop33
280
     0
102
RTVSPost2010PropOp33
 70
     1
102
RTVSPost2010Prop34
280
     0
102
RTVSPost2010PropOp34
 70
     1
102
RTVSPost2010Prop35
280
     0
102
RTVSPost2010PropOp35
 70
     1
102
RTVSPost2010Prop36
280
     0
102
RTVSPost2010PropOp36
 70
     1
102
RTVSPost2010Prop37
 90
       50
102
RTVSPost2010PropOp37
 70
     1
102
RTVSPost2010Prop38
140
0.0
102
RTVSPost2010PropOp38
 70
     1
102
RTVSPost2010Prop39
140
1.0
102
RTVSPost2010PropOp39
 70
     1
102
RTVSPost2010Prop40
 90
        0
102
RTVSPost2010PropOp40
 70
     1
102
RTVSPost2010Prop41ColorIndex
 90
       18
102
RTVSPost2010Prop41ColorRGB
 90
        0
102
RTVSPost2010PropOp41
 70
     1
102
RTVSPost2010Prop42
 90
       50
102
RTVSPost2010PropOp42
 70
     1
102
RTVSPost2010Prop43
 90
        3
102
RTVSPost2010PropOp43
 70
     1
102
RTVSPost2010Prop44ColorIndex
 90
        5
102
RTVSPost2010Prop44ColorRGB
 90
      255
102
RTVSPost2010PropOp44
 70
     1
102
RTVSPost2010Prop45
280
     0
102
RTVSPost2010PropOp45
 70
     1
102
RTVSPost2010Prop46
 90
       50
102
RTVSPost2010PropOp46
 70
     1
102
RTVSPost2010Prop47
 90
       50
102
RTVSPost2010PropOp47
 70
     1
102
RTVSPost2010Prop48
 90
       50
102
RTVSPost2010PropOp48
 70
     1
102
RTVSPost2010Prop49
280
     0
102
RTVSPost2010PropOp49
 70
     1
102
RTVSPost2010Prop50
 90
       50
102
RTVSPost2010PropOp50
 70
     1
102
RTVSPost2010Prop51ColorIndex
 90
      256
102
RTVSPost2010Prop51ColorRGB
 90
-16777216
102
RTVSPost2010PropOp51
 70
     0
102
RTVSPost2010Prop52
140
1.0
102
RTVSPost2010PropOp52
 70
     0
102
RTVSPost2010Prop53
 90
        2
102
RTVSPost2010PropOp53
 70
     1
102
RTVSPost2010Prop54
  1
strokes_ogs.tif
102
RTVSPost2010PropOp54
 70
     1
102
RTVSPost2010Prop55
280
     0
102
RTVSPost2010PropOp55
 70
     1
102
RTVSPost2010Prop56
140
1.0
102
RTVSPost2010PropOp56
 70
     1
102
RTVSPost2010Prop57
140
1.0
102
RTVSPost2010PropOp57
 70
     1
102
RTVSPropertyOp0
 70
     1
102
RTVSPropertyOp1
 70
     1
102
RTVSPropertyOp2
 70
     1
102
RTVSPropertyOp3
 70
     1
102
RTVSPropertyOp4
 70
     1
102
RTVSPropertyOp5
 70
     1
102
RTVSPropertyOp6
 70
     1
102
RTVSPropertyOp7
 70
     1
102
RTVSPropertyOp8
 70
     1
102
RTVSPropertyOp9
 70
     1
102
RTVSPropertyOp10
 70
     1
102
RTVSPropertyOp11
 70
     1
102
RTVSPropertyOp12
 70
     1
102
RTVSPropertyOp13
 70
     1
102
RTVSPropertyOp14
 70
     1
102
RTVSPropertyOp15
 70
     1
102
RTVSPropertyOp16
 70
     1
102
RTVSPropertyOp17
 70
     1
102
RTVSPropertyOp18
 70
     1
102
RTVSPropertyOp19
 70
     1
102
RTVSPropertyOp20
 70
     1
102
RTVSPropertyOp21
 70
     1
102
RTVSPropertyOp22
 70
     1
102
RTVSPropertyOp23
 70
     1
102
RTVSPropertyOp24
 70
     1
102
RTVSPropertyOp25
 70
     1
102
RTVSPropertyOp26
 70
     1
102
RTVSPropertyOp27
 70
     1
102
RTVSPropertyOp28
 70
     1
102
RTVSPropertyOp29
 70
     1
102
RTVSPropertyOp30
 70
     1
102
RTVSPropertyOp31
 70
     1
102
RTVSPropertyOp32
 70
     1
102
RTVSPropertyOp33
 70
     1
102
RTVSPropertyOp34
 70
     1
102
RTVSPropertyOp35
 70
     1
102
RTVSPropertyOp36
 70
     1
102
RTVSPropertyOp37
 70
     1
102
RTVSPropertyOp38
 70
     1
102
RTVSPropertyOp39
 70
     1
102
RTVSPropertyOp40
 70
     1
102
RTVSPropertyOp41
 70
     1
102
RTVSPropertyOp42
 70
     1
102
RTVSPropertyOp43
 70
     1
102
RTVSPropertyOp44
 70
     1
102
RTVSPropertyOp45
 70
     1
102
RTVSPropertyOp46
 70
     1
102
RTVSPropertyOp47
 70
     1
102
RTVSPropertyOp48
 70
     1
102
RTVSPropertyOp49
 70
     1
102
RTVSPropertyOp50
 70
     1
102
RTVSPropertyOp51
 70
     0
102
RTVSPropertyOp52
 70
     0
102
RTVSPropertyOp53
 70
     1
102
RTVSPropertyOp54
 70
     1
102
RTVSPropertyOp55
 70
     1
102
RTVSPropertyOp56
 70
     1
102
RTVSPropertyOp57
 70
     1
102
RTVSPropertyOp58
 70
     1
102
RTVSPropertyOp59
 70
     1
102
RTVSPropertyOp60
 70
     1
102
RTVSPropertyOp61
 70
     1
102
RTVSPropertyOp62
 70
     1
  0
XRECORD
  5
31D
102
{ACAD_REACTORS
330
31C
102
}
330
31C
100
AcDbXrecord
280
     1
102
RTVSPost2010Prop28
280
     0
102
RTVSPost2010PropOp28
 70
     1
102
RTVSPost2010Prop29
280
     1
102
RTVSPost2010PropOp29
 70
     1
102
RTVSPost2010Prop30
280
     1
102
RTVSPost2010PropOp30
 70
     1
102
RTVSPost2010Prop31
280
     0
102
RTVSPost2010PropOp31
 70
     1
102
RTVSPost2010Prop32
280
     0
102
RTVSPost2010PropOp32
 70
     1
102
RTVSPost2010Prop33
280
     0
102
RTVSPost2010PropOp33
 70
     1
102
RTVSPost2010Prop34
280
     0
102
RTVSPost2010PropOp34
 70
     1
102
RTVSPost2010Prop35
280
     0
102
RTVSPost2010PropOp35
 70
     1
102
RTVSPost2010Prop36
280
     0
102
RTVSPost2010PropOp36
 70
     1
102
RTVSPost2010Prop37
 90
       50
102
RTVSPost2010PropOp37
 70
     1
102
RTVSPost2010Prop38
140
0.0
102
RTVSPost2010PropOp38
 70
     1
102
RTVSPost2010Prop39
140
1.0
102
RTVSPost2010PropOp39
 70
     1
102
RTVSPost2010Prop40
 90
        0
102
RTVSPost2010PropOp40
 70
     1
102
RTVSPost2010Prop41ColorIndex
 90
       18
102
RTVSPost2010Prop41ColorRGB
 90
        0
102
RTVSPost2010PropOp41
 70
     1
102
RTVSPost2010Prop42
 90
       50
102
RTVSPost2010PropOp42
 70
     1
102
RTVSPost2010Prop43
 90
        3
102
RTVSPost2010PropOp43
 70
     1
102
RTVSPost2010Prop44ColorIndex
 90
        5
102
RTVSPost2010Prop44ColorRGB
 90
      255
102
RTVSPost2010PropOp44
 70
     1
102
RTVSPost2010Prop45
280
     0
102
RTVSPost2010PropOp45
 70
     1
102
RTVSPost2010Prop46
 90
       50
102
RTVSPost2010PropOp46
 70
     1
102
RTVSPost2010Prop47
 90
       50
102
RTVSPost2010PropOp47
 70
     1
102
RTVSPost2010Prop48
 90
       50
102
RTVSPost2010PropOp48
 70
     1
102
RTVSPost2010Prop49
280
     0
102
RTVSPost2010PropOp49
 70
     1
102
RTVSPost2010Prop50
 90
       50
102
RTVSPost2010PropOp50
 70
     1
102
RTVSPost2010Prop51ColorIndex
 90
      256
102
RTVSPost2010Prop51ColorRGB
 90
-16777216
102
RTVSPost2010PropOp51
 70
     0
102
RTVSPost2010Prop52
140
1.0
102
RTVSPost2010PropOp52
 70
     0
102
RTVSPost2010Prop53
 90
        2
102
RTVSPost2010PropOp53
 70
     1
102
RTVSPost2010Prop54
  1
strokes_ogs.tif
102
RTVSPost2010PropOp54
 70
     1
102
RTVSPost2010Prop55
280
     0
102
RTVSPost2010PropOp55
 70
     1
102
RTVSPost2010Prop56
140
1.0
102
RTVSPost2010PropOp56
 70
     1
102
RTVSPost2010Prop57
140
1.0
102
RTVSPost2010PropOp57
 70
     1
102
RTVSPropertyOp0
 70
     1
102
RTVSPropertyOp1
 70
     1
102
RTVSPropertyOp2
 70
     1
102
RTVSPropertyOp3
 70
     1
102
RTVSPropertyOp4
 70
     1
102
RTVSPropertyOp5
 70
     1
102
RTVSPropertyOp6
 70
     1
102
RTVSPropertyOp7
 70
     1
102
RTVSPropertyOp8
 70
     1
102
RTVSPropertyOp9
 70
     1
102
RTVSPropertyOp10
 70
     1
102
RTVSPropertyOp11
 70
     1
102
RTVSPropertyOp12
 70
     1
102
RTVSPropertyOp13
 70
     1
102
RTVSPropertyOp14
 70
     1
102
RTVSPropertyOp15
 70
     1
102
RTVSPropertyOp16
 70
     1
102
RTVSPropertyOp17
 70
     1
102
RTVSPropertyOp18
 70
     1
102
RTVSPropertyOp19
 70
     1
102
RTVSPropertyOp20
 70
     1
102
RTVSPropertyOp21
 70
     1
102
RTVSPropertyOp22
 70
     1
102
RTVSPropertyOp23
 70
     1
102
RTVSPropertyOp24
 70
     1
102
RTVSPropertyOp25
 70
     1
102
RTVSPropertyOp26
 70
     1
102
RTVSPropertyOp27
 70
     1
102
RTVSPropertyOp28
 70
     1
102
RTVSPropertyOp29
 70
     1
102
RTVSPropertyOp30
 70
     1
102
RTVSPropertyOp31
 70
     1
102
RTVSPropertyOp32
 70
     1
102
RTVSPropertyOp33
 70
     1
102
RTVSPropertyOp34
 70
     1
102
RTVSPropertyOp35
 70
     1
102
RTVSPropertyOp36
 70
     1
102
RTVSPropertyOp37
 70
     1
102
RTVSPropertyOp38
 70
     1
102
RTVSPropertyOp39
 70
     1
102
RTVSPropertyOp40
 70
     1
102
RTVSPropertyOp41
 70
     1
102
RTVSPropertyOp42
 70
     1
102
RTVSPropertyOp43
 70
     1
102
RTVSPropertyOp44
 70
     1
102
RTVSPropertyOp45
 70
     1
102
RTVSPropertyOp46
 70
     1
102
RTVSPropertyOp47
 70
     1
102
RTVSPropertyOp48
 70
     1
102
RTVSPropertyOp49
 70
     1
102
RTVSPropertyOp50
 70
     1
102
RTVSPropertyOp51
 70
     0
102
RTVSPropertyOp52
 70
     0
102
RTVSPropertyOp53
 70
     1
102
RTVSPropertyOp54
 70
     1
102
RTVSPropertyOp55
 70
     1
102
RTVSPropertyOp56
 70
     1
102
RTVSPropertyOp57
 70
     1
102
RTVSPropertyOp58
 70
     1
102
RTVSPropertyOp59
 70
     1
102
RTVSPropertyOp60
 70
     1
102
RTVSPropertyOp61
 70
     1
102
RTVSPropertyOp62
 70
     1
  0
XRECORD
  5
325
102
{ACAD_REACTORS
330
324
102
}
330
324
100
AcDbXrecord
280
     1
102
RTVSPost2010Prop28
280
     0
102
RTVSPost2010PropOp28
 70
     1
102
RTVSPost2010Prop29
280
     1
102
RTVSPost2010PropOp29
 70
     1
102
RTVSPost2010Prop30
280
     1
102
RTVSPost2010PropOp30
 70
     1
102
RTVSPost2010Prop31
280
     0
102
RTVSPost2010PropOp31
 70
     1
102
RTVSPost2010Prop32
280
     0
102
RTVSPost2010PropOp32
 70
     1
102
RTVSPost2010Prop33
280
     0
102
RTVSPost2010PropOp33
 70
     1
102
RTVSPost2010Prop34
280
     0
102
RTVSPost2010PropOp34
 70
     1
102
RTVSPost2010Prop35
280
     0
102
RTVSPost2010PropOp35
 70
     1
102
RTVSPost2010Prop36
280
     0
102
RTVSPost2010PropOp36
 70
     1
102
RTVSPost2010Prop37
 90
       50
102
RTVSPost2010PropOp37
 70
     1
102
RTVSPost2010Prop38
140
0.0
102
RTVSPost2010PropOp38
 70
     1
102
RTVSPost2010Prop39
140
1.0
102
RTVSPost2010PropOp39
 70
     1
102
RTVSPost2010Prop40
 90
        0
102
RTVSPost2010PropOp40
 70
     1
102
RTVSPost2010Prop41ColorIndex
 90
       18
102
RTVSPost2010Prop41ColorRGB
 90
        0
102
RTVSPost2010PropOp41
 70
     1
102
RTVSPost2010Prop42
 90
       50
102
RTVSPost2010PropOp42
 70
     1
102
RTVSPost2010Prop43
 90
        3
102
RTVSPost2010PropOp43
 70
     1
102
RTVSPost2010Prop44ColorIndex
 90
        5
102
RTVSPost2010Prop44ColorRGB
 90
      255
102
RTVSPost2010PropOp44
 70
     1
102
RTVSPost2010Prop45
280
     0
102
RTVSPost2010PropOp45
 70
     1
102
RTVSPost2010Prop46
 90
       50
102
RTVSPost2010PropOp46
 70
     1
102
RTVSPost2010Prop47
 90
       50
102
RTVSPost2010PropOp47
 70
     1
102
RTVSPost2010Prop48
 90
       50
102
RTVSPost2010PropOp48
 70
     1
102
RTVSPost2010Prop49
280
     0
102
RTVSPost2010PropOp49
 70
     1
102
RTVSPost2010Prop50
 90
       50
102
RTVSPost2010PropOp50
 70
     1
102
RTVSPost2010Prop51ColorIndex
 90
      256
102
RTVSPost2010Prop51ColorRGB
 90
-16777216
102
RTVSPost2010PropOp51
 70
     0
102
RTVSPost2010Prop52
140
1.0
102
RTVSPost2010PropOp52
 70
     0
102
RTVSPost2010Prop53
 90
        2
102
RTVSPost2010PropOp53
 70
     1
102
RTVSPost2010Prop54
  1
strokes_ogs.tif
102
RTVSPost2010PropOp54
 70
     1
102
RTVSPost2010Prop55
280
     0
102
RTVSPost2010PropOp55
 70
     1
102
RTVSPost2010Prop56
140
1.0
102
RTVSPost2010PropOp56
 70
     1
102
RTVSPost2010Prop57
140
1.0
102
RTVSPost2010PropOp57
 70
     1
102
RTVSPropertyOp0
 70
     1
102
RTVSPropertyOp1
 70
     1
102
RTVSPropertyOp2
 70
     1
102
RTVSPropertyOp3
 70
     1
102
RTVSPropertyOp4
 70
     1
102
RTVSPropertyOp5
 70
     1
102
RTVSPropertyOp6
 70
     1
102
RTVSPropertyOp7
 70
     1
102
RTVSPropertyOp8
 70
     1
102
RTVSPropertyOp9
 70
     1
102
RTVSPropertyOp10
 70
     1
102
RTVSPropertyOp11
 70
     1
102
RTVSPropertyOp12
 70
     1
102
RTVSPropertyOp13
 70
     1
102
RTVSPropertyOp14
 70
     1
102
RTVSPropertyOp15
 70
     1
102
RTVSPropertyOp16
 70
     1
102
RTVSPropertyOp17
 70
     1
102
RTVSPropertyOp18
 70
     1
102
RTVSPropertyOp19
 70
     1
102
RTVSPropertyOp20
 70
     1
102
RTVSPropertyOp21
 70
     1
102
RTVSPropertyOp22
 70
     1
102
RTVSPropertyOp23
 70
     1
102
RTVSPropertyOp24
 70
     1
102
RTVSPropertyOp25
 70
     1
102
RTVSPropertyOp26
 70
     1
102
RTVSPropertyOp27
 70
     1
102
RTVSPropertyOp28
 70
     1
102
RTVSPropertyOp29
 70
     1
102
RTVSPropertyOp30
 70
     1
102
RTVSPropertyOp31
 70
     1
102
RTVSPropertyOp32
 70
     1
102
RTVSPropertyOp33
 70
     1
102
RTVSPropertyOp34
 70
     1
102
RTVSPropertyOp35
 70
     1
102
RTVSPropertyOp36
 70
     1
102
RTVSPropertyOp37
 70
     1
102
RTVSPropertyOp38
 70
     1
102
RTVSPropertyOp39
 70
     1
102
RTVSPropertyOp40
 70
     1
102
RTVSPropertyOp41
 70
     1
102
RTVSPropertyOp42
 70
     1
102
RTVSPropertyOp43
 70
     1
102
RTVSPropertyOp44
 70
     1
102
RTVSPropertyOp45
 70
     1
102
RTVSPropertyOp46
 70
     1
102
RTVSPropertyOp47
 70
     1
102
RTVSPropertyOp48
 70
     1
102
RTVSPropertyOp49
 70
     1
102
RTVSPropertyOp50
 70
     1
102
RTVSPropertyOp51
 70
     0
102
RTVSPropertyOp52
 70
     0
102
RTVSPropertyOp53
 70
     1
102
RTVSPropertyOp54
 70
     1
102
RTVSPropertyOp55
 70
     1
102
RTVSPropertyOp56
 70
     1
102
RTVSPropertyOp57
 70
     1
102
RTVSPropertyOp58
 70
     1
102
RTVSPropertyOp59
 70
     1
102
RTVSPropertyOp60
 70
     1
102
RTVSPropertyOp61
 70
     1
102
RTVSPropertyOp62
 70
     1
  0
XRECORD
  5
341
102
{ACAD_REACTORS
330
340
102
}
330
340
100
AcDbXrecord
280
     1
102
RTVSPost2010Prop28
280
     0
102
RTVSPost2010PropOp28
 70
     0
102
RTVSPost2010Prop29
280
     1
102
RTVSPost2010PropOp29
 70
     0
102
RTVSPost2010Prop30
280
     1
102
RTVSPost2010PropOp30
 70
     0
102
RTVSPost2010Prop31
280
     0
102
RTVSPost2010PropOp31
 70
     0
102
RTVSPost2010Prop32
280
     0
102
RTVSPost2010PropOp32
 70
     0
102
RTVSPost2010Prop33
280
     0
102
RTVSPost2010PropOp33
 70
     0
102
RTVSPost2010Prop34
280
     0
102
RTVSPost2010PropOp34
 70
     0
102
RTVSPost2010Prop35
280
     0
102
RTVSPost2010PropOp35
 70
     0
102
RTVSPost2010Prop36
280
     0
102
RTVSPost2010PropOp36
 70
     0
102
RTVSPost2010Prop37
 90
       50
102
RTVSPost2010PropOp37
 70
     0
102
RTVSPost2010Prop38
140
0.0
102
RTVSPost2010PropOp38
 70
     0
102
RTVSPost2010Prop39
140
1.0
102
RTVSPost2010PropOp39
 70
     0
102
RTVSPost2010Prop40
 90
        0
102
RTVSPost2010PropOp40
 70
     0
102
RTVSPost2010Prop41ColorIndex
 90
       18
102
RTVSPost2010Prop41ColorRGB
 90
        0
102
RTVSPost2010PropOp41
 70
     0
102
RTVSPost2010Prop42
 90
       50
102
RTVSPost2010PropOp42
 70
     0
102
RTVSPost2010Prop43
 90
        3
102
RTVSPost2010PropOp43
 70
     0
102
RTVSPost2010Prop44ColorIndex
 90
        5
102
RTVSPost2010Prop44ColorRGB
 90
      255
102
RTVSPost2010PropOp44
 70
     0
102
RTVSPost2010Prop45
280
     0
102
RTVSPost2010PropOp45
 70
     0
102
RTVSPost2010Prop46
 90
       50
102
RTVSPost2010PropOp46
 70
     0
102
RTVSPost2010Prop47
 90
       50
102
RTVSPost2010PropOp47
 70
     0
102
RTVSPost2010Prop48
 90
       50
102
RTVSPost2010PropOp48
 70
     0
102
RTVSPost2010Prop49
280
     0
102
RTVSPost2010PropOp49
 70
     0
102
RTVSPost2010Prop50
 90
       50
102
RTVSPost2010PropOp50
 70
     0
102
RTVSPost2010Prop51ColorIndex
 90
      256
102
RTVSPost2010Prop51ColorRGB
 90
-16777216
102
RTVSPost2010PropOp51
 70
     0
102
RTVSPost2010Prop52
140
1.0
102
RTVSPost2010PropOp52
 70
     0
102
RTVSPost2010Prop53
 90
        2
102
RTVSPost2010PropOp53
 70
     0
102
RTVSPost2010Prop54
  1
strokes_ogs.tif
102
RTVSPost2010PropOp54
 70
     0
102
RTVSPost2010Prop55
280
     0
102
RTVSPost2010PropOp55
 70
     0
102
RTVSPost2010Prop56
140
1.0
102
RTVSPost2010PropOp56
 70
     0
102
RTVSPost2010Prop57
140
1.0
102
RTVSPost2010PropOp57
 70
     0
102
RTVSPropertyOp0
 70
     0
102
RTVSPropertyOp1
 70
     0
102
RTVSPropertyOp2
 70
     0
102
RTVSPropertyOp3
 70
     0
102
RTVSPropertyOp4
 70
     0
102
RTVSPropertyOp5
 70
     0
102
RTVSPropertyOp6
 70
     0
102
RTVSPropertyOp7
 70
     0
102
RTVSPropertyOp8
 70
     0
102
RTVSPropertyOp9
 70
     0
102
RTVSPropertyOp10
 70
     0
102
RTVSPropertyOp11
 70
     0
102
RTVSPropertyOp12
 70
     0
102
RTVSPropertyOp13
 70
     0
102
RTVSPropertyOp14
 70
     2
102
RTVSPropertyOp15
 70
     0
102
RTVSPropertyOp16
 70
     0
102
RTVSPropertyOp17
 70
     0
102
RTVSPropertyOp18
 70
     0
102
RTVSPropertyOp19
 70
     0
102
RTVSPropertyOp20
 70
     0
102
RTVSPropertyOp21
 70
     0
102
RTVSPropertyOp22
 70
     0
102
RTVSPropertyOp23
 70
     0
102
RTVSPropertyOp24
 70
     0
102
RTVSPropertyOp25
 70
     0
102
RTVSPropertyOp26
 70
     0
102
RTVSPropertyOp27
 70
     0
102
RTVSPropertyOp28
 70
     0
102
RTVSPropertyOp29
 70
     0
102
RTVSPropertyOp30
 70
     0
102
RTVSPropertyOp31
 70
     0
102
RTVSPropertyOp32
 70
     0
102
RTVSPropertyOp33
 70
     0
102
RTVSPropertyOp34
 70
     0
102
RTVSPropertyOp35
 70
     0
102
RTVSPropertyOp36
 70
     0
102
RTVSPropertyOp37
 70
     0
102
RTVSPropertyOp38
 70
     0
102
RTVSPropertyOp39
 70
     0
102
RTVSPropertyOp40
 70
     0
102
RTVSPropertyOp41
 70
     0
102
RTVSPropertyOp42
 70
     0
102
RTVSPropertyOp43
 70
     0
102
RTVSPropertyOp44
 70
     0
102
RTVSPropertyOp45
 70
     0
102
RTVSPropertyOp46
 70
     0
102
RTVSPropertyOp47
 70
     0
102
RTVSPropertyOp48
 70
     0
102
RTVSPropertyOp49
 70
     0
102
RTVSPropertyOp50
 70
     0
102
RTVSPropertyOp51
 70
     0
102
RTVSPropertyOp52
 70
     0
102
RTVSPropertyOp53
 70
     0
102
RTVSPropertyOp54
 70
     0
102
RTVSPropertyOp55
 70
     0
102
RTVSPropertyOp56
 70
     0
102
RTVSPropertyOp57
 70
     0
102
RTVSPropertyOp58
 70
     0
102
RTVSPropertyOp59
 70
     0
102
RTVSPropertyOp60
 70
     0
102
RTVSPropertyOp61
 70
     0
102
RTVSPropertyOp62
 70
     0
  0
XRECORD
  5
331
102
{ACAD_REACTORS
330
330
102
}
330
330
100
AcDbXrecord
280
     1
102
RTVSPost2010Prop28
280
     0
102
RTVSPost2010PropOp28
 70
     1
102
RTVSPost2010Prop29
280
     1
102
RTVSPost2010PropOp29
 70
     1
102
RTVSPost2010Prop30
280
     1
102
RTVSPost2010PropOp30
 70
     1
102
RTVSPost2010Prop31
280
     0
102
RTVSPost2010PropOp31
 70
     1
102
RTVSPost2010Prop32
280
     0
102
RTVSPost2010PropOp32
 70
     1
102
RTVSPost2010Prop33
280
     0
102
RTVSPost2010PropOp33
 70
     1
102
RTVSPost2010Prop34
280
     0
102
RTVSPost2010PropOp34
 70
     1
102
RTVSPost2010Prop35
280
     0
102
RTVSPost2010PropOp35
 70
     1
102
RTVSPost2010Prop36
280
     0
102
RTVSPost2010PropOp36
 70
     1
102
RTVSPost2010Prop37
 90
       50
102
RTVSPost2010PropOp37
 70
     1
102
RTVSPost2010Prop38
140
0.0
102
RTVSPost2010PropOp38
 70
     1
102
RTVSPost2010Prop39
140
1.0
102
RTVSPost2010PropOp39
 70
     1
102
RTVSPost2010Prop40
 90
        0
102
RTVSPost2010PropOp40
 70
     1
102
RTVSPost2010Prop41ColorIndex
 90
       18
102
RTVSPost2010Prop41ColorRGB
 90
        0
102
RTVSPost2010PropOp41
 70
     1
102
RTVSPost2010Prop42
 90
       50
102
RTVSPost2010PropOp42
 70
     1
102
RTVSPost2010Prop43
 90
        3
102
RTVSPost2010PropOp43
 70
     1
102
RTVSPost2010Prop44ColorIndex
 90
        5
102
RTVSPost2010Prop44ColorRGB
 90
      255
102
RTVSPost2010PropOp44
 70
     1
102
RTVSPost2010Prop45
280
     0
102
RTVSPost2010PropOp45
 70
     1
102
RTVSPost2010Prop46
 90
       50
102
RTVSPost2010PropOp46
 70
     1
102
RTVSPost2010Prop47
 90
       50
102
RTVSPost2010PropOp47
 70
     1
102
RTVSPost2010Prop48
 90
       50
102
RTVSPost2010PropOp48
 70
     1
102
RTVSPost2010Prop49
280
     0
102
RTVSPost2010PropOp49
 70
     1
102
RTVSPost2010Prop50
 90
       50
102
RTVSPost2010PropOp50
 70
     1
102
RTVSPost2010Prop51ColorIndex
 90
      256
102
RTVSPost2010Prop51ColorRGB
 90
-16777216
102
RTVSPost2010PropOp51
 70
     0
102
RTVSPost2010Prop52
140
1.0
102
RTVSPost2010PropOp52
 70
     0
102
RTVSPost2010Prop53
 90
        2
102
RTVSPost2010PropOp53
 70
     1
102
RTVSPost2010Prop54
  1
strokes_ogs.tif
102
RTVSPost2010PropOp54
 70
     1
102
RTVSPost2010Prop55
280
     0
102
RTVSPost2010PropOp55
 70
     1
102
RTVSPost2010Prop56
140
1.0
102
RTVSPost2010PropOp56
 70
     1
102
RTVSPost2010Prop57
140
1.0
102
RTVSPost2010PropOp57
 70
     1
102
RTVSPropertyOp0
 70
     1
102
RTVSPropertyOp1
 70
     1
102
RTVSPropertyOp2
 70
     1
102
RTVSPropertyOp3
 70
     1
102
RTVSPropertyOp4
 70
     1
102
RTVSPropertyOp5
 70
     1
102
RTVSPropertyOp6
 70
     1
102
RTVSPropertyOp7
 70
     1
102
RTVSPropertyOp8
 70
     1
102
RTVSPropertyOp9
 70
     1
102
RTVSPropertyOp10
 70
     1
102
RTVSPropertyOp11
 70
     1
102
RTVSPropertyOp12
 70
     1
102
RTVSPropertyOp13
 70
     1
102
RTVSPropertyOp14
 70
     1
102
RTVSPropertyOp15
 70
     1
102
RTVSPropertyOp16
 70
     1
102
RTVSPropertyOp17
 70
     1
102
RTVSPropertyOp18
 70
     1
102
RTVSPropertyOp19
 70
     1
102
RTVSPropertyOp20
 70
     1
102
RTVSPropertyOp21
 70
     1
102
RTVSPropertyOp22
 70
     1
102
RTVSPropertyOp23
 70
     1
102
RTVSPropertyOp24
 70
     1
102
RTVSPropertyOp25
 70
     1
102
RTVSPropertyOp26
 70
     1
102
RTVSPropertyOp27
 70
     1
102
RTVSPropertyOp28
 70
     1
102
RTVSPropertyOp29
 70
     1
102
RTVSPropertyOp30
 70
     1
102
RTVSPropertyOp31
 70
     1
102
RTVSPropertyOp32
 70
     1
102
RTVSPropertyOp33
 70
     1
102
RTVSPropertyOp34
 70
     1
102
RTVSPropertyOp35
 70
     1
102
RTVSPropertyOp36
 70
     1
102
RTVSPropertyOp37
 70
     1
102
RTVSPropertyOp38
 70
     1
102
RTVSPropertyOp39
 70
     1
102
RTVSPropertyOp40
 70
     1
102
RTVSPropertyOp41
 70
     1
102
RTVSPropertyOp42
 70
     1
102
RTVSPropertyOp43
 70
     1
102
RTVSPropertyOp44
 70
     1
102
RTVSPropertyOp45
 70
     1
102
RTVSPropertyOp46
 70
     1
102
RTVSPropertyOp47
 70
     1
102
RTVSPropertyOp48
 70
     1
102
RTVSPropertyOp49
 70
     1
102
RTVSPropertyOp50
 70
     1
102
RTVSPropertyOp51
 70
     0
102
RTVSPropertyOp52
 70
     0
102
RTVSPropertyOp53
 70
     1
102
RTVSPropertyOp54
 70
     1
102
RTVSPropertyOp55
 70
     1
102
RTVSPropertyOp56
 70
     1
102
RTVSPropertyOp57
 70
     1
102
RTVSPropertyOp58
 70
     1
102
RTVSPropertyOp59
 70
     1
102
RTVSPropertyOp60
 70
     1
102
RTVSPropertyOp61
 70
     1
102
RTVSPropertyOp62
 70
     1
  0
XRECORD
  5
343
102
{ACAD_REACTORS
330
342
102
}
330
342
100
AcDbXrecord
280
     1
102
RTVSPost2010Prop28
280
     0
102
RTVSPost2010PropOp28
 70
     0
102
RTVSPost2010Prop29
280
     1
102
RTVSPost2010PropOp29
 70
     0
102
RTVSPost2010Prop30
280
     1
102
RTVSPost2010PropOp30
 70
     0
102
RTVSPost2010Prop31
280
     0
102
RTVSPost2010PropOp31
 70
     0
102
RTVSPost2010Prop32
280
     0
102
RTVSPost2010PropOp32
 70
     0
102
RTVSPost2010Prop33
280
     0
102
RTVSPost2010PropOp33
 70
     0
102
RTVSPost2010Prop34
280
     0
102
RTVSPost2010PropOp34
 70
     0
102
RTVSPost2010Prop35
280
     0
102
RTVSPost2010PropOp35
 70
     0
102
RTVSPost2010Prop36
280
     0
102
RTVSPost2010PropOp36
 70
     0
102
RTVSPost2010Prop37
 90
       50
102
RTVSPost2010PropOp37
 70
     0
102
RTVSPost2010Prop38
140
0.0
102
RTVSPost2010PropOp38
 70
     0
102
RTVSPost2010Prop39
140
1.0
102
RTVSPost2010PropOp39
 70
     0
102
RTVSPost2010Prop40
 90
        0
102
RTVSPost2010PropOp40
 70
     0
102
RTVSPost2010Prop41ColorIndex
 90
       18
102
RTVSPost2010Prop41ColorRGB
 90
        0
102
RTVSPost2010PropOp41
 70
     0
102
RTVSPost2010Prop42
 90
       50
102
RTVSPost2010PropOp42
 70
     0
102
RTVSPost2010Prop43
 90
        3
102
RTVSPost2010PropOp43
 70
     0
102
RTVSPost2010Prop44ColorIndex
 90
        5
102
RTVSPost2010Prop44ColorRGB
 90
      255
102
RTVSPost2010PropOp44
 70
     0
102
RTVSPost2010Prop45
280
     0
102
RTVSPost2010PropOp45
 70
     0
102
RTVSPost2010Prop46
 90
       50
102
RTVSPost2010PropOp46
 70
     0
102
RTVSPost2010Prop47
 90
       50
102
RTVSPost2010PropOp47
 70
     0
102
RTVSPost2010Prop48
 90
       50
102
RTVSPost2010PropOp48
 70
     0
102
RTVSPost2010Prop49
280
     0
102
RTVSPost2010PropOp49
 70
     0
102
RTVSPost2010Prop50
 90
       50
102
RTVSPost2010PropOp50
 70
     0
102
RTVSPost2010Prop51ColorIndex
 90
      256
102
RTVSPost2010Prop51ColorRGB
 90
-16777216
102
RTVSPost2010PropOp51
 70
     0
102
RTVSPost2010Prop52
140
1.0
102
RTVSPost2010PropOp52
 70
     0
102
RTVSPost2010Prop53
 90
        2
102
RTVSPost2010PropOp53
 70
     0
102
RTVSPost2010Prop54
  1
strokes_ogs.tif
102
RTVSPost2010PropOp54
 70
     0
102
RTVSPost2010Prop55
280
     0
102
RTVSPost2010PropOp55
 70
     0
102
RTVSPost2010Prop56
140
1.0
102
RTVSPost2010PropOp56
 70
     0
102
RTVSPost2010Prop57
140
1.0
102
RTVSPost2010PropOp57
 70
     0
102
RTVSPropertyOp0
 70
     0
102
RTVSPropertyOp1
 70
     0
102
RTVSPropertyOp2
 70
     0
102
RTVSPropertyOp3
 70
     0
102
RTVSPropertyOp4
 70
     0
102
RTVSPropertyOp5
 70
     0
102
RTVSPropertyOp6
 70
     0
102
RTVSPropertyOp7
 70
     0
102
RTVSPropertyOp8
 70
     0
102
RTVSPropertyOp9
 70
     0
102
RTVSPropertyOp10
 70
     0
102
RTVSPropertyOp11
 70
     0
102
RTVSPropertyOp12
 70
     0
102
RTVSPropertyOp13
 70
     0
102
RTVSPropertyOp14
 70
     2
102
RTVSPropertyOp15
 70
     0
102
RTVSPropertyOp16
 70
     0
102
RTVSPropertyOp17
 70
     0
102
RTVSPropertyOp18
 70
     0
102
RTVSPropertyOp19
 70
     0
102
RTVSPropertyOp20
 70
     0
102
RTVSPropertyOp21
 70
     0
102
RTVSPropertyOp22
 70
     0
102
RTVSPropertyOp23
 70
     0
102
RTVSPropertyOp24
 70
     0
102
RTVSPropertyOp25
 70
     0
102
RTVSPropertyOp26
 70
     0
102
RTVSPropertyOp27
 70
     0
102
RTVSPropertyOp28
 70
     0
102
RTVSPropertyOp29
 70
     0
102
RTVSPropertyOp30
 70
     0
102
RTVSPropertyOp31
 70
     0
102
RTVSPropertyOp32
 70
     0
102
RTVSPropertyOp33
 70
     0
102
RTVSPropertyOp34
 70
     0
102
RTVSPropertyOp35
 70
     0
102
RTVSPropertyOp36
 70
     0
102
RTVSPropertyOp37
 70
     0
102
RTVSPropertyOp38
 70
     0
102
RTVSPropertyOp39
 70
     0
102
RTVSPropertyOp40
 70
     0
102
RTVSPropertyOp41
 70
     0
102
RTVSPropertyOp42
 70
     0
102
RTVSPropertyOp43
 70
     0
102
RTVSPropertyOp44
 70
     0
102
RTVSPropertyOp45
 70
     0
102
RTVSPropertyOp46
 70
     0
102
RTVSPropertyOp47
 70
     0
102
RTVSPropertyOp48
 70
     0
102
RTVSPropertyOp49
 70
     0
102
RTVSPropertyOp50
 70
     0
102
RTVSPropertyOp51
 70
     0
102
RTVSPropertyOp52
 70
     0
102
RTVSPropertyOp53
 70
     0
102
RTVSPropertyOp54
 70
     0
102
RTVSPropertyOp55
 70
     0
102
RTVSPropertyOp56
 70
     0
102
RTVSPropertyOp57
 70
     0
102
RTVSPropertyOp58
 70
     0
102
RTVSPropertyOp59
 70
     0
102
RTVSPropertyOp60
 70
     0
102
RTVSPropertyOp61
 70
     0
102
RTVSPropertyOp62
 70
     0
  0
XRECORD
  5
329
102
{ACAD_REACTORS
330
328
102
}
330
328
100
AcDbXrecord
280
     1
102
RTVSPost2010Prop28
280
     0
102
RTVSPost2010PropOp28
 70
     1
102
RTVSPost2010Prop29
280
     1
102
RTVSPost2010PropOp29
 70
     1
102
RTVSPost2010Prop30
280
     1
102
RTVSPost2010PropOp30
 70
     1
102
RTVSPost2010Prop31
280
     0
102
RTVSPost2010PropOp31
 70
     1
102
RTVSPost2010Prop32
280
     0
102
RTVSPost2010PropOp32
 70
     1
102
RTVSPost2010Prop33
280
     0
102
RTVSPost2010PropOp33
 70
     1
102
RTVSPost2010Prop34
280
     0
102
RTVSPost2010PropOp34
 70
     1
102
RTVSPost2010Prop35
280
     0
102
RTVSPost2010PropOp35
 70
     1
102
RTVSPost2010Prop36
280
     0
102
RTVSPost2010PropOp36
 70
     1
102
RTVSPost2010Prop37
 90
       50
102
RTVSPost2010PropOp37
 70
     1
102
RTVSPost2010Prop38
140
0.0
102
RTVSPost2010PropOp38
 70
     1
102
RTVSPost2010Prop39
140
1.0
102
RTVSPost2010PropOp39
 70
     1
102
RTVSPost2010Prop40
 90
        0
102
RTVSPost2010PropOp40
 70
     1
102
RTVSPost2010Prop41ColorIndex
 90
       18
102
RTVSPost2010Prop41ColorRGB
 90
        0
102
RTVSPost2010PropOp41
 70
     1
102
RTVSPost2010Prop42
 90
       50
102
RTVSPost2010PropOp42
 70
     1
102
RTVSPost2010Prop43
 90
        3
102
RTVSPost2010PropOp43
 70
     1
102
RTVSPost2010Prop44ColorIndex
 90
        5
102
RTVSPost2010Prop44ColorRGB
 90
      255
102
RTVSPost2010PropOp44
 70
     1
102
RTVSPost2010Prop45
280
     0
102
RTVSPost2010PropOp45
 70
     1
102
RTVSPost2010Prop46
 90
       50
102
RTVSPost2010PropOp46
 70
     1
102
RTVSPost2010Prop47
 90
       50
102
RTVSPost2010PropOp47
 70
     1
102
RTVSPost2010Prop48
 90
       50
102
RTVSPost2010PropOp48
 70
     1
102
RTVSPost2010Prop49
280
     0
102
RTVSPost2010PropOp49
 70
     1
102
RTVSPost2010Prop50
 90
       50
102
RTVSPost2010PropOp50
 70
     1
102
RTVSPost2010Prop51ColorIndex
 90
      256
102
RTVSPost2010Prop51ColorRGB
 90
-16777216
102
RTVSPost2010PropOp51
 70
     0
102
RTVSPost2010Prop52
140
1.0
102
RTVSPost2010PropOp52
 70
     0
102
RTVSPost2010Prop53
 90
        2
102
RTVSPost2010PropOp53
 70
     1
102
RTVSPost2010Prop54
  1
strokes_ogs.tif
102
RTVSPost2010PropOp54
 70
     1
102
RTVSPost2010Prop55
280
     0
102
RTVSPost2010PropOp55
 70
     1
102
RTVSPost2010Prop56
140
1.0
102
RTVSPost2010PropOp56
 70
     1
102
RTVSPost2010Prop57
140
1.0
102
RTVSPost2010PropOp57
 70
     1
102
RTVSPropertyOp0
 70
     1
102
RTVSPropertyOp1
 70
     1
102
RTVSPropertyOp2
 70
     1
102
RTVSPropertyOp3
 70
     1
102
RTVSPropertyOp4
 70
     1
102
RTVSPropertyOp5
 70
     1
102
RTVSPropertyOp6
 70
     1
102
RTVSPropertyOp7
 70
     1
102
RTVSPropertyOp8
 70
     1
102
RTVSPropertyOp9
 70
     1
102
RTVSPropertyOp10
 70
     1
102
RTVSPropertyOp11
 70
     1
102
RTVSPropertyOp12
 70
     1
102
RTVSPropertyOp13
 70
     1
102
RTVSPropertyOp14
 70
     1
102
RTVSPropertyOp15
 70
     1
102
RTVSPropertyOp16
 70
     1
102
RTVSPropertyOp17
 70
     1
102
RTVSPropertyOp18
 70
     1
102
RTVSPropertyOp19
 70
     1
102
RTVSPropertyOp20
 70
     1
102
RTVSPropertyOp21
 70
     1
102
RTVSPropertyOp22
 70
     1
102
RTVSPropertyOp23
 70
     1
102
RTVSPropertyOp24
 70
     1
102
RTVSPropertyOp25
 70
     1
102
RTVSPropertyOp26
 70
     1
102
RTVSPropertyOp27
 70
     1
102
RTVSPropertyOp28
 70
     1
102
RTVSPropertyOp29
 70
     1
102
RTVSPropertyOp30
 70
     1
102
RTVSPropertyOp31
 70
     1
102
RTVSPropertyOp32
 70
     1
102
RTVSPropertyOp33
 70
     1
102
RTVSPropertyOp34
 70
     1
102
RTVSPropertyOp35
 70
     1
102
RTVSPropertyOp36
 70
     1
102
RTVSPropertyOp37
 70
     1
102
RTVSPropertyOp38
 70
     1
102
RTVSPropertyOp39
 70
     1
102
RTVSPropertyOp40
 70
     1
102
RTVSPropertyOp41
 70
     1
102
RTVSPropertyOp42
 70
     1
102
RTVSPropertyOp43
 70
     1
102
RTVSPropertyOp44
 70
     1
102
RTVSPropertyOp45
 70
     1
102
RTVSPropertyOp46
 70
     1
102
RTVSPropertyOp47
 70
     1
102
RTVSPropertyOp48
 70
     1
102
RTVSPropertyOp49
 70
     1
102
RTVSPropertyOp50
 70
     1
102
RTVSPropertyOp51
 70
     0
102
RTVSPropertyOp52
 70
     0
102
RTVSPropertyOp53
 70
     1
102
RTVSPropertyOp54
 70
     1
102
RTVSPropertyOp55
 70
     1
102
RTVSPropertyOp56
 70
     1
102
RTVSPropertyOp57
 70
     1
102
RTVSPropertyOp58
 70
     1
102
RTVSPropertyOp59
 70
     1
102
RTVSPropertyOp60
 70
     1
102
RTVSPropertyOp61
 70
     1
102
RTVSPropertyOp62
 70
     1
  0
XRECORD
  5
33F
102
{ACAD_REACTORS
330
33E
102
}
330
33E
100
AcDbXrecord
280
     1
102
RTVSPost2010Prop28
280
     0
102
RTVSPost2010PropOp28
 70
     1
102
RTVSPost2010Prop29
280
     1
102
RTVSPost2010PropOp29
 70
     1
102
RTVSPost2010Prop30
280
     1
102
RTVSPost2010PropOp30
 70
     1
102
RTVSPost2010Prop31
280
     0
102
RTVSPost2010PropOp31
 70
     1
102
RTVSPost2010Prop32
280
     0
102
RTVSPost2010PropOp32
 70
     1
102
RTVSPost2010Prop33
280
     0
102
RTVSPost2010PropOp33
 70
     1
102
RTVSPost2010Prop34
280
     0
102
RTVSPost2010PropOp34
 70
     1
102
RTVSPost2010Prop35
280
     0
102
RTVSPost2010PropOp35
 70
     1
102
RTVSPost2010Prop36
280
     0
102
RTVSPost2010PropOp36
 70
     1
102
RTVSPost2010Prop37
 90
       50
102
RTVSPost2010PropOp37
 70
     1
102
RTVSPost2010Prop38
140
0.0
102
RTVSPost2010PropOp38
 70
     1
102
RTVSPost2010Prop39
140
1.0
102
RTVSPost2010PropOp39
 70
     1
102
RTVSPost2010Prop40
 90
        0
102
RTVSPost2010PropOp40
 70
     1
102
RTVSPost2010Prop41ColorIndex
 90
       18
102
RTVSPost2010Prop41ColorRGB
 90
        0
102
RTVSPost2010PropOp41
 70
     1
102
RTVSPost2010Prop42
 90
       50
102
RTVSPost2010PropOp42
 70
     1
102
RTVSPost2010Prop43
 90
        3
102
RTVSPost2010PropOp43
 70
     1
102
RTVSPost2010Prop44ColorIndex
 90
        5
102
RTVSPost2010Prop44ColorRGB
 90
      255
102
RTVSPost2010PropOp44
 70
     1
102
RTVSPost2010Prop45
280
     0
102
RTVSPost2010PropOp45
 70
     1
102
RTVSPost2010Prop46
 90
       50
102
RTVSPost2010PropOp46
 70
     1
102
RTVSPost2010Prop47
 90
       50
102
RTVSPost2010PropOp47
 70
     1
102
RTVSPost2010Prop48
 90
       50
102
RTVSPost2010PropOp48
 70
     1
102
RTVSPost2010Prop49
280
     0
102
RTVSPost2010PropOp49
 70
     1
102
RTVSPost2010Prop50
 90
       50
102
RTVSPost2010PropOp50
 70
     1
102
RTVSPost2010Prop51ColorIndex
 90
      256
102
RTVSPost2010Prop51ColorRGB
 90
-16777216
102
RTVSPost2010PropOp51
 70
     0
102
RTVSPost2010Prop52
140
1.0
102
RTVSPost2010PropOp52
 70
     0
102
RTVSPost2010Prop53
 90
        2
102
RTVSPost2010PropOp53
 70
     1
102
RTVSPost2010Prop54
  1
strokes_ogs.tif
102
RTVSPost2010PropOp54
 70
     1
102
RTVSPost2010Prop55
280
     0
102
RTVSPost2010PropOp55
 70
     1
102
RTVSPost2010Prop56
140
1.0
102
RTVSPost2010PropOp56
 70
     1
102
RTVSPost2010Prop57
140
1.0
102
RTVSPost2010PropOp57
 70
     1
102
RTVSPropertyOp0
 70
     1
102
RTVSPropertyOp1
 70
     1
102
RTVSPropertyOp2
 70
     1
102
RTVSPropertyOp3
 70
     1
102
RTVSPropertyOp4
 70
     1
102
RTVSPropertyOp5
 70
     1
102
RTVSPropertyOp6
 70
     1
102
RTVSPropertyOp7
 70
     1
102
RTVSPropertyOp8
 70
     1
102
RTVSPropertyOp9
 70
     1
102
RTVSPropertyOp10
 70
     1
102
RTVSPropertyOp11
 70
     1
102
RTVSPropertyOp12
 70
     1
102
RTVSPropertyOp13
 70
     1
102
RTVSPropertyOp14
 70
     1
102
RTVSPropertyOp15
 70
     1
102
RTVSPropertyOp16
 70
     1
102
RTVSPropertyOp17
 70
     1
102
RTVSPropertyOp18
 70
     1
102
RTVSPropertyOp19
 70
     1
102
RTVSPropertyOp20
 70
     1
102
RTVSPropertyOp21
 70
     1
102
RTVSPropertyOp22
 70
     1
102
RTVSPropertyOp23
 70
     1
102
RTVSPropertyOp24
 70
     1
102
RTVSPropertyOp25
 70
     1
102
RTVSPropertyOp26
 70
     1
102
RTVSPropertyOp27
 70
     1
102
RTVSPropertyOp28
 70
     1
102
RTVSPropertyOp29
 70
     1
102
RTVSPropertyOp30
 70
     1
102
RTVSPropertyOp31
 70
     1
102
RTVSPropertyOp32
 70
     1
102
RTVSPropertyOp33
 70
     1
102
RTVSPropertyOp34
 70
     1
102
RTVSPropertyOp35
 70
     1
102
RTVSPropertyOp36
 70
     1
102
RTVSPropertyOp37
 70
     1
102
RTVSPropertyOp38
 70
     1
102
RTVSPropertyOp39
 70
     1
102
RTVSPropertyOp40
 70
     1
102
RTVSPropertyOp41
 70
     1
102
RTVSPropertyOp42
 70
     1
102
RTVSPropertyOp43
 70
     1
102
RTVSPropertyOp44
 70
     1
102
RTVSPropertyOp45
 70
     1
102
RTVSPropertyOp46
 70
     1
102
RTVSPropertyOp47
 70
     1
102
RTVSPropertyOp48
 70
     1
102
RTVSPropertyOp49
 70
     1
102
RTVSPropertyOp50
 70
     1
102
RTVSPropertyOp51
 70
     0
102
RTVSPropertyOp52
 70
     0
102
RTVSPropertyOp53
 70
     1
102
RTVSPropertyOp54
 70
     1
102
RTVSPropertyOp55
 70
     1
102
RTVSPropertyOp56
 70
     1
102
RTVSPropertyOp57
 70
     1
102
RTVSPropertyOp58
 70
     1
102
RTVSPropertyOp59
 70
     1
102
RTVSPropertyOp60
 70
     1
102
RTVSPropertyOp61
 70
     1
102
RTVSPropertyOp62
 70
     1
  0
XRECORD
  5
33D
102
{ACAD_REACTORS
330
33C
102
}
330
33C
100
AcDbXrecord
280
     1
102
RTVSPost2010Prop28
280
     0
102
RTVSPost2010PropOp28
 70
     1
102
RTVSPost2010Prop29
280
     1
102
RTVSPost2010PropOp29
 70
     1
102
RTVSPost2010Prop30
280
     1
102
RTVSPost2010PropOp30
 70
     1
102
RTVSPost2010Prop31
280
     0
102
RTVSPost2010PropOp31
 70
     1
102
RTVSPost2010Prop32
280
     0
102
RTVSPost2010PropOp32
 70
     1
102
RTVSPost2010Prop33
280
     0
102
RTVSPost2010PropOp33
 70
     1
102
RTVSPost2010Prop34
280
     0
102
RTVSPost2010PropOp34
 70
     1
102
RTVSPost2010Prop35
280
     0
102
RTVSPost2010PropOp35
 70
     1
102
RTVSPost2010Prop36
280
     0
102
RTVSPost2010PropOp36
 70
     1
102
RTVSPost2010Prop37
 90
       50
102
RTVSPost2010PropOp37
 70
     1
102
RTVSPost2010Prop38
140
0.0
102
RTVSPost2010PropOp38
 70
     1
102
RTVSPost2010Prop39
140
1.0
102
RTVSPost2010PropOp39
 70
     1
102
RTVSPost2010Prop40
 90
        0
102
RTVSPost2010PropOp40
 70
     1
102
RTVSPost2010Prop41ColorIndex
 90
       18
102
RTVSPost2010Prop41ColorRGB
 90
        0
102
RTVSPost2010PropOp41
 70
     1
102
RTVSPost2010Prop42
 90
       50
102
RTVSPost2010PropOp42
 70
     1
102
RTVSPost2010Prop43
 90
        3
102
RTVSPost2010PropOp43
 70
     1
102
RTVSPost2010Prop44ColorIndex
 90
        5
102
RTVSPost2010Prop44ColorRGB
 90
      255
102
RTVSPost2010PropOp44
 70
     1
102
RTVSPost2010Prop45
280
     0
102
RTVSPost2010PropOp45
 70
     1
102
RTVSPost2010Prop46
 90
       50
102
RTVSPost2010PropOp46
 70
     1
102
RTVSPost2010Prop47
 90
       50
102
RTVSPost2010PropOp47
 70
     1
102
RTVSPost2010Prop48
 90
       50
102
RTVSPost2010PropOp48
 70
     1
102
RTVSPost2010Prop49
280
     0
102
RTVSPost2010PropOp49
 70
     1
102
RTVSPost2010Prop50
 90
       50
102
RTVSPost2010PropOp50
 70
     1
102
RTVSPost2010Prop51ColorIndex
 90
      256
102
RTVSPost2010Prop51ColorRGB
 90
-16777216
102
RTVSPost2010PropOp51
 70
     0
102
RTVSPost2010Prop52
140
1.0
102
RTVSPost2010PropOp52
 70
     0
102
RTVSPost2010Prop53
 90
        2
102
RTVSPost2010PropOp53
 70
     1
102
RTVSPost2010Prop54
  1
strokes_ogs.tif
102
RTVSPost2010PropOp54
 70
     1
102
RTVSPost2010Prop55
280
     0
102
RTVSPost2010PropOp55
 70
     1
102
RTVSPost2010Prop56
140
1.0
102
RTVSPost2010PropOp56
 70
     1
102
RTVSPost2010Prop57
140
1.0
102
RTVSPost2010PropOp57
 70
     1
102
RTVSPropertyOp0
 70
     1
102
RTVSPropertyOp1
 70
     1
102
RTVSPropertyOp2
 70
     1
102
RTVSPropertyOp3
 70
     1
102
RTVSPropertyOp4
 70
     1
102
RTVSPropertyOp5
 70
     1
102
RTVSPropertyOp6
 70
     1
102
RTVSPropertyOp7
 70
     1
102
RTVSPropertyOp8
 70
     1
102
RTVSPropertyOp9
 70
     1
102
RTVSPropertyOp10
 70
     1
102
RTVSPropertyOp11
 70
     1
102
RTVSPropertyOp12
 70
     1
102
RTVSPropertyOp13
 70
     1
102
RTVSPropertyOp14
 70
     1
102
RTVSPropertyOp15
 70
     1
102
RTVSPropertyOp16
 70
     1
102
RTVSPropertyOp17
 70
     1
102
RTVSPropertyOp18
 70
     1
102
RTVSPropertyOp19
 70
     1
102
RTVSPropertyOp20
 70
     1
102
RTVSPropertyOp21
 70
     1
102
RTVSPropertyOp22
 70
     1
102
RTVSPropertyOp23
 70
     1
102
RTVSPropertyOp24
 70
     1
102
RTVSPropertyOp25
 70
     1
102
RTVSPropertyOp26
 70
     1
102
RTVSPropertyOp27
 70
     1
102
RTVSPropertyOp28
 70
     1
102
RTVSPropertyOp29
 70
     1
102
RTVSPropertyOp30
 70
     1
102
RTVSPropertyOp31
 70
     1
102
RTVSPropertyOp32
 70
     1
102
RTVSPropertyOp33
 70
     1
102
RTVSPropertyOp34
 70
     1
102
RTVSPropertyOp35
 70
     1
102
RTVSPropertyOp36
 70
     1
102
RTVSPropertyOp37
 70
     1
102
RTVSPropertyOp38
 70
     1
102
RTVSPropertyOp39
 70
     1
102
RTVSPropertyOp40
 70
     1
102
RTVSPropertyOp41
 70
     1
102
RTVSPropertyOp42
 70
     1
102
RTVSPropertyOp43
 70
     1
102
RTVSPropertyOp44
 70
     1
102
RTVSPropertyOp45
 70
     1
102
RTVSPropertyOp46
 70
     1
102
RTVSPropertyOp47
 70
     1
102
RTVSPropertyOp48
 70
     1
102
RTVSPropertyOp49
 70
     1
102
RTVSPropertyOp50
 70
     1
102
RTVSPropertyOp51
 70
     0
102
RTVSPropertyOp52
 70
     0
102
RTVSPropertyOp53
 70
     1
102
RTVSPropertyOp54
 70
     1
102
RTVSPropertyOp55
 70
     1
102
RTVSPropertyOp56
 70
     1
102
RTVSPropertyOp57
 70
     1
102
RTVSPropertyOp58
 70
     1
102
RTVSPropertyOp59
 70
     1
102
RTVSPropertyOp60
 70
     1
102
RTVSPropertyOp61
 70
     1
102
RTVSPropertyOp62
 70
     1
  0
XRECORD
  5
337
102
{ACAD_REACTORS
330
336
102
}
330
336
100
AcDbXrecord
280
     1
102
RTVSPost2010Prop28
280
     0
102
RTVSPost2010PropOp28
 70
     1
102
RTVSPost2010Prop29
280
     1
102
RTVSPost2010PropOp29
 70
     1
102
RTVSPost2010Prop30
280
     1
102
RTVSPost2010PropOp30
 70
     1
102
RTVSPost2010Prop31
280
     0
102
RTVSPost2010PropOp31
 70
     1
102
RTVSPost2010Prop32
280
     0
102
RTVSPost2010PropOp32
 70
     1
102
RTVSPost2010Prop33
280
     0
102
RTVSPost2010PropOp33
 70
     1
102
RTVSPost2010Prop34
280
     0
102
RTVSPost2010PropOp34
 70
     1
102
RTVSPost2010Prop35
280
     0
102
RTVSPost2010PropOp35
 70
     1
102
RTVSPost2010Prop36
280
     0
102
RTVSPost2010PropOp36
 70
     1
102
RTVSPost2010Prop37
 90
       50
102
RTVSPost2010PropOp37
 70
     1
102
RTVSPost2010Prop38
140
0.0
102
RTVSPost2010PropOp38
 70
     1
102
RTVSPost2010Prop39
140
1.0
102
RTVSPost2010PropOp39
 70
     1
102
RTVSPost2010Prop40
 90
        0
102
RTVSPost2010PropOp40
 70
     1
102
RTVSPost2010Prop41ColorIndex
 90
       18
102
RTVSPost2010Prop41ColorRGB
 90
        0
102
RTVSPost2010PropOp41
 70
     1
102
RTVSPost2010Prop42
 90
       50
102
RTVSPost2010PropOp42
 70
     1
102
RTVSPost2010Prop43
 90
        3
102
RTVSPost2010PropOp43
 70
     1
102
RTVSPost2010Prop44ColorIndex
 90
        5
102
RTVSPost2010Prop44ColorRGB
 90
      255
102
RTVSPost2010PropOp44
 70
     1
102
RTVSPost2010Prop45
280
     0
102
RTVSPost2010PropOp45
 70
     1
102
RTVSPost2010Prop46
 90
       50
102
RTVSPost2010PropOp46
 70
     1
102
RTVSPost2010Prop47
 90
       50
102
RTVSPost2010PropOp47
 70
     1
102
RTVSPost2010Prop48
 90
       50
102
RTVSPost2010PropOp48
 70
     1
102
RTVSPost2010Prop49
280
     0
102
RTVSPost2010PropOp49
 70
     1
102
RTVSPost2010Prop50
 90
       50
102
RTVSPost2010PropOp50
 70
     1
102
RTVSPost2010Prop51ColorIndex
 90
      256
102
RTVSPost2010Prop51ColorRGB
 90
-16777216
102
RTVSPost2010PropOp51
 70
     0
102
RTVSPost2010Prop52
140
1.0
102
RTVSPost2010PropOp52
 70
     0
102
RTVSPost2010Prop53
 90
        2
102
RTVSPost2010PropOp53
 70
     1
102
RTVSPost2010Prop54
  1
strokes_ogs.tif
102
RTVSPost2010PropOp54
 70
     1
102
RTVSPost2010Prop55
280
     0
102
RTVSPost2010PropOp55
 70
     1
102
RTVSPost2010Prop56
140
1.0
102
RTVSPost2010PropOp56
 70
     1
102
RTVSPost2010Prop57
140
1.0
102
RTVSPost2010PropOp57
 70
     1
102
RTVSPropertyOp0
 70
     1
102
RTVSPropertyOp1
 70
     1
102
RTVSPropertyOp2
 70
     1
102
RTVSPropertyOp3
 70
     1
102
RTVSPropertyOp4
 70
     1
102
RTVSPropertyOp5
 70
     1
102
RTVSPropertyOp6
 70
     1
102
RTVSPropertyOp7
 70
     1
102
RTVSPropertyOp8
 70
     1
102
RTVSPropertyOp9
 70
     1
102
RTVSPropertyOp10
 70
     1
102
RTVSPropertyOp11
 70
     1
102
RTVSPropertyOp12
 70
     1
102
RTVSPropertyOp13
 70
     1
102
RTVSPropertyOp14
 70
     1
102
RTVSPropertyOp15
 70
     1
102
RTVSPropertyOp16
 70
     1
102
RTVSPropertyOp17
 70
     1
102
RTVSPropertyOp18
 70
     1
102
RTVSPropertyOp19
 70
     1
102
RTVSPropertyOp20
 70
     1
102
RTVSPropertyOp21
 70
     1
102
RTVSPropertyOp22
 70
     1
102
RTVSPropertyOp23
 70
     1
102
RTVSPropertyOp24
 70
     1
102
RTVSPropertyOp25
 70
     1
102
RTVSPropertyOp26
 70
     1
102
RTVSPropertyOp27
 70
     1
102
RTVSPropertyOp28
 70
     1
102
RTVSPropertyOp29
 70
     1
102
RTVSPropertyOp30
 70
     1
102
RTVSPropertyOp31
 70
     1
102
RTVSPropertyOp32
 70
     1
102
RTVSPropertyOp33
 70
     1
102
RTVSPropertyOp34
 70
     1
102
RTVSPropertyOp35
 70
     1
102
RTVSPropertyOp36
 70
     1
102
RTVSPropertyOp37
 70
     1
102
RTVSPropertyOp38
 70
     1
102
RTVSPropertyOp39
 70
     1
102
RTVSPropertyOp40
 70
     1
102
RTVSPropertyOp41
 70
     1
102
RTVSPropertyOp42
 70
     1
102
RTVSPropertyOp43
 70
     1
102
RTVSPropertyOp44
 70
     1
102
RTVSPropertyOp45
 70
     1
102
RTVSPropertyOp46
 70
     1
102
RTVSPropertyOp47
 70
     1
102
RTVSPropertyOp48
 70
     1
102
RTVSPropertyOp49
 70
     1
102
RTVSPropertyOp50
 70
     1
102
RTVSPropertyOp51
 70
     0
102
RTVSPropertyOp52
 70
     0
102
RTVSPropertyOp53
 70
     1
102
RTVSPropertyOp54
 70
     1
102
RTVSPropertyOp55
 70
     1
102
RTVSPropertyOp56
 70
     1
102
RTVSPropertyOp57
 70
     1
102
RTVSPropertyOp58
 70
     1
102
RTVSPropertyOp59
 70
     1
102
RTVSPropertyOp60
 70
     1
102
RTVSPropertyOp61
 70
     1
102
RTVSPropertyOp62
 70
     1
  0
XRECORD
  5
339
102
{ACAD_REACTORS
330
338
102
}
330
338
100
AcDbXrecord
280
     1
102
RTVSPost2010Prop28
280
     0
102
RTVSPost2010PropOp28
 70
     1
102
RTVSPost2010Prop29
280
     1
102
RTVSPost2010PropOp29
 70
     1
102
RTVSPost2010Prop30
280
     1
102
RTVSPost2010PropOp30
 70
     1
102
RTVSPost2010Prop31
280
     0
102
RTVSPost2010PropOp31
 70
     1
102
RTVSPost2010Prop32
280
     0
102
RTVSPost2010PropOp32
 70
     1
102
RTVSPost2010Prop33
280
     0
102
RTVSPost2010PropOp33
 70
     1
102
RTVSPost2010Prop34
280
     0
102
RTVSPost2010PropOp34
 70
     1
102
RTVSPost2010Prop35
280
     0
102
RTVSPost2010PropOp35
 70
     1
102
RTVSPost2010Prop36
280
     0
102
RTVSPost2010PropOp36
 70
     1
102
RTVSPost2010Prop37
 90
       50
102
RTVSPost2010PropOp37
 70
     1
102
RTVSPost2010Prop38
140
0.0
102
RTVSPost2010PropOp38
 70
     1
102
RTVSPost2010Prop39
140
1.0
102
RTVSPost2010PropOp39
 70
     1
102
RTVSPost2010Prop40
 90
        0
102
RTVSPost2010PropOp40
 70
     1
102
RTVSPost2010Prop41ColorIndex
 90
       18
102
RTVSPost2010Prop41ColorRGB
 90
        0
102
RTVSPost2010PropOp41
 70
     1
102
RTVSPost2010Prop42
 90
       50
102
RTVSPost2010PropOp42
 70
     1
102
RTVSPost2010Prop43
 90
        3
102
RTVSPost2010PropOp43
 70
     1
102
RTVSPost2010Prop44ColorIndex
 90
        5
102
RTVSPost2010Prop44ColorRGB
 90
      255
102
RTVSPost2010PropOp44
 70
     1
102
RTVSPost2010Prop45
280
     0
102
RTVSPost2010PropOp45
 70
     1
102
RTVSPost2010Prop46
 90
       50
102
RTVSPost2010PropOp46
 70
     1
102
RTVSPost2010Prop47
 90
       50
102
RTVSPost2010PropOp47
 70
     1
102
RTVSPost2010Prop48
 90
       50
102
RTVSPost2010PropOp48
 70
     1
102
RTVSPost2010Prop49
280
     0
102
RTVSPost2010PropOp49
 70
     1
102
RTVSPost2010Prop50
 90
       50
102
RTVSPost2010PropOp50
 70
     1
102
RTVSPost2010Prop51ColorIndex
 90
      256
102
RTVSPost2010Prop51ColorRGB
 90
-16777216
102
RTVSPost2010PropOp51
 70
     0
102
RTVSPost2010Prop52
140
1.0
102
RTVSPost2010PropOp52
 70
     0
102
RTVSPost2010Prop53
 90
        2
102
RTVSPost2010PropOp53
 70
     1
102
RTVSPost2010Prop54
  1
strokes_ogs.tif
102
RTVSPost2010PropOp54
 70
     1
102
RTVSPost2010Prop55
280
     0
102
RTVSPost2010PropOp55
 70
     1
102
RTVSPost2010Prop56
140
1.0
102
RTVSPost2010PropOp56
 70
     1
102
RTVSPost2010Prop57
140
1.0
102
RTVSPost2010PropOp57
 70
     1
102
RTVSPropertyOp0
 70
     1
102
RTVSPropertyOp1
 70
     1
102
RTVSPropertyOp2
 70
     1
102
RTVSPropertyOp3
 70
     1
102
RTVSPropertyOp4
 70
     1
102
RTVSPropertyOp5
 70
     1
102
RTVSPropertyOp6
 70
     1
102
RTVSPropertyOp7
 70
     1
102
RTVSPropertyOp8
 70
     1
102
RTVSPropertyOp9
 70
     1
102
RTVSPropertyOp10
 70
     1
102
RTVSPropertyOp11
 70
     1
102
RTVSPropertyOp12
 70
     1
102
RTVSPropertyOp13
 70
     1
102
RTVSPropertyOp14
 70
     1
102
RTVSPropertyOp15
 70
     1
102
RTVSPropertyOp16
 70
     1
102
RTVSPropertyOp17
 70
     1
102
RTVSPropertyOp18
 70
     1
102
RTVSPropertyOp19
 70
     1
102
RTVSPropertyOp20
 70
     1
102
RTVSPropertyOp21
 70
     1
102
RTVSPropertyOp22
 70
     1
102
RTVSPropertyOp23
 70
     1
102
RTVSPropertyOp24
 70
     1
102
RTVSPropertyOp25
 70
     1
102
RTVSPropertyOp26
 70
     1
102
RTVSPropertyOp27
 70
     1
102
RTVSPropertyOp28
 70
     1
102
RTVSPropertyOp29
 70
     1
102
RTVSPropertyOp30
 70
     1
102
RTVSPropertyOp31
 70
     1
102
RTVSPropertyOp32
 70
     1
102
RTVSPropertyOp33
 70
     1
102
RTVSPropertyOp34
 70
     1
102
RTVSPropertyOp35
 70
     1
102
RTVSPropertyOp36
 70
     1
102
RTVSPropertyOp37
 70
     1
102
RTVSPropertyOp38
 70
     1
102
RTVSPropertyOp39
 70
     1
102
RTVSPropertyOp40
 70
     1
102
RTVSPropertyOp41
 70
     1
102
RTVSPropertyOp42
 70
     1
102
RTVSPropertyOp43
 70
     1
102
RTVSPropertyOp44
 70
     1
102
RTVSPropertyOp45
 70
     1
102
RTVSPropertyOp46
 70
     1
102
RTVSPropertyOp47
 70
     1
102
RTVSPropertyOp48
 70
     1
102
RTVSPropertyOp49
 70
     1
102
RTVSPropertyOp50
 70
     1
102
RTVSPropertyOp51
 70
     0
102
RTVSPropertyOp52
 70
     0
102
RTVSPropertyOp53
 70
     1
102
RTVSPropertyOp54
 70
     1
102
RTVSPropertyOp55
 70
     1
102
RTVSPropertyOp56
 70
     1
102
RTVSPropertyOp57
 70
     1
102
RTVSPropertyOp58
 70
     1
102
RTVSPropertyOp59
 70
     1
102
RTVSPropertyOp60
 70
     1
102
RTVSPropertyOp61
 70
     1
102
RTVSPropertyOp62
 70
     1
  0
XRECORD
  5
32F
102
{ACAD_REACTORS
330
32E
102
}
330
32E
100
AcDbXrecord
280
     1
102
RTVSPost2010Prop28
280
     0
102
RTVSPost2010PropOp28
 70
     1
102
RTVSPost2010Prop29
280
     1
102
RTVSPost2010PropOp29
 70
     1
102
RTVSPost2010Prop30
280
     1
102
RTVSPost2010PropOp30
 70
     1
102
RTVSPost2010Prop31
280
     0
102
RTVSPost2010PropOp31
 70
     1
102
RTVSPost2010Prop32
280
     0
102
RTVSPost2010PropOp32
 70
     1
102
RTVSPost2010Prop33
280
     0
102
RTVSPost2010PropOp33
 70
     1
102
RTVSPost2010Prop34
280
     0
102
RTVSPost2010PropOp34
 70
     1
102
RTVSPost2010Prop35
280
     0
102
RTVSPost2010PropOp35
 70
     1
102
RTVSPost2010Prop36
280
     0
102
RTVSPost2010PropOp36
 70
     1
102
RTVSPost2010Prop37
 90
       50
102
RTVSPost2010PropOp37
 70
     1
102
RTVSPost2010Prop38
140
0.0
102
RTVSPost2010PropOp38
 70
     1
102
RTVSPost2010Prop39
140
1.0
102
RTVSPost2010PropOp39
 70
     1
102
RTVSPost2010Prop40
 90
        0
102
RTVSPost2010PropOp40
 70
     1
102
RTVSPost2010Prop41ColorIndex
 90
       18
102
RTVSPost2010Prop41ColorRGB
 90
        0
102
RTVSPost2010PropOp41
 70
     1
102
RTVSPost2010Prop42
 90
       50
102
RTVSPost2010PropOp42
 70
     1
102
RTVSPost2010Prop43
 90
        3
102
RTVSPost2010PropOp43
 70
     1
102
RTVSPost2010Prop44ColorIndex
 90
        5
102
RTVSPost2010Prop44ColorRGB
 90
      255
102
RTVSPost2010PropOp44
 70
     1
102
RTVSPost2010Prop45
280
     0
102
RTVSPost2010PropOp45
 70
     1
102
RTVSPost2010Prop46
 90
       50
102
RTVSPost2010PropOp46
 70
     1
102
RTVSPost2010Prop47
 90
       50
102
RTVSPost2010PropOp47
 70
     1
102
RTVSPost2010Prop48
 90
       50
102
RTVSPost2010PropOp48
 70
     1
102
RTVSPost2010Prop49
280
     0
102
RTVSPost2010PropOp49
 70
     1
102
RTVSPost2010Prop50
 90
       50
102
RTVSPost2010PropOp50
 70
     1
102
RTVSPost2010Prop51ColorIndex
 90
      256
102
RTVSPost2010Prop51ColorRGB
 90
-16777216
102
RTVSPost2010PropOp51
 70
     0
102
RTVSPost2010Prop52
140
1.0
102
RTVSPost2010PropOp52
 70
     0
102
RTVSPost2010Prop53
 90
        2
102
RTVSPost2010PropOp53
 70
     1
102
RTVSPost2010Prop54
  1
strokes_ogs.tif
102
RTVSPost2010PropOp54
 70
     1
102
RTVSPost2010Prop55
280
     0
102
RTVSPost2010PropOp55
 70
     1
102
RTVSPost2010Prop56
140
1.0
102
RTVSPost2010PropOp56
 70
     1
102
RTVSPost2010Prop57
140
1.0
102
RTVSPost2010PropOp57
 70
     1
102
RTVSPropertyOp0
 70
     1
102
RTVSPropertyOp1
 70
     1
102
RTVSPropertyOp2
 70
     1
102
RTVSPropertyOp3
 70
     1
102
RTVSPropertyOp4
 70
     1
102
RTVSPropertyOp5
 70
     1
102
RTVSPropertyOp6
 70
     1
102
RTVSPropertyOp7
 70
     1
102
RTVSPropertyOp8
 70
     1
102
RTVSPropertyOp9
 70
     1
102
RTVSPropertyOp10
 70
     1
102
RTVSPropertyOp11
 70
     1
102
RTVSPropertyOp12
 70
     1
102
RTVSPropertyOp13
 70
     1
102
RTVSPropertyOp14
 70
     1
102
RTVSPropertyOp15
 70
     1
102
RTVSPropertyOp16
 70
     1
102
RTVSPropertyOp17
 70
     1
102
RTVSPropertyOp18
 70
     1
102
RTVSPropertyOp19
 70
     1
102
RTVSPropertyOp20
 70
     1
102
RTVSPropertyOp21
 70
     1
102
RTVSPropertyOp22
 70
     1
102
RTVSPropertyOp23
 70
     1
102
RTVSPropertyOp24
 70
     1
102
RTVSPropertyOp25
 70
     1
102
RTVSPropertyOp26
 70
     1
102
RTVSPropertyOp27
 70
     1
102
RTVSPropertyOp28
 70
     1
102
RTVSPropertyOp29
 70
     1
102
RTVSPropertyOp30
 70
     1
102
RTVSPropertyOp31
 70
     1
102
RTVSPropertyOp32
 70
     1
102
RTVSPropertyOp33
 70
     1
102
RTVSPropertyOp34
 70
     1
102
RTVSPropertyOp35
 70
     1
102
RTVSPropertyOp36
 70
     1
102
RTVSPropertyOp37
 70
     1
102
RTVSPropertyOp38
 70
     1
102
RTVSPropertyOp39
 70
     1
102
RTVSPropertyOp40
 70
     1
102
RTVSPropertyOp41
 70
     1
102
RTVSPropertyOp42
 70
     1
102
RTVSPropertyOp43
 70
     1
102
RTVSPropertyOp44
 70
     1
102
RTVSPropertyOp45
 70
     1
102
RTVSPropertyOp46
 70
     1
102
RTVSPropertyOp47
 70
     1
102
RTVSPropertyOp48
 70
     1
102
RTVSPropertyOp49
 70
     1
102
RTVSPropertyOp50
 70
     1
102
RTVSPropertyOp51
 70
     0
102
RTVSPropertyOp52
 70
     0
102
RTVSPropertyOp53
 70
     1
102
RTVSPropertyOp54
 70
     1
102
RTVSPropertyOp55
 70
     1
102
RTVSPropertyOp56
 70
     1
102
RTVSPropertyOp57
 70
     1
102
RTVSPropertyOp58
 70
     1
102
RTVSPropertyOp59
 70
     1
102
RTVSPropertyOp60
 70
     1
102
RTVSPropertyOp61
 70
     1
102
RTVSPropertyOp62
 70
     1
  0
XRECORD
  5
323
102
{ACAD_REACTORS
330
322
102
}
330
322
100
AcDbXrecord
280
     1
102
RTVSPost2010Prop28
280
     0
102
RTVSPost2010PropOp28
 70
     1
102
RTVSPost2010Prop29
280
     1
102
RTVSPost2010PropOp29
 70
     1
102
RTVSPost2010Prop30
280
     1
102
RTVSPost2010PropOp30
 70
     1
102
RTVSPost2010Prop31
280
     0
102
RTVSPost2010PropOp31
 70
     1
102
RTVSPost2010Prop32
280
     0
102
RTVSPost2010PropOp32
 70
     1
102
RTVSPost2010Prop33
280
     0
102
RTVSPost2010PropOp33
 70
     1
102
RTVSPost2010Prop34
280
     0
102
RTVSPost2010PropOp34
 70
     1
102
RTVSPost2010Prop35
280
     0
102
RTVSPost2010PropOp35
 70
     1
102
RTVSPost2010Prop36
280
     0
102
RTVSPost2010PropOp36
 70
     1
102
RTVSPost2010Prop37
 90
       50
102
RTVSPost2010PropOp37
 70
     1
102
RTVSPost2010Prop38
140
0.0
102
RTVSPost2010PropOp38
 70
     1
102
RTVSPost2010Prop39
140
1.0
102
RTVSPost2010PropOp39
 70
     1
102
RTVSPost2010Prop40
 90
        0
102
RTVSPost2010PropOp40
 70
     1
102
RTVSPost2010Prop41ColorIndex
 90
       18
102
RTVSPost2010Prop41ColorRGB
 90
        0
102
RTVSPost2010PropOp41
 70
     1
102
RTVSPost2010Prop42
 90
       50
102
RTVSPost2010PropOp42
 70
     1
102
RTVSPost2010Prop43
 90
        3
102
RTVSPost2010PropOp43
 70
     1
102
RTVSPost2010Prop44ColorIndex
 90
        5
102
RTVSPost2010Prop44ColorRGB
 90
      255
102
RTVSPost2010PropOp44
 70
     1
102
RTVSPost2010Prop45
280
     0
102
RTVSPost2010PropOp45
 70
     1
102
RTVSPost2010Prop46
 90
       50
102
RTVSPost2010PropOp46
 70
     1
102
RTVSPost2010Prop47
 90
       50
102
RTVSPost2010PropOp47
 70
     1
102
RTVSPost2010Prop48
 90
       50
102
RTVSPost2010PropOp48
 70
     1
102
RTVSPost2010Prop49
280
     0
102
RTVSPost2010PropOp49
 70
     1
102
RTVSPost2010Prop50
 90
       50
102
RTVSPost2010PropOp50
 70
     1
102
RTVSPost2010Prop51ColorIndex
 90
      256
102
RTVSPost2010Prop51ColorRGB
 90
-16777216
102
RTVSPost2010PropOp51
 70
     0
102
RTVSPost2010Prop52
140
1.0
102
RTVSPost2010PropOp52
 70
     0
102
RTVSPost2010Prop53
 90
        2
102
RTVSPost2010PropOp53
 70
     1
102
RTVSPost2010Prop54
  1
strokes_ogs.tif
102
RTVSPost2010PropOp54
 70
     1
102
RTVSPost2010Prop55
280
     0
102
RTVSPost2010PropOp55
 70
     1
102
RTVSPost2010Prop56
140
1.0
102
RTVSPost2010PropOp56
 70
     1
102
RTVSPost2010Prop57
140
1.0
102
RTVSPost2010PropOp57
 70
     1
102
RTVSPropertyOp0
 70
     1
102
RTVSPropertyOp1
 70
     1
102
RTVSPropertyOp2
 70
     1
102
RTVSPropertyOp3
 70
     1
102
RTVSPropertyOp4
 70
     1
102
RTVSPropertyOp5
 70
     1
102
RTVSPropertyOp6
 70
     1
102
RTVSPropertyOp7
 70
     1
102
RTVSPropertyOp8
 70
     1
102
RTVSPropertyOp9
 70
     1
102
RTVSPropertyOp10
 70
     1
102
RTVSPropertyOp11
 70
     1
102
RTVSPropertyOp12
 70
     1
102
RTVSPropertyOp13
 70
     1
102
RTVSPropertyOp14
 70
     1
102
RTVSPropertyOp15
 70
     1
102
RTVSPropertyOp16
 70
     1
102
RTVSPropertyOp17
 70
     1
102
RTVSPropertyOp18
 70
     1
102
RTVSPropertyOp19
 70
     1
102
RTVSPropertyOp20
 70
     1
102
RTVSPropertyOp21
 70
     1
102
RTVSPropertyOp22
 70
     1
102
RTVSPropertyOp23
 70
     1
102
RTVSPropertyOp24
 70
     1
102
RTVSPropertyOp25
 70
     1
102
RTVSPropertyOp26
 70
     1
102
RTVSPropertyOp27
 70
     1
102
RTVSPropertyOp28
 70
     1
102
RTVSPropertyOp29
 70
     1
102
RTVSPropertyOp30
 70
     1
102
RTVSPropertyOp31
 70
     1
102
RTVSPropertyOp32
 70
     1
102
RTVSPropertyOp33
 70
     1
102
RTVSPropertyOp34
 70
     1
102
RTVSPropertyOp35
 70
     1
102
RTVSPropertyOp36
 70
     1
102
RTVSPropertyOp37
 70
     1
102
RTVSPropertyOp38
 70
     1
102
RTVSPropertyOp39
 70
     1
102
RTVSPropertyOp40
 70
     1
102
RTVSPropertyOp41
 70
     1
102
RTVSPropertyOp42
 70
     1
102
RTVSPropertyOp43
 70
     1
102
RTVSPropertyOp44
 70
     1
102
RTVSPropertyOp45
 70
     1
102
RTVSPropertyOp46
 70
     1
102
RTVSPropertyOp47
 70
     1
102
RTVSPropertyOp48
 70
     1
102
RTVSPropertyOp49
 70
     1
102
RTVSPropertyOp50
 70
     1
102
RTVSPropertyOp51
 70
     0
102
RTVSPropertyOp52
 70
     0
102
RTVSPropertyOp53
 70
     1
102
RTVSPropertyOp54
 70
     1
102
RTVSPropertyOp55
 70
     1
102
RTVSPropertyOp56
 70
     1
102
RTVSPropertyOp57
 70
     1
102
RTVSPropertyOp58
 70
     1
102
RTVSPropertyOp59
 70
     1
102
RTVSPropertyOp60
 70
     1
102
RTVSPropertyOp61
 70
     1
102
RTVSPropertyOp62
 70
     1
  0
XRECORD
  5
33B
102
{ACAD_REACTORS
330
33A
102
}
330
33A
100
AcDbXrecord
280
     1
102
RTVSPost2010Prop28
280
     0
102
RTVSPost2010PropOp28
 70
     1
102
RTVSPost2010Prop29
280
     1
102
RTVSPost2010PropOp29
 70
     1
102
RTVSPost2010Prop30
280
     1
102
RTVSPost2010PropOp30
 70
     1
102
RTVSPost2010Prop31
280
     0
102
RTVSPost2010PropOp31
 70
     1
102
RTVSPost2010Prop32
280
     0
102
RTVSPost2010PropOp32
 70
     1
102
RTVSPost2010Prop33
280
     0
102
RTVSPost2010PropOp33
 70
     1
102
RTVSPost2010Prop34
280
     0
102
RTVSPost2010PropOp34
 70
     1
102
RTVSPost2010Prop35
280
     0
102
RTVSPost2010PropOp35
 70
     1
102
RTVSPost2010Prop36
280
     0
102
RTVSPost2010PropOp36
 70
     1
102
RTVSPost2010Prop37
 90
       50
102
RTVSPost2010PropOp37
 70
     1
102
RTVSPost2010Prop38
140
0.0
102
RTVSPost2010PropOp38
 70
     1
102
RTVSPost2010Prop39
140
1.0
102
RTVSPost2010PropOp39
 70
     1
102
RTVSPost2010Prop40
 90
        0
102
RTVSPost2010PropOp40
 70
     1
102
RTVSPost2010Prop41ColorIndex
 90
       18
102
RTVSPost2010Prop41ColorRGB
 90
        0
102
RTVSPost2010PropOp41
 70
     1
102
RTVSPost2010Prop42
 90
       50
102
RTVSPost2010PropOp42
 70
     1
102
RTVSPost2010Prop43
 90
        3
102
RTVSPost2010PropOp43
 70
     1
102
RTVSPost2010Prop44ColorIndex
 90
        5
102
RTVSPost2010Prop44ColorRGB
 90
      255
102
RTVSPost2010PropOp44
 70
     1
102
RTVSPost2010Prop45
280
     0
102
RTVSPost2010PropOp45
 70
     1
102
RTVSPost2010Prop46
 90
       50
102
RTVSPost2010PropOp46
 70
     1
102
RTVSPost2010Prop47
 90
       50
102
RTVSPost2010PropOp47
 70
     1
102
RTVSPost2010Prop48
 90
       50
102
RTVSPost2010PropOp48
 70
     1
102
RTVSPost2010Prop49
280
     0
102
RTVSPost2010PropOp49
 70
     1
102
RTVSPost2010Prop50
 90
       50
102
RTVSPost2010PropOp50
 70
     1
102
RTVSPost2010Prop51ColorIndex
 90
      256
102
RTVSPost2010Prop51ColorRGB
 90
-16777216
102
RTVSPost2010PropOp51
 70
     0
102
RTVSPost2010Prop52
140
1.0
102
RTVSPost2010PropOp52
 70
     0
102
RTVSPost2010Prop53
 90
        2
102
RTVSPost2010PropOp53
 70
     1
102
RTVSPost2010Prop54
  1
strokes_ogs.tif
102
RTVSPost2010PropOp54
 70
     1
102
RTVSPost2010Prop55
280
     0
102
RTVSPost2010PropOp55
 70
     1
102
RTVSPost2010Prop56
140
1.0
102
RTVSPost2010PropOp56
 70
     1
102
RTVSPost2010Prop57
140
1.0
102
RTVSPost2010PropOp57
 70
     1
102
RTVSPropertyOp0
 70
     1
102
RTVSPropertyOp1
 70
     1
102
RTVSPropertyOp2
 70
     1
102
RTVSPropertyOp3
 70
     1
102
RTVSPropertyOp4
 70
     1
102
RTVSPropertyOp5
 70
     1
102
RTVSPropertyOp6
 70
     1
102
RTVSPropertyOp7
 70
     1
102
RTVSPropertyOp8
 70
     1
102
RTVSPropertyOp9
 70
     1
102
RTVSPropertyOp10
 70
     1
102
RTVSPropertyOp11
 70
     1
102
RTVSPropertyOp12
 70
     1
102
RTVSPropertyOp13
 70
     1
102
RTVSPropertyOp14
 70
     1
102
RTVSPropertyOp15
 70
     1
102
RTVSPropertyOp16
 70
     1
102
RTVSPropertyOp17
 70
     1
102
RTVSPropertyOp18
 70
     1
102
RTVSPropertyOp19
 70
     1
102
RTVSPropertyOp20
 70
     1
102
RTVSPropertyOp21
 70
     1
102
RTVSPropertyOp22
 70
     1
102
RTVSPropertyOp23
 70
     1
102
RTVSPropertyOp24
 70
     1
102
RTVSPropertyOp25
 70
     1
102
RTVSPropertyOp26
 70
     1
102
RTVSPropertyOp27
 70
     1
102
RTVSPropertyOp28
 70
     1
102
RTVSPropertyOp29
 70
     1
102
RTVSPropertyOp30
 70
     1
102
RTVSPropertyOp31
 70
     1
102
RTVSPropertyOp32
 70
     1
102
RTVSPropertyOp33
 70
     1
102
RTVSPropertyOp34
 70
     1
102
RTVSPropertyOp35
 70
     1
102
RTVSPropertyOp36
 70
     1
102
RTVSPropertyOp37
 70
     1
102
RTVSPropertyOp38
 70
     1
102
RTVSPropertyOp39
 70
     1
102
RTVSPropertyOp40
 70
     1
102
RTVSPropertyOp41
 70
     1
102
RTVSPropertyOp42
 70
     1
102
RTVSPropertyOp43
 70
     1
102
RTVSPropertyOp44
 70
     1
102
RTVSPropertyOp45
 70
     1
102
RTVSPropertyOp46
 70
     1
102
RTVSPropertyOp47
 70
     1
102
RTVSPropertyOp48
 70
     1
102
RTVSPropertyOp49
 70
     1
102
RTVSPropertyOp50
 70
     1
102
RTVSPropertyOp51
 70
     0
102
RTVSPropertyOp52
 70
     0
102
RTVSPropertyOp53
 70
     1
102
RTVSPropertyOp54
 70
     1
102
RTVSPropertyOp55
 70
     1
102
RTVSPropertyOp56
 70
     1
102
RTVSPropertyOp57
 70
     1
102
RTVSPropertyOp58
 70
     1
102
RTVSPropertyOp59
 70
     1
102
RTVSPropertyOp60
 70
     1
102
RTVSPropertyOp61
 70
     1
102
RTVSPropertyOp62
 70
     1
  0
ENDSEC
  0
EOF
