  0
SECTION
  2
HEADER
  9
$ACADVER
  1
AC1021
  9
$ACADMAINTVER
 70
    50
  9
$DWGCODEPAGE
  3
ANSI_1252
  9
$INSBASE
 10
0.0
 20
0.0
 30
0.0
  9
$EXTMIN
 10
3522.683955042953
 20
2416.433257459895
 30
0.0
  9
$EXTMAX
 10
4052.14518201683
 20
2769.260759680481
 30
0.0
  9
$LIMMIN
 10
0.0
 20
0.0
  9
$LIMMAX
 10
12.0
 20
9.0
  9
$ORTHOMODE
 70
     0
  9
$REGENMODE
 70
     1
  9
$FILLMODE
 70
     1
  9
$QTEXTMODE
 70
     0
  9
$MIRRTEXT
 70
     0
  9
$LTSCALE
 40
1.0
  9
$ATTMODE
 70
     1
  9
$TEXTSIZE
 40
0.2
  9
$TRACEWID
 40
0.05
  9
$TEXTSTYLE
  7
Standard
  9
$CLAYER
  8
0
  9
$CELTYPE
  6
ByLayer
  9
$CECOLOR
 62
   256
  9
$CELTSCALE
 40
1.0
  9
$DISPSILH
 70
     0
  9
$DIMSCALE
 40
1.0
  9
$DIMASZ
 40
0.18
  9
$DIMEXO
 40
0.0625
  9
$DIMDLI
 40
0.38
  9
$DIMRND
 40
0.0
  9
$DIMDLE
 40
0.0
  9
$DIMEXE
 40
0.18
  9
$DIMTP
 40
0.0
  9
$DIMTM
 40
0.0
  9
$DIMTXT
 40
0.18
  9
$DIMCEN
 40
0.09
  9
$DIMTSZ
 40
0.0
  9
$DIMTOL
 70
     0
  9
$DIMLIM
 70
     0
  9
$DIMTIH
 70
     1
  9
$DIMTOH
 70
     1
  9
$DIMSE1
 70
     0
  9
$DIMSE2
 70
     0
  9
$DIMTAD
 70
     0
  9
$DIMZIN
 70
     0
  9
$DIMBLK
  1

  9
$DIMASO
 70
     1
  9
$DIMSHO
 70
     1
  9
$DIMPOST
  1

  9
$DIMAPOST
  1

  9
$DIMALT
 70
     0
  9
$DIMALTD
 70
     2
  9
$DIMALTF
 40
25.4
  9
$DIMLFAC
 40
1.0
  9
$DIMTOFL
 70
     0
  9
$DIMTVP
 40
0.0
  9
$DIMTIX
 70
     0
  9
$DIMSOXD
 70
     0
  9
$DIMSAH
 70
     0
  9
$DIMBLK1
  1

  9
$DIMBLK2
  1

  9
$DIMSTYLE
  2
Standard
  9
$DIMCLRD
 70
     0
  9
$DIMCLRE
 70
     0
  9
$DIMCLRT
 70
     0
  9
$DIMTFAC
 40
1.0
  9
$DIMGAP
 40
0.09
  9
$DIMJUST
 70
     0
  9
$DIMSD1
 70
     0
  9
$DIMSD2
 70
     0
  9
$DIMTOLJ
 70
     1
  9
$DIMTZIN
 70
     0
  9
$DIMALTZ
 70
     0
  9
$DIMALTTZ
 70
     0
  9
$DIMUPT
 70
     0
  9
$DIMDEC
 70
     4
  9
$DIMTDEC
 70
     4
  9
$DIMALTU
 70
     2
  9
$DIMALTTD
 70
     2
  9
$DIMTXSTY
  7
Standard
  9
$DIMAUNIT
 70
     1
  9
$DIMADEC
 70
     0
  9
$DIMALTRND
 40
0.0
  9
$DIMAZIN
 70
     0
  9
$DIMDSEP
 70
    46
  9
$DIMATFIT
 70
     3
  9
$DIMFRAC
 70
     0
  9
$DIMLDRBLK
  1

  9
$DIMLUNIT
 70
     2
  9
$DIMLWD
 70
    -2
  9
$DIMLWE
 70
    -2
  9
$DIMTMOVE
 70
     0
  9
$DIMFXL
 40
1.0
  9
$DIMFXLON
 70
     0
  9
$DIMJOGANG
 40
0.7853981633974483
  9
$DIMTFILL
 70
     0
  9
$DIMTFILLCLR
 70
     0
  9
$DIMARCSYM
 70
     0
  9
$DIMLTYPE
  6

  9
$DIMLTEX1
  6

  9
$DIMLTEX2
  6

  9
$LUNITS
 70
     2
  9
$LUPREC
 70
     4
  9
$SKETCHINC
 40
0.1
  9
$FILLETRAD
 40
0.0
  9
$AUNITS
 70
     0
  9
$AUPREC
 70
     0
  9
$MENU
  1
.
  9
$ELEVATION
 40
0.0
  9
$PELEVATION
 40
0.0
  9
$THICKNESS
 40
0.0
  9
$LIMCHECK
 70
     0
  9
$CHAMFERA
 40
0.0
  9
$CHAMFERB
 40
0.0
  9
$CHAMFERC
 40
0.0
  9
$CHAMFERD
 40
0.0
  9
$SKPOLY
 70
     0
  9
$TDCREATE
 40
2459772.756423611
  9
$TDUCREATE
 40
2459772.256423611
  9
$TDUPDATE
 40
2459772.756423611
  9
$TDUUPDATE
 40
2459772.256423611
  9
$TDINDWG
 40
0.0000115741
  9
$TDUSRTIMER
 40
0.0000115741
  9
$USRTIMER
 70
     1
  9
$ANGBASE
 50
0.0
  9
$ANGDIR
 70
     0
  9
$PDMODE
 70
     0
  9
$PDSIZE
 40
0.0
  9
$PLINEWID
 40
0.0
  9
$SPLFRAME
 70
     0
  9
$SPLINETYPE
 70
     6
  9
$SPLINESEGS
 70
     8
  9
$HANDSEED
  5
32C
  9
$SURFTAB1
 70
     6
  9
$SURFTAB2
 70
     6
  9
$SURFTYPE
 70
     6
  9
$SURFU
 70
     6
  9
$SURFV
 70
     6
  9
$UCSBASE
  2

  9
$UCSNAME
  2

  9
$UCSORG
 10
0.0
 20
0.0
 30
0.0
  9
$UCSXDIR
 10
1.0
 20
0.0
 30
0.0
  9
$UCSYDIR
 10
0.0
 20
1.0
 30
0.0
  9
$UCSORTHOREF
  2

  9
$UCSORTHOVIEW
 70
     0
  9
$UCSORGTOP
 10
0.0
 20
0.0
 30
0.0
  9
$UCSORGBOTTOM
 10
0.0
 20
0.0
 30
0.0
  9
$UCSORGLEFT
 10
0.0
 20
0.0
 30
0.0
  9
$UCSORGRIGHT
 10
0.0
 20
0.0
 30
0.0
  9
$UCSORGFRONT
 10
0.0
 20
0.0
 30
0.0
  9
$UCSORGBACK
 10
0.0
 20
0.0
 30
0.0
  9
$PUCSBASE
  2

  9
$PUCSNAME
  2

  9
$PUCSORG
 10
0.0
 20
0.0
 30
0.0
  9
$PUCSXDIR
 10
1.0
 20
0.0
 30
0.0
  9
$PUCSYDIR
 10
0.0
 20
1.0
 30
0.0
  9
$PUCSORTHOREF
  2

  9
$PUCSORTHOVIEW
 70
     0
  9
$PUCSORGTOP
 10
0.0
 20
0.0
 30
0.0
  9
$PUCSORGBOTTOM
 10
0.0
 20
0.0
 30
0.0
  9
$PUCSORGLEFT
 10
0.0
 20
0.0
 30
0.0
  9
$PUCSORGRIGHT
 10
0.0
 20
0.0
 30
0.0
  9
$PUCSORGFRONT
 10
0.0
 20
0.0
 30
0.0
  9
$PUCSORGBACK
 10
0.0
 20
0.0
 30
0.0
  9
$USERI1
 70
     0
  9
$USERI2
 70
     0
  9
$USERI3
 70
     0
  9
$USERI4
 70
     0
  9
$USERI5
 70
     0
  9
$USERR1
 40
0.0
  9
$USERR2
 40
0.0
  9
$USERR3
 40
0.0
  9
$USERR4
 40
0.0
  9
$USERR5
 40
0.0
  9
$WORLDVIEW
 70
     1
  9
$SHADEDGE
 70
     3
  9
$SHADEDIF
 70
    70
  9
$TILEMODE
 70
     0
  9
$MAXACTVP
 70
    64
  9
$PINSBASE
 10
0.0
 20
0.0
 30
0.0
  9
$PLIMCHECK
 70
     0
  9
$PEXTMIN
 10
-3.179323264254881
 20
-3.79528158292931
 30
0.0
  9
$PEXTMAX
 10
293.8206767356985
 20
202.4547184170706
 30
0.0
  9
$PLIMMIN
 10
0.0
 20
0.0
  9
$PLIMMAX
 10
12.0
 20
9.0
  9
$UNITMODE
 70
     0
  9
$VISRETAIN
 70
     1
  9
$PLINEGEN
 70
     0
  9
$PSLTSCALE
 70
     1
  9
$TREEDEPTH
 70
  3020
  9
$CMLSTYLE
  2
Standard
  9
$CMLJUST
 70
     0
  9
$CMLSCALE
 40
1.0
  9
$PROXYGRAPHICS
 70
     1
  9
$MEASUREMENT
 70
     1
  9
$CELWEIGHT
370
    -1
  9
$ENDCAPS
280
     0
  9
$JOINSTYLE
280
     0
  9
$LWDISPLAY
290
     0
  9
$INSUNITS
 70
     4
  9
$HYPERLINKBASE
  1

  9
$STYLESHEET
  1

  9
$XEDIT
290
     1
  9
$CEPSNTYPE
380
     0
  9
$PSTYLEMODE
290
     1
  9
$FINGERPRINTGUID
  2
{39859C24-E1C9-234B-9575-4F669682294B}
  9
$VERSIONGUID
  2
{BCCE7DDF-F4DA-AB44-9117-7BBCA7D061CD}
  9
$EXTNAMES
290
     1
  9
$PSVPSCALE
 40
0.0
  9
$OLESTARTUP
290
     0
  9
$SORTENTS
280
   127
  9
$INDEXCTL
280
     0
  9
$HIDETEXT
280
     1
  9
$XCLIPFRAME
290
     0
  9
$HALOGAP
280
     0
  9
$OBSCOLOR
 70
   257
  9
$OBSLTYPE
280
     0
  9
$INTERSECTIONDISPLAY
280
     0
  9
$INTERSECTIONCOLOR
 70
   257
  9
$DIMASSOC
280
     2
  9
$PROJECTNAME
  1

  9
$CAMERADISPLAY
290
     0
  9
$LENSLENGTH
 40
50.0
  9
$CAMERAHEIGHT
 40
0.0
  9
$STEPSPERSEC
 40
2.0
  9
$STEPSIZE
 40
6.0
  9
$3DDWFPREC
 40
2.0
  9
$PSOLWIDTH
 40
0.25
  9
$PSOLHEIGHT
 40
4.0
  9
$LOFTANG1
 40
1.570796326794896
  9
$LOFTANG2
 40
1.570796326794896
  9
$LOFTMAG1
 40
0.0
  9
$LOFTMAG2
 40
0.0
  9
$LOFTPARAM
 70
     7
  9
$LOFTNORMALS
280
     1
  9
$LATITUDE
 40
0.0
  9
$LONGITUDE
 40
0.0
  9
$NORTHDIRECTION
 40
0.0
  9
$TIMEZONE
 70
     0
  9
$LIGHTGLYPHDISPLAY
280
     1
  9
$TILEMODELIGHTSYNCH
280
     1
  9
$CMATERIAL
347
11
  9
$SOLIDHIST
280
     0
  9
$SHOWHIST
280
     1
  9
$DWFFRAME
280
     2
  9
$DGNFRAME
280
     0
  9
$REALWORLDSCALE
290
     1
  9
$INTERFERECOLOR
 62
     1
  9
$INTERFEREOBJVS
345
33
  9
$INTERFEREVPVS
346
30
  9
$CSHADOW
280
     0
  9
$SHADOWPLANELOCATION
 40
0.0
  0
ENDSEC
  0
SECTION
  2
CLASSES
  0
CLASS
  1
ACDBDICTIONARYWDFLT
  2
AcDbDictionaryWithDefault
  3
ObjectDBX Classes
 90
        0
 91
        1
280
     0
281
     0
  0
CLASS
  1
MATERIAL
  2
AcDbMaterial
  3
ObjectDBX Classes
 90
     1153
 91
        3
280
     0
281
     0
  0
CLASS
  1
VISUALSTYLE
  2
AcDbVisualStyle
  3
ObjectDBX Classes
 90
     4095
 91
       24
280
     0
281
     0
  0
CLASS
  1
SCALE
  2
AcDbScale
  3
ObjectDBX Classes
 90
     1153
 91
       17
280
     0
281
     0
  0
CLASS
  1
TABLESTYLE
  2
AcDbTableStyle
  3
ObjectDBX Classes
 90
     4095
 91
        1
280
     0
281
     0
  0
CLASS
  1
MLEADERSTYLE
  2
AcDbMLeaderStyle
  3
ACDB_MLEADERSTYLE_CLASS
 90
     4095
 91
        1
280
     0
281
     0
  0
CLASS
  1
ACDBSECTIONVIEWSTYLE
  2
AcDbSectionViewStyle
  3
ObjectDBX Classes
 90
     1025
 91
        1
280
     0
281
     0
  0
CLASS
  1
ACDBDETAILVIEWSTYLE
  2
AcDbDetailViewStyle
  3
ObjectDBX Classes
 90
     1025
 91
        1
280
     0
281
     0
  0
CLASS
  1
RASTERVARIABLES
  2
AcDbRasterVariables
  3
ISM
 90
        0
 91
        1
280
     0
281
     0
  0
CLASS
  1
DICTIONARYVAR
  2
AcDbDictionaryVar
  3
ObjectDBX Classes
 90
        0
 91
        6
280
     0
281
     0
  0
CLASS
  1
CELLSTYLEMAP
  2
AcDbCellStyleMap
  3
ObjectDBX Classes
 90
     1152
 91
        2
280
     0
281
     0
  0
CLASS
  1
SORTENTSTABLE
  2
AcDbSortentsTable
  3
ObjectDBX Classes
 90
        0
 91
        1
280
     0
281
     0
  0
CLASS
  1
SUN
  2
AcDbSun
  3
SCENEOE
 90
     1153
 91
        1
280
     0
281
     0
  0
ENDSEC
  0
SECTION
  2
TABLES
  0
TABLE
  2
VPORT
  5
8
330
0
100
AcDbSymbolTable
 70
     1
  0
VPORT
  5
57
330
8
100
AcDbSymbolTableRecord
100
AcDbViewportTableRecord
  2
*Active
 70
     0
 10
0.0
 20
0.0
 11
1.0
 21
1.0
 12
3787.414568529892
 22
2592.847008570188
 13
0.0
 23
0.0
 14
1.0
 24
1.0
 15
0.0
 25
0.0
 16
0.0
 26
0.0
 36
1.0
 17
0.0
 27
0.0
 37
0.0
 40
352.8275022205862
 41
1.500623459457137
 42
50.0
 43
0.0
 44
0.0
 50
0.0
 51
0.0
 71
     0
 72
  1000
 73
     1
 74
     1
 75
     0
 76
     0
 77
     0
 78
     0
281
     0
 65
     1
110
0.0
120
0.0
130
0.0
111
1.0
121
0.0
131
0.0
112
0.0
122
1.0
132
0.0
 79
     0
146
0.0
 60
     3
 61
     5
292
     1
282
     1
141
0.0
142
0.0
 63
   250
421
  3355443
361
2EE
  0
ENDTAB
  0
TABLE
  2
LTYPE
  5
5
330
0
100
AcDbSymbolTable
 70
     2
  0
LTYPE
  5
5B
330
5
100
AcDbSymbolTableRecord
100
AcDbLinetypeTableRecord
  2
ByBlock
 70
     0
  3

 72
    65
 73
     0
 40
0.0
  0
LTYPE
  5
5C
330
5
100
AcDbSymbolTableRecord
100
AcDbLinetypeTableRecord
  2
ByLayer
 70
     0
  3

 72
    65
 73
     0
 40
0.0
  0
LTYPE
  5
5D
330
5
100
AcDbSymbolTableRecord
100
AcDbLinetypeTableRecord
  2
Continuous
 70
     0
  3
Solid line
 72
    65
 73
     0
 40
0.0
  0
LTYPE
  5
CC
330
5
100
AcDbSymbolTableRecord
100
AcDbLinetypeTableRecord
  2
Dash
 70
     0
  3

 72
    65
 73
     2
 40
3.4
 49
2.2
 74
     0
 49
-1.199999999999999
 74
     0
  0
ENDTAB
  0
TABLE
  2
LAYER
  5
2
330
0
100
AcDbSymbolTable
 70
     5
  0
LAYER
  5
54
330
2
100
AcDbSymbolTableRecord
100
AcDbLayerTableRecord
  2
0
 70
     0
 62
     7
  6
Continuous
370
    -3
390
F
347
21
  0
LAYER
  5
BC
330
2
100
AcDbSymbolTableRecord
100
AcDbLayerTableRecord
  2
_ARDEX - WELDTEC_
 70
     0
 62
     7
  6
Continuous
370
     9
390
F
347
21
  0
LAYER
  5
BD
330
2
100
AcDbSymbolTableRecord
100
AcDbLayerTableRecord
  2
_ARDEX - BUTYNOL_
 70
     0
 62
     7
  6
Continuous
370
    50
390
F
347
21
  0
LAYER
  5
1E9
330
2
100
AcDbSymbolTableRecord
100
AcDbLayerTableRecord
  2
_ARDEX - WELDTEC_-3
 70
     0
 62
     7
  6
Continuous
370
     9
390
F
347
21
  0
LAYER
  5
1FD
330
2
100
AcDbSymbolTableRecord
100
AcDbLayerTableRecord
  2
Defpoints
 70
     0
 62
     7
  6
Continuous
290
     0
370
    -3
390
F
347
21
  0
ENDTAB
  0
TABLE
  2
STYLE
  5
3
330
0
100
AcDbSymbolTable
 70
    11
  0
STYLE
  5
55
330
3
100
AcDbSymbolTableRecord
100
AcDbTextStyleTableRecord
  2
Standard
 70
     0
 40
0.0
 41
1.0
 50
0.0
 71
     0
 42
0.2
  3
txt
  4

  0
STYLE
  5
5A
330
3
100
AcDbSymbolTableRecord
100
AcDbTextStyleTableRecord
  2
Annotative
 70
     0
 40
0.0
 41
1.0
 50
0.0
 71
     0
 42
0.2
  3
txt
  4

1001
AcadAnnotative
1000
AnnotativeData
1002
{
1070
     1
1070
     1
1002
}
  0
STYLE
  5
1D1
330
3
100
AcDbSymbolTableRecord
100
AcDbTextStyleTableRecord
  2
Swis721 Lt BT
 70
     0
 40
5.999999999999998
 41
1.0
 50
0.0
 71
     0
 42
0.2
  3
swissl.ttf
  4

1001
ACAD
1000
Swis721 Lt BT
1071
       34
  0
STYLE
  5
2C5
330
3
100
AcDbSymbolTableRecord
100
AcDbTextStyleTableRecord
  2
Swis721 Lt BT_1
 70
     0
 40
1.5
 41
0.9
 50
0.0
 71
     0
 42
0.2
  3
swissl.ttf
  4

1001
ACAD
1000
Swis721 Lt BT
1071
       34
  0
STYLE
  5
2C9
330
3
100
AcDbSymbolTableRecord
100
AcDbTextStyleTableRecord
  2
Swis721 Lt BT_2
 70
     0
 40
2.1
 41
0.9
 50
0.0
 71
     0
 42
0.2
  3
swissl.ttf
  4

1001
ACAD
1000
Swis721 Lt BT
1071
       34
  0
STYLE
  5
2CC
330
3
100
AcDbSymbolTableRecord
100
AcDbTextStyleTableRecord
  2
Swis721 Lt BT_B
 70
     0
 40
0.7000000000000001
 41
0.9
 50
0.0
 71
     0
 42
0.2
  3

  4

1001
ACAD
1000
Swis721 Lt BT
1071
 33554466
  0
STYLE
  5
2CE
330
3
100
AcDbSymbolTableRecord
100
AcDbTextStyleTableRecord
  2
Swis721 Lt BT_3
 70
     0
 40
0.7000000000000001
 41
0.9
 50
0.0
 71
     0
 42
0.2
  3
swissl.ttf
  4

1001
ACAD
1000
Swis721 Lt BT
1071
       34
  0
STYLE
  5
2DD
330
3
100
AcDbSymbolTableRecord
100
AcDbTextStyleTableRecord
  2
Swis721 Lt BT_4
 70
     0
 40
2.0
 41
1.0
 50
0.0
 71
     0
 42
0.2
  3
swissl.ttf
  4

1001
ACAD
1000
Swis721 Lt BT
1071
       34
  0
STYLE
  5
2DF
330
3
100
AcDbSymbolTableRecord
100
AcDbTextStyleTableRecord
  2
Arial Black_B
 70
     0
 40
5.0
 41
0.9
 50
0.0
 71
     0
 42
0.2
  3
ariblk.ttf
  4

1001
ACAD
1000
Arial Black
1071
 33554466
  0
STYLE
  5
2E1
330
3
100
AcDbSymbolTableRecord
100
AcDbTextStyleTableRecord
  2
Swis721 Lt BT_5
 70
     0
 40
3.0
 41
1.0
 50
0.0
 71
     0
 42
0.2
  3
swissl.ttf
  4

1001
ACAD
1000
Swis721 Lt BT
1071
       34
  0
STYLE
  5
2E3
330
3
100
AcDbSymbolTableRecord
100
AcDbTextStyleTableRecord
  2
Arial
 70
     0
 40
4.0
 41
1.0
 50
0.0
 71
     0
 42
0.2
  3
arial.ttf
  4

1001
ACAD
1000
Arial
1071
       34
  0
ENDTAB
  0
TABLE
  2
VIEW
  5
6
330
0
100
AcDbSymbolTable
 70
     0
  0
ENDTAB
  0
TABLE
  2
UCS
  5
7
330
0
100
AcDbSymbolTable
 70
     0
  0
ENDTAB
  0
TABLE
  2
APPID
  5
9
330
0
100
AcDbSymbolTable
 70
     4
  0
APPID
  5
56
330
9
100
AcDbSymbolTableRecord
100
AcDbRegAppTableRecord
  2
ACAD
 70
     0
  0
APPID
  5
5E
330
9
100
AcDbSymbolTableRecord
100
AcDbRegAppTableRecord
  2
AcadAnnotative
 70
     0
  0
APPID
  5
78
330
9
100
AcDbSymbolTableRecord
100
AcDbRegAppTableRecord
  2
REVIT
 70
     0
  0
APPID
  5
325
330
9
100
AcDbSymbolTableRecord
100
AcDbRegAppTableRecord
  2
ACAD_MLEADERVER
 70
     0
  0
ENDTAB
  0
TABLE
  2
DIMSTYLE
  5
A
330
0
100
AcDbSymbolTable
 70
     3
100
AcDbDimStyleTable
 71
     1
340
1F6
  0
DIMSTYLE
105
58
330
A
100
AcDbSymbolTableRecord
100
AcDbDimStyleTableRecord
  2
Standard
 70
     0
340
55
  0
DIMSTYLE
105
59
330
A
100
AcDbSymbolTableRecord
100
AcDbDimStyleTableRecord
  2
Annotative
 70
     0
340
55
1001
AcadAnnotative
1000
AnnotativeData
1002
{
1070
     1
1070
     1
1002
}
  0
DIMSTYLE
105
1F6
102
{ACAD_REACTORS
330
1FB
102
}
330
A
100
AcDbSymbolTableRecord
100
AcDbDimStyleTableRecord
  2
_ARDEX__-_2mm
 70
     0
  3
<>
 40
304.8
 41
0.0118110236220473
 44
0.0137795275590551
 46
0.0216535433070866
 49
0.0492125984251969
 73
     0
 74
     0
 77
     1
 90
        2
140
6.331890328353087
145
1.0
147
0.0049212598425197
172
     1
173
     1
174
     1
179
     4
271
     0
275
     1
290
     1
340
1D1
343
1F7
344
1F7
  0
ENDTAB
  0
TABLE
  2
BLOCK_RECORD
  5
1
330
0
100
AcDbSymbolTable
 70
    39
  0
BLOCK_RECORD
  5
70
102
{ACAD_XDICTIONARY
360
2EC
102
}
330
1
100
AcDbSymbolTableRecord
100
AcDbBlockTableRecord
  2
*Model_Space
340
73
 70
     0
280
     1
281
     0
  0
BLOCK_RECORD
  5
6C
330
1
100
AcDbSymbolTableRecord
100
AcDbBlockTableRecord
  2
*Paper_Space
340
6F
 70
     0
280
     1
281
     0
  0
BLOCK_RECORD
  5
74
330
1
100
AcDbSymbolTableRecord
100
AcDbBlockTableRecord
  2
*Paper_Space0
340
77
 70
     0
280
     1
281
     0
  0
BLOCK_RECORD
  5
C0
330
1
100
AcDbSymbolTableRecord
100
AcDbBlockTableRecord
  2
_ARDEX_ Fillet - _ARDEX_ Fillet 25mm-376727-AB-06 INTERNAL GUTTER -1
340
0
102
{BLKREFS
331
CA
102
}
 70
     0
280
     1
281
     0
  0
BLOCK_RECORD
  5
CB
330
1
100
AcDbSymbolTableRecord
100
AcDbBlockTableRecord
  2
_ARDEX_ Lines - Membrane-571531-AB-06 INTERNAL GUTTER -1
340
0
102
{BLKREFS
331
D0
102
}
 70
     0
280
     1
281
     0
  0
BLOCK_RECORD
  5
D1
330
1
100
AcDbSymbolTableRecord
100
AcDbBlockTableRecord
  2
_ARDEX_ Lines - Membrane-571532-AB-06 INTERNAL GUTTER -1
340
0
102
{BLKREFS
331
D5
102
}
 70
     0
280
     1
281
     0
  0
BLOCK_RECORD
  5
D6
330
1
100
AcDbSymbolTableRecord
100
AcDbBlockTableRecord
  2
_ARDEX_ Lines - Membrane-581172-AB-06 INTERNAL GUTTER -1
340
0
102
{BLKREFS
331
DA
102
}
 70
     0
280
     1
281
     0
  0
BLOCK_RECORD
  5
DB
330
1
100
AcDbSymbolTableRecord
100
AcDbBlockTableRecord
  2
_ARDEX_ Fillet - _ARDEX_ Fillet 25mm-376892-AB-06 INTERNAL GUTTER -1
340
0
102
{BLKREFS
331
E5
102
}
 70
     0
280
     1
281
     0
  0
BLOCK_RECORD
  5
E6
330
1
100
AcDbSymbolTableRecord
100
AcDbBlockTableRecord
  2
_ARDEX_ Lines - Membrane-571534-AB-06 INTERNAL GUTTER -1
340
0
102
{BLKREFS
331
EA
102
}
 70
     0
280
     1
281
     0
  0
BLOCK_RECORD
  5
EB
330
1
100
AcDbSymbolTableRecord
100
AcDbBlockTableRecord
  2
_ARDEX_ Lining - Various - Polyiso Board-586833-AB-06 INTERNAL GUTTER -1
340
0
102
{BLKREFS
331
FA
102
}
 70
     0
280
     1
281
     0
  0
BLOCK_RECORD
  5
FB
330
1
100
AcDbSymbolTableRecord
100
AcDbBlockTableRecord
  2
_ARDEX_ Lining - Various - Polyiso Board-586848-AB-06 INTERNAL GUTTER -1
340
0
102
{BLKREFS
331
10D
102
}
 70
     0
280
     1
281
     0
  0
BLOCK_RECORD
  5
10E
330
1
100
AcDbSymbolTableRecord
100
AcDbBlockTableRecord
  2
_ARDEX_ Lines - Membrane-580865-AB-06 INTERNAL GUTTER -1
340
0
102
{BLKREFS
331
112
102
}
 70
     0
280
     1
281
     0
  0
BLOCK_RECORD
  5
113
330
1
100
AcDbSymbolTableRecord
100
AcDbBlockTableRecord
  2
_ARDEX_ Lining - Various - Cover Board-580925-AB-06 INTERNAL GUTTER -1
340
0
102
{BLKREFS
331
120
102
}
 70
     0
280
     1
281
     0
  0
BLOCK_RECORD
  5
121
330
1
100
AcDbSymbolTableRecord
100
AcDbBlockTableRecord
  2
_ARDEX_ Lines - Barrier-581105-AB-06 INTERNAL GUTTER -1
340
0
102
{BLKREFS
331
125
102
}
 70
     0
280
     1
281
     0
  0
BLOCK_RECORD
  5
126
330
1
100
AcDbSymbolTableRecord
100
AcDbBlockTableRecord
  2
_ARDEX_ Plywood - 18mm-580957-AB-06 INTERNAL GUTTER -1
340
0
102
{BLKREFS
331
131
102
}
 70
     0
280
     1
281
     0
  0
BLOCK_RECORD
  5
132
330
1
100
AcDbSymbolTableRecord
100
AcDbBlockTableRecord
  2
_ARDEX_ Framing - Framing-580764-AB-06 INTERNAL GUTTER -1
340
0
102
{BLKREFS
331
13B
102
}
 70
     0
280
     1
281
     0
  0
BLOCK_RECORD
  5
13C
330
1
100
AcDbSymbolTableRecord
100
AcDbBlockTableRecord
  2
_ARDEX_ Lines - Membrane-581480-AB-06 INTERNAL GUTTER -1
340
0
102
{BLKREFS
331
140
102
}
 70
     0
280
     1
281
     0
  0
BLOCK_RECORD
  5
141
330
1
100
AcDbSymbolTableRecord
100
AcDbBlockTableRecord
  2
_ARDEX_ Lining - Various - Polyiso Board-586851-AB-06 INTERNAL GUTTER -1
340
0
102
{BLKREFS
331
153
102
}
 70
     0
280
     1
281
     0
  0
BLOCK_RECORD
  5
154
330
1
100
AcDbSymbolTableRecord
100
AcDbBlockTableRecord
  2
_ARDEX_ Lining - Various - Cover Board-581483-AB-06 INTERNAL GUTTER -1
340
0
102
{BLKREFS
331
160
102
}
 70
     0
280
     1
281
     0
  0
BLOCK_RECORD
  5
161
330
1
100
AcDbSymbolTableRecord
100
AcDbBlockTableRecord
  2
_ARDEX_ Lines - Barrier-581485-AB-06 INTERNAL GUTTER -1
340
0
102
{BLKREFS
331
165
102
}
 70
     0
280
     1
281
     0
  0
BLOCK_RECORD
  5
166
330
1
100
AcDbSymbolTableRecord
100
AcDbBlockTableRecord
  2
_ARDEX_ Plywood - 18mm-581489-AB-06 INTERNAL GUTTER -1
340
0
102
{BLKREFS
331
171
102
}
 70
     0
280
     1
281
     0
  0
BLOCK_RECORD
  5
172
330
1
100
AcDbSymbolTableRecord
100
AcDbBlockTableRecord
  2
_ARDEX_ Lining - Various - Roofing - 18mm-581841-AB-06 INTERNAL GUTTER -1
340
0
102
{BLKREFS
331
178
102
}
 70
     0
280
     1
281
     0
  0
BLOCK_RECORD
  5
179
330
1
100
AcDbSymbolTableRecord
100
AcDbBlockTableRecord
  2
_ARDEX_ Framing - Framing-581488-AB-06 INTERNAL GUTTER -1
340
0
102
{BLKREFS
331
182
102
}
 70
     0
280
     1
281
     0
  0
BLOCK_RECORD
  5
183
330
1
100
AcDbSymbolTableRecord
100
AcDbBlockTableRecord
  2
_ARDEX_ Lines - Membrane-581762-AB-06 INTERNAL GUTTER -1
340
0
102
{BLKREFS
331
187
102
}
 70
     0
280
     1
281
     0
  0
BLOCK_RECORD
  5
188
330
1
100
AcDbSymbolTableRecord
100
AcDbBlockTableRecord
  2
_ARDEX_ Lining - Various - Roofing - 18mm-581864-AB-06 INTERNAL GUTTER -1
340
0
102
{BLKREFS
331
18E
102
}
 70
     0
280
     1
281
     0
  0
BLOCK_RECORD
  5
18F
330
1
100
AcDbSymbolTableRecord
100
AcDbBlockTableRecord
  2
_ARDEX_ Framing - Framing-571537-AB-06 INTERNAL GUTTER -1
340
0
102
{BLKREFS
331
197
102
}
 70
     0
280
     1
281
     0
  0
BLOCK_RECORD
  5
198
330
1
100
AcDbSymbolTableRecord
100
AcDbBlockTableRecord
  2
_ARDEX_ Framing - Framing-616598-AB-06 INTERNAL GUTTER -1
340
0
102
{BLKREFS
331
1A1
102
}
 70
     0
280
     1
281
     0
  0
BLOCK_RECORD
  5
1A2
330
1
100
AcDbSymbolTableRecord
100
AcDbBlockTableRecord
  2
_ARDEX_ Framing - Framing-571557-AB-06 INTERNAL GUTTER -1
340
0
102
{BLKREFS
331
1AB
102
}
 70
     0
280
     1
281
     0
  0
BLOCK_RECORD
  5
1AC
330
1
100
AcDbSymbolTableRecord
100
AcDbBlockTableRecord
  2
_ARDEX_ Lining - Various - Cover Board-571549-AB-06 INTERNAL GUTTER -1
340
0
102
{BLKREFS
331
1B8
102
}
 70
     0
280
     1
281
     0
  0
BLOCK_RECORD
  5
1B9
330
1
100
AcDbSymbolTableRecord
100
AcDbBlockTableRecord
  2
_ARDEX_ Lines - Barrier-571555-AB-06 INTERNAL GUTTER -1
340
0
102
{BLKREFS
331
1BD
102
}
 70
     0
280
     1
281
     0
  0
BLOCK_RECORD
  5
1BE
330
1
100
AcDbSymbolTableRecord
100
AcDbBlockTableRecord
  2
_ARDEX_ Lines - Barrier-571553-AB-06 INTERNAL GUTTER -1
340
0
102
{BLKREFS
331
1C2
102
}
 70
     0
280
     1
281
     0
  0
BLOCK_RECORD
  5
1C3
330
1
100
AcDbSymbolTableRecord
100
AcDbBlockTableRecord
  2
_ARDEX_ Framing - Framing-616636-AB-06 INTERNAL GUTTER -1
340
0
102
{BLKREFS
331
1CC
102
}
 70
     0
280
     1
281
     0
  0
BLOCK_RECORD
  5
1F7
330
1
100
AcDbSymbolTableRecord
100
AcDbBlockTableRecord
  2
_Oblique
340
0
102
{BLKREFS
102
}
 70
     0
280
     1
281
     0
  0
BLOCK_RECORD
  5
1FE
330
1
100
AcDbSymbolTableRecord
100
AcDbBlockTableRecord
  2
DIMBLOCK1-AB-06 INTERNAL GUTTER -1
340
0
 70
     0
280
     1
281
     0
  0
BLOCK_RECORD
  5
21D
330
1
100
AcDbSymbolTableRecord
100
AcDbBlockTableRecord
  2
DIMBLOCK2-AB-06 INTERNAL GUTTER -1
340
0
 70
     0
280
     1
281
     0
  0
BLOCK_RECORD
  5
238
330
1
100
AcDbSymbolTableRecord
100
AcDbBlockTableRecord
  2
DIMBLOCK3-AB-06 INTERNAL GUTTER -1
340
0
 70
     0
280
     1
281
     0
  0
BLOCK_RECORD
  5
24E
330
1
100
AcDbSymbolTableRecord
100
AcDbBlockTableRecord
  2
_ARDEX_ Landscape Title block - ARDEX Logo_dwg-603482-INTERNAL GUTTER
340
0
102
{BLKREFS
331
2D9
102
}
 70
     0
280
     1
281
     0
  0
BLOCK_RECORD
  5
2B1
330
1
100
AcDbSymbolTableRecord
100
AcDbBlockTableRecord
  2
_ARDEX_ Landscape Title block - _ARDEX_ Landscape Title block-333213-INTERNAL GUTTER
340
0
102
{BLKREFS
331
2DC
102
}
 70
     0
280
     1
281
     0
  0
ENDTAB
  0
ENDSEC
  0
SECTION
  2
BLOCKS
  0
BLOCK
  5
71
330
70
100
AcDbEntity
  8
0
100
AcDbBlockBegin
  2
*Model_Space
 70
     0
 10
0.0
 20
0.0
 30
0.0
  3
*Model_Space
  1

  0
ENDBLK
  5
72
330
70
100
AcDbEntity
  8
0
100
AcDbBlockEnd
  0
BLOCK
  5
6D
330
6C
100
AcDbEntity
 67
     1
  8
0
100
AcDbBlockBegin
  2
*Paper_Space
 70
     0
 10
0.0
 20
0.0
 30
0.0
  3
*Paper_Space
  1

  0
ENDBLK
  5
6E
330
6C
100
AcDbEntity
 67
     1
  8
0
100
AcDbBlockEnd
  0
BLOCK
  5
75
330
74
100
AcDbEntity
 67
     1
  8
0
100
AcDbBlockBegin
  2
*Paper_Space0
 70
     0
 10
0.0
 20
0.0
 30
0.0
  3
*Paper_Space0
  1

  0
ENDBLK
  5
76
330
74
100
AcDbEntity
 67
     1
  8
0
100
AcDbBlockEnd
  0
BLOCK
  5
C8
330
C0
100
AcDbEntity
  8
0
100
AcDbBlockBegin
  2
_ARDEX_ Fillet - _ARDEX_ Fillet 25mm-376727-AB-06 INTERNAL GUTTER -1
 70
     0
 10
0.0
 20
0.0
 30
0.0
  3
_ARDEX_ Fillet - _ARDEX_ Fillet 25mm-376727-AB-06 INTERNAL GUTTER -1
  1

  0
HATCH
  5
C4
330
C0
100
AcDbEntity
  8
_ARDEX - WELDTEC_
 62
     9
420
 12632256
100
AcDbHatch
 10
0.0
 20
0.0
 30
0.0
210
0.0
220
0.0
230
1.0
  2
SOLID
 70
     1
 71
     0
 91
        1
 92
        1
 93
        3
 72
     1
 10
-24.99999999999716
 20
0.0000000000022334
 11
0.0000000000028422
 21
0.0000000000022334
 72
     1
 10
0.0000000000028425
 20
0.0000000000022334
 11
0.0000000000028425
 21
25.0000000000023
 72
     1
 10
0.0000000000028425
 20
25.0000000000023
 11
-24.99999999999716
 21
0.0000000000022347
 97
        0
 75
     0
 76
     1
 98
        1
 10
0.0
 20
0.0
450
        0
451
        0
460
0.0
461
0.0
452
        0
462
0.0
453
        0
470

1001
REVIT
1002
{
1070
     1
1000
580663
1002
}
1002
{
1070
     5
1000
376727
1002
}
  0
LINE
  5
C5
330
C0
100
AcDbEntity
  8
_ARDEX - BUTYNOL_
370
    25
100
AcDbLine
 10
-25.0
 20
0.0
 30
0.0
 11
0.0
 21
0.0
 31
0.0
1001
REVIT
1002
{
1070
     1
1000
580663
1002
}
1002
{
1070
     5
1000
376727
1002
}
1002
{
1070
     3
1000
335610
1002
}
  0
LINE
  5
C6
330
C0
100
AcDbEntity
  8
_ARDEX - BUTYNOL_
370
    25
100
AcDbLine
 10
0.0
 20
0.0
 30
0.0
 11
0.0
 21
25.0
 31
0.0
1001
REVIT
1002
{
1070
     1
1000
580663
1002
}
1002
{
1070
     5
1000
376727
1002
}
1002
{
1070
     3
1000
335610
1002
}
  0
LINE
  5
C7
330
C0
100
AcDbEntity
  8
_ARDEX - BUTYNOL_
370
    25
100
AcDbLine
 10
0.0
 20
25.0
 30
0.0
 11
-25.0
 21
0.0
 31
0.0
1001
REVIT
1002
{
1070
     1
1000
580663
1002
}
1002
{
1070
     5
1000
376727
1002
}
1002
{
1070
     3
1000
335610
1002
}
  0
ENDBLK
  5
C9
330
C0
100
AcDbEntity
  8
0
100
AcDbBlockEnd
  0
BLOCK
  5
CE
330
CB
100
AcDbEntity
  8
0
100
AcDbBlockBegin
  2
_ARDEX_ Lines - Membrane-571531-AB-06 INTERNAL GUTTER -1
 70
     0
 10
0.0
 20
0.0
 30
0.0
  3
_ARDEX_ Lines - Membrane-571531-AB-06 INTERNAL GUTTER -1
  1

  0
LINE
  5
CD
330
CB
100
AcDbEntity
  8
_ARDEX - BUTYNOL_
  6
Dash
370
   100
100
AcDbLine
 10
32.99999999999633
 20
0.0
 30
0.0
 11
-0.0000000000027072
 21
0.0
 31
0.0
1001
REVIT
1002
{
1070
     1
1000
580664
1002
}
1002
{
1070
     5
1000
569180
1002
}
1002
{
1070
     3
1000
352413
1002
}
  0
ENDBLK
  5
CF
330
CB
100
AcDbEntity
  8
0
100
AcDbBlockEnd
  0
BLOCK
  5
D3
330
D1
100
AcDbEntity
  8
0
100
AcDbBlockBegin
  2
_ARDEX_ Lines - Membrane-571532-AB-06 INTERNAL GUTTER -1
 70
     0
 10
0.0
 20
0.0
 30
0.0
  3
_ARDEX_ Lines - Membrane-571532-AB-06 INTERNAL GUTTER -1
  1

  0
LINE
  5
D2
330
D1
100
AcDbEntity
  8
_ARDEX - BUTYNOL_
  6
Dash
370
   100
100
AcDbLine
 10
228.3309524417025
 20
0.0
 30
0.0
 11
-0.0000000000027072
 21
0.0
 31
0.0
1001
REVIT
1002
{
1070
     1
1000
580665
1002
}
1002
{
1070
     5
1000
569180
1002
}
1002
{
1070
     3
1000
352413
1002
}
  0
ENDBLK
  5
D4
330
D1
100
AcDbEntity
  8
0
100
AcDbBlockEnd
  0
BLOCK
  5
D8
330
D6
100
AcDbEntity
  8
0
100
AcDbBlockBegin
  2
_ARDEX_ Lines - Membrane-581172-AB-06 INTERNAL GUTTER -1
 70
     0
 10
0.0
 20
0.0
 30
0.0
  3
_ARDEX_ Lines - Membrane-581172-AB-06 INTERNAL GUTTER -1
  1

  0
LINE
  5
D7
330
D6
100
AcDbEntity
  8
_ARDEX - BUTYNOL_
  6
Dash
370
   100
100
AcDbLine
 10
108.9091049033499
 20
0.0
 30
0.0
 11
-0.0000000000027072
 21
0.0
 31
0.0
1001
REVIT
1002
{
1070
     1
1000
580666
1002
}
1002
{
1070
     5
1000
569180
1002
}
1002
{
1070
     3
1000
352413
1002
}
  0
ENDBLK
  5
D9
330
D6
100
AcDbEntity
  8
0
100
AcDbBlockEnd
  0
BLOCK
  5
E3
330
DB
100
AcDbEntity
  8
0
100
AcDbBlockBegin
  2
_ARDEX_ Fillet - _ARDEX_ Fillet 25mm-376892-AB-06 INTERNAL GUTTER -1
 70
     0
 10
0.0
 20
0.0
 30
0.0
  3
_ARDEX_ Fillet - _ARDEX_ Fillet 25mm-376892-AB-06 INTERNAL GUTTER -1
  1

  0
HATCH
  5
DF
330
DB
100
AcDbEntity
  8
_ARDEX - WELDTEC_
 62
     9
420
 12632256
100
AcDbHatch
 10
0.0
 20
0.0
 30
0.0
210
0.0
220
0.0
230
1.0
  2
SOLID
 70
     1
 71
     0
 91
        1
 92
        1
 93
        3
 72
     1
 10
-25.00000000000285
 20
-0.0000000000019627
 11
-0.0000000000027747
 21
-25.00000000000203
 72
     1
 10
-0.0000000000027748
 20
-25.00000000000203
 11
-0.0000000000027748
 21
-0.0000000000019611
 72
     1
 10
-0.0000000000027748
 20
-0.0000000000019627
 11
-25.00000000000285
 21
-0.0000000000019627
 97
        0
 75
     0
 76
     1
 98
        1
 10
0.0
 20
0.0
450
        0
451
        0
460
0.0
461
0.0
452
        0
462
0.0
453
        0
470

1001
REVIT
1002
{
1070
     1
1000
580674
1002
}
1002
{
1070
     5
1000
376727
1002
}
  0
LINE
  5
E0
330
DB
100
AcDbEntity
  8
_ARDEX - BUTYNOL_
370
    25
100
AcDbLine
 10
-25.0
 20
0.0
 30
0.0
 11
0.0
 21
-25.0
 31
0.0
1001
REVIT
1002
{
1070
     1
1000
580674
1002
}
1002
{
1070
     5
1000
376727
1002
}
1002
{
1070
     3
1000
335610
1002
}
  0
LINE
  5
E1
330
DB
100
AcDbEntity
  8
_ARDEX - BUTYNOL_
370
    25
100
AcDbLine
 10
0.0
 20
-25.0
 30
0.0
 11
0.0
 21
0.0
 31
0.0
1001
REVIT
1002
{
1070
     1
1000
580674
1002
}
1002
{
1070
     5
1000
376727
1002
}
1002
{
1070
     3
1000
335610
1002
}
  0
LINE
  5
E2
330
DB
100
AcDbEntity
  8
_ARDEX - BUTYNOL_
370
    25
100
AcDbLine
 10
0.0
 20
0.0
 30
0.0
 11
-25.0
 21
0.0
 31
0.0
1001
REVIT
1002
{
1070
     1
1000
580674
1002
}
1002
{
1070
     5
1000
376727
1002
}
1002
{
1070
     3
1000
335610
1002
}
  0
ENDBLK
  5
E4
330
DB
100
AcDbEntity
  8
0
100
AcDbBlockEnd
  0
BLOCK
  5
E8
330
E6
100
AcDbEntity
  8
0
100
AcDbBlockBegin
  2
_ARDEX_ Lines - Membrane-571534-AB-06 INTERNAL GUTTER -1
 70
     0
 10
0.0
 20
0.0
 30
0.0
  3
_ARDEX_ Lines - Membrane-571534-AB-06 INTERNAL GUTTER -1
  1

  0
LINE
  5
E7
330
E6
100
AcDbEntity
  8
_ARDEX - BUTYNOL_
  6
Dash
370
   100
100
AcDbLine
 10
32.99999999997564
 20
0.0
 30
0.0
 11
-0.0000000000027072
 21
0.0
 31
0.0
1001
REVIT
1002
{
1070
     1
1000
580675
1002
}
1002
{
1070
     5
1000
569180
1002
}
1002
{
1070
     3
1000
352413
1002
}
  0
ENDBLK
  5
E9
330
E6
100
AcDbEntity
  8
0
100
AcDbBlockEnd
  0
BLOCK
  5
F8
330
EB
100
AcDbEntity
  8
0
100
AcDbBlockBegin
  2
_ARDEX_ Lining - Various - Polyiso Board-586833-AB-06 INTERNAL GUTTER -1
 70
     0
 10
0.0
 20
0.0
 30
0.0
  3
_ARDEX_ Lining - Various - Polyiso Board-586833-AB-06 INTERNAL GUTTER -1
  1

  0
HATCH
  5
F0
330
EB
100
AcDbEntity
  8
_ARDEX - WELDTEC_
 62
   254
420
 14737632
100
AcDbHatch
 10
0.0
 20
0.0
 30
0.0
210
0.0
220
0.0
230
1.0
  2
SOLID
 70
     1
 71
     0
 91
        1
 92
        1
 93
        4
 72
     1
 10
299.9999999996603
 20
-0.0000000000010152
 11
299.9999999996603
 21
18.0000000000018
 72
     1
 10
299.9999999996603
 20
18.0000000000018
 11
0.0000000000027853
 21
18.0000000000018
 72
     1
 10
0.0000000000028087
 20
18.0000000000018
 11
0.0000000000028087
 21
-0.0000000000010161
 72
     1
 10
0.0000000000028087
 20
-0.0000000000010152
 11
299.9999999996603
 21
-0.0000000000010152
 97
        0
 75
     0
 76
     1
 98
        1
 10
0.0
 20
0.0
450
        0
451
        0
460
0.0
461
0.0
452
        0
462
0.0
453
        0
470

1001
REVIT
1002
{
1070
     1
1000
580680
1002
}
1002
{
1070
     5
1000
563041
1002
}
  0
HATCH
  5
F5
330
EB
100
AcDbEntity
  8
_ARDEX - WELDTEC_
 62
     8
420
  8421504
100
AcDbHatch
 10
0.0
 20
0.0
 30
0.0
210
0.0
220
0.0
230
1.0
  2
FP_1
 70
     0
 71
     0
 91
        1
 92
        1
 93
        4
 72
     1
 10
299.9999999996603
 20
-0.0000000000010152
 11
299.9999999996603
 21
18.0000000000018
 72
     1
 10
299.9999999996603
 20
18.0000000000018
 11
0.0000000000027853
 21
18.0000000000018
 72
     1
 10
0.0000000000028087
 20
18.0000000000018
 11
0.0000000000028087
 21
-0.0000000000010161
 72
     1
 10
0.0000000000028087
 20
-0.0000000000010152
 11
299.9999999996603
 21
-0.0000000000010152
 97
        0
 75
     0
 76
     2
 52
0.0
 41
1.0
 77
     0
 78
     1
 53
135.0
 43
-3637.415
 44
-2489.433
 45
-4.242640687119285
 46
-4.242640687119284
 79
     0
 98
        1
 10
0.0
 20
0.0
1001
REVIT
1002
{
1070
     1
1000
580680
1002
}
1002
{
1070
     5
1000
563041
1002
}
  0
LINE
  5
F6
330
EB
100
AcDbEntity
  8
_ARDEX - BUTYNOL_
370
    25
100
AcDbLine
 10
0.0
 20
18.0
 30
0.0
 11
299.9999999996573
 21
18.0
 31
0.0
1001
REVIT
1002
{
1070
     1
1000
580680
1002
}
1002
{
1070
     5
1000
563041
1002
}
1002
{
1070
     3
1000
335610
1002
}
  0
LINE
  5
F7
330
EB
100
AcDbEntity
  8
_ARDEX - BUTYNOL_
370
    25
100
AcDbLine
 10
0.0
 20
0.0
 30
0.0
 11
299.9999999996573
 21
0.0
 31
0.0
1001
REVIT
1002
{
1070
     1
1000
580680
1002
}
1002
{
1070
     5
1000
563041
1002
}
1002
{
1070
     3
1000
335610
1002
}
  0
ENDBLK
  5
F9
330
EB
100
AcDbEntity
  8
0
100
AcDbBlockEnd
  0
BLOCK
  5
10B
330
FB
100
AcDbEntity
  8
0
100
AcDbBlockBegin
  2
_ARDEX_ Lining - Various - Polyiso Board-586848-AB-06 INTERNAL GUTTER -1
 70
     0
 10
0.0
 20
0.0
 30
0.0
  3
_ARDEX_ Lining - Various - Polyiso Board-586848-AB-06 INTERNAL GUTTER -1
  1

  0
HATCH
  5
100
330
FB
100
AcDbEntity
  8
_ARDEX - WELDTEC_
 62
   254
420
 14737632
100
AcDbHatch
 10
0.0
 20
0.0
 30
0.0
210
0.0
220
0.0
230
1.0
  2
SOLID
 70
     1
 71
     0
 91
        1
 92
        1
 93
        4
 72
     1
 10
190.6814727206997
 20
0.0000000000058204
 11
-0.0000000000022453
 21
0.0000000000058204
 72
     1
 10
-0.0000000000022334
 20
0.0000000000058204
 11
3.173885652750632
 21
-17.99999999999706
 72
     1
 10
3.173885652750632
 20
-17.99999999999706
 11
190.6814727206997
 21
-17.99999999999706
 72
     1
 10
190.6814727206997
 20
-17.99999999999706
 11
190.6814727206997
 21
0.0000000000058193
 97
        0
 75
     0
 76
     1
 98
        1
 10
0.0
 20
0.0
450
        0
451
        0
460
0.0
461
0.0
452
        0
462
0.0
453
        0
470

1001
REVIT
1002
{
1070
     1
1000
580682
1002
}
1002
{
1070
     5
1000
563041
1002
}
  0
HATCH
  5
105
330
FB
100
AcDbEntity
  8
_ARDEX - WELDTEC_
 62
     8
420
  8421504
100
AcDbHatch
 10
0.0
 20
0.0
 30
0.0
210
0.0
220
0.0
230
1.0
  2
FP_2
 70
     0
 71
     0
 91
        1
 92
        1
 93
        4
 72
     1
 10
190.6814727206997
 20
0.0000000000058204
 11
-0.0000000000022453
 21
0.0000000000058204
 72
     1
 10
-0.0000000000022334
 20
0.0000000000058204
 11
3.173885652750632
 21
-17.99999999999706
 72
     1
 10
3.173885652750632
 20
-17.99999999999706
 11
190.6814727206997
 21
-17.99999999999706
 72
     1
 10
190.6814727206997
 20
-17.99999999999706
 11
190.6814727206997
 21
0.0000000000058193
 97
        0
 75
     0
 76
     2
 52
0.0
 41
1.0
 77
     0
 78
     1
 53
225.0
 43
2680.115
 44
-3955.415
 45
4.242640687119285
 46
-4.242640687119284
 79
     0
 98
        1
 10
0.0
 20
0.0
1001
REVIT
1002
{
1070
     1
1000
580682
1002
}
1002
{
1070
     5
1000
563041
1002
}
  0
LINE
  5
106
330
FB
100
AcDbEntity
  8
_ARDEX - BUTYNOL_
370
    25
100
AcDbLine
 10
190.6814727207017
 20
0.0
 30
0.0
 11
190.6814727207017
 21
-18.0
 31
0.0
1001
REVIT
1002
{
1070
     1
1000
580682
1002
}
1002
{
1070
     5
1000
563041
1002
}
1002
{
1070
     3
1000
335610
1002
}
  0
LINE
  5
107
330
FB
100
AcDbEntity
  8
_ARDEX - BUTYNOL_
370
    25
100
AcDbLine
 10
3.173885652752357
 20
-18.0
 30
0.0
 11
0.0
 21
0.0
 31
0.0
1001
REVIT
1002
{
1070
     1
1000
580682
1002
}
1002
{
1070
     5
1000
563041
1002
}
1002
{
1070
     3
1000
335610
1002
}
  0
LINE
  5
108
330
FB
100
AcDbEntity
  8
_ARDEX - BUTYNOL_
370
    25
100
AcDbLine
 10
3.173885652752357
 20
-18.0
 30
0.0
 11
172.6814727207053
 21
-18.0
 31
0.0
1001
REVIT
1002
{
1070
     1
1000
580682
1002
}
1002
{
1070
     5
1000
563041
1002
}
1002
{
1070
     3
1000
335610
1002
}
  0
LINE
  5
109
330
FB
100
AcDbEntity
  8
_ARDEX - BUTYNOL_
370
    25
100
AcDbLine
 10
172.6814727207053
 20
-18.0
 30
0.0
 11
190.6814727207017
 21
-18.0
 31
0.0
1001
REVIT
1002
{
1070
     1
1000
580682
1002
}
1002
{
1070
     5
1000
563041
1002
}
1002
{
1070
     3
1000
335610
1002
}
  0
LINE
  5
10A
330
FB
100
AcDbEntity
  8
_ARDEX - BUTYNOL_
370
    25
100
AcDbLine
 10
18.27767901394333
 20
0.0
 30
0.0
 11
190.6814727207017
 21
0.0
 31
0.0
1001
REVIT
1002
{
1070
     1
1000
580682
1002
}
1002
{
1070
     5
1000
563041
1002
}
1002
{
1070
     3
1000
335610
1002
}
  0
ENDBLK
  5
10C
330
FB
100
AcDbEntity
  8
0
100
AcDbBlockEnd
  0
BLOCK
  5
110
330
10E
100
AcDbEntity
  8
0
100
AcDbBlockBegin
  2
_ARDEX_ Lines - Membrane-580865-AB-06 INTERNAL GUTTER -1
 70
     0
 10
0.0
 20
0.0
 30
0.0
  3
_ARDEX_ Lines - Membrane-580865-AB-06 INTERNAL GUTTER -1
  1

  0
LINE
  5
10F
330
10E
100
AcDbEntity
  8
_ARDEX - BUTYNOL_
  6
Dash
370
   100
100
AcDbLine
 10
133.9290208686703
 20
0.0
 30
0.0
 11
-0.0000000000027072
 21
0.0
 31
0.0
1001
REVIT
1002
{
1070
     1
1000
580685
1002
}
1002
{
1070
     5
1000
569180
1002
}
1002
{
1070
     3
1000
352413
1002
}
  0
ENDBLK
  5
111
330
10E
100
AcDbEntity
  8
0
100
AcDbBlockEnd
  0
BLOCK
  5
11E
330
113
100
AcDbEntity
  8
0
100
AcDbBlockBegin
  2
_ARDEX_ Lining - Various - Cover Board-580925-AB-06 INTERNAL GUTTER -1
 70
     0
 10
0.0
 20
0.0
 30
0.0
  3
_ARDEX_ Lining - Various - Cover Board-580925-AB-06 INTERNAL GUTTER -1
  1

  0
HATCH
  5
119
330
113
100
AcDbEntity
  8
_ARDEX - WELDTEC_
 62
     8
420
  8421504
100
AcDbHatch
 10
0.0
 20
0.0
 30
0.0
210
0.0
220
0.0
230
1.0
  2
FP_3
 70
     0
 71
     0
 91
        1
 92
        1
 93
        5
 72
     1
 10
157.7443172608099
 20
0.0000000000004738
 11
157.7443172608099
 21
10.00000000000321
 72
     1
 10
157.7443172608099
 20
10.00000000000321
 11
-1.763269807087226
 21
10.00000000000321
 72
     1
 10
-1.763269807087222
 20
10.00000000000321
 11
-0.0000000000020981
 21
0.0000000000004068
 72
     1
 10
-0.0000000000020981
 20
0.0000000000004061
 11
3.16851616716164
 21
0.0000000000003384
 72
     1
 10
3.16851616716164
 20
0.0000000000003384
 11
157.7443172608099
 21
0.0000000000004738
 97
        0
 75
     0
 76
     2
 52
0.0
 41
1.0
 77
     0
 78
     2
 53
135.0
 43
2675.178
 44
-3927.415
 45
-7.543415141698089
 46
-7.543415141698087
 79
     0
 53
135.0
 43
2663.748
 44
-3927.415
 45
-7.543415141698089
 46
-7.543415141698087
 79
     0
 98
        1
 10
0.0
 20
0.0
1001
REVIT
1002
{
1070
     1
1000
580688
1002
}
1002
{
1070
     5
1000
571521
1002
}
  0
LINE
  5
11A
330
113
100
AcDbEntity
  8
_ARDEX - BUTYNOL_
370
     9
100
AcDbLine
 10
-1.76326980708465
 20
10.0
 30
0.0
 11
0.0
 21
0.0
 31
0.0
1001
REVIT
1002
{
1070
     1
1000
580688
1002
}
1002
{
1070
     5
1000
571521
1002
}
1002
{
1070
     3
1000
335606
1002
}
  0
LINE
  5
11B
330
113
100
AcDbEntity
  8
_ARDEX - BUTYNOL_
370
     9
100
AcDbLine
 10
157.7443172608118
 20
0.0
 30
0.0
 11
157.7443172608118
 21
10.0
 31
0.0
1001
REVIT
1002
{
1070
     1
1000
580688
1002
}
1002
{
1070
     5
1000
571521
1002
}
1002
{
1070
     3
1000
335606
1002
}
  0
LINE
  5
11C
330
113
100
AcDbEntity
  8
_ARDEX - BUTYNOL_
370
     9
100
AcDbLine
 10
-1.76326980708465
 20
10.0
 30
0.0
 11
157.7443172608118
 21
10.0
 31
0.0
1001
REVIT
1002
{
1070
     1
1000
580688
1002
}
1002
{
1070
     5
1000
571521
1002
}
1002
{
1070
     3
1000
335606
1002
}
  0
LINE
  5
11D
330
113
100
AcDbEntity
  8
_ARDEX - BUTYNOL_
370
     9
100
AcDbLine
 10
0.0
 20
0.0
 30
0.0
 11
157.7443172608118
 21
0.0
 31
0.0
1001
REVIT
1002
{
1070
     1
1000
580688
1002
}
1002
{
1070
     5
1000
571521
1002
}
1002
{
1070
     3
1000
335606
1002
}
  0
ENDBLK
  5
11F
330
113
100
AcDbEntity
  8
0
100
AcDbBlockEnd
  0
BLOCK
  5
123
330
121
100
AcDbEntity
  8
0
100
AcDbBlockBegin
  2
_ARDEX_ Lines - Barrier-581105-AB-06 INTERNAL GUTTER -1
 70
     0
 10
0.0
 20
0.0
 30
0.0
  3
_ARDEX_ Lines - Barrier-581105-AB-06 INTERNAL GUTTER -1
  1

  0
LINE
  5
122
330
121
100
AcDbEntity
  8
_ARDEX - BUTYNOL_
  6
Dash
100
AcDbLine
 10
178.2854286102989
 20
0.0
 30
0.0
 11
-0.0000000000024365
 21
0.0
 31
0.0
1001
REVIT
1002
{
1070
     1
1000
580689
1002
}
1002
{
1070
     5
1000
569184
1002
}
1002
{
1070
     3
1000
342012
1002
}
  0
ENDBLK
  5
124
330
121
100
AcDbEntity
  8
0
100
AcDbBlockEnd
  0
BLOCK
  5
12F
330
126
100
AcDbEntity
  8
0
100
AcDbBlockBegin
  2
_ARDEX_ Plywood - 18mm-580957-AB-06 INTERNAL GUTTER -1
 70
     0
 10
0.0
 20
0.0
 30
0.0
  3
_ARDEX_ Plywood - 18mm-580957-AB-06 INTERNAL GUTTER -1
  1

  0
LINE
  5
127
330
126
100
AcDbEntity
  8
_ARDEX - BUTYNOL_
370
    25
100
AcDbLine
 10
0.0579600720923229
 20
0.0
 30
0.0
 11
77.99655331261968
 21
0.0
 31
0.0
1001
REVIT
1002
{
1070
     1
1000
580758
1002
}
1002
{
1070
     5
1000
502649
1002
}
1002
{
1070
     3
1000
335610
1002
}
  0
LINE
  5
128
330
126
100
AcDbEntity
  8
_ARDEX - BUTYNOL_
370
    25
100
AcDbLine
 10
-3.115925580660198
 20
-18.00000000000033
 30
0.0
 11
74.82266765986722
 21
-18.00000000000033
 31
0.0
1001
REVIT
1002
{
1070
     1
1000
580758
1002
}
1002
{
1070
     5
1000
502649
1002
}
1002
{
1070
     3
1000
335610
1002
}
  0
LINE
  5
129
330
126
100
AcDbEntity
  8
_ARDEX - BUTYNOL_
370
    25
100
AcDbLine
 10
77.99655331261968
 20
0.0
 30
0.0
 11
74.82266765986722
 21
-18.00000000000033
 31
0.0
1001
REVIT
1002
{
1070
     1
1000
580758
1002
}
1002
{
1070
     5
1000
502649
1002
}
1002
{
1070
     3
1000
335610
1002
}
  0
LINE
  5
12A
330
126
100
AcDbEntity
  8
_ARDEX - BUTYNOL_
 62
     8
420
  8421504
370
     9
100
AcDbLine
 10
-2.057963696409271
 20
-12.00000000000022
 30
0.0
 11
75.88062954411803
 21
-12.00000000000022
 31
0.0
1001
REVIT
1002
{
1070
     1
1000
580758
1002
}
1002
{
1070
     5
1000
502649
1002
}
1002
{
1070
     3
1000
335604
1002
}
  0
LINE
  5
12B
330
126
100
AcDbEntity
  8
_ARDEX - BUTYNOL_
 62
     8
420
  8421504
370
     9
100
AcDbLine
 10
-2.5869446385348
 20
-15.00000000000027
 30
0.0
 11
75.35164860199263
 21
-15.00000000000027
 31
0.0
1001
REVIT
1002
{
1070
     1
1000
580758
1002
}
1002
{
1070
     5
1000
502649
1002
}
1002
{
1070
     3
1000
335604
1002
}
  0
LINE
  5
12C
330
126
100
AcDbEntity
  8
_ARDEX - BUTYNOL_
 62
     8
420
  8421504
370
     9
100
AcDbLine
 10
76.93859142836886
 20
-6.000000000000111
 30
0.0
 11
-1.000001812158472
 21
-6.000000000000111
 31
0.0
1001
REVIT
1002
{
1070
     1
1000
580758
1002
}
1002
{
1070
     5
1000
502649
1002
}
1002
{
1070
     3
1000
335604
1002
}
  0
LINE
  5
12D
330
126
100
AcDbEntity
  8
_ARDEX - BUTYNOL_
 62
     8
420
  8421504
370
     9
100
AcDbLine
 10
-0.4710208700330758
 20
-3.000000000000055
 30
0.0
 11
77.46757237049428
 21
-3.000000000000055
 31
0.0
1001
REVIT
1002
{
1070
     1
1000
580758
1002
}
1002
{
1070
     5
1000
502649
1002
}
1002
{
1070
     3
1000
335604
1002
}
  0
LINE
  5
12E
330
126
100
AcDbEntity
  8
_ARDEX - BUTYNOL_
 62
     8
420
  8421504
370
     9
100
AcDbLine
 10
-1.528982754283872
 20
-9.000000000000166
 30
0.0
 11
76.40961048624345
 21
-9.000000000000166
 31
0.0
1001
REVIT
1002
{
1070
     1
1000
580758
1002
}
1002
{
1070
     5
1000
502649
1002
}
1002
{
1070
     3
1000
335604
1002
}
  0
ENDBLK
  5
130
330
126
100
AcDbEntity
  8
0
100
AcDbBlockEnd
  0
BLOCK
  5
139
330
132
100
AcDbEntity
  8
0
100
AcDbBlockBegin
  2
_ARDEX_ Framing - Framing-580764-AB-06 INTERNAL GUTTER -1
 70
     0
 10
0.0
 20
0.0
 30
0.0
  3
_ARDEX_ Framing - Framing-580764-AB-06 INTERNAL GUTTER -1
  1

  0
LINE
  5
133
330
132
100
AcDbEntity
  8
_ARDEX - BUTYNOL_
100
AcDbLine
 10
93.57143336628061
 20
109.0
 30
0.0
 11
75.57143336628072
 21
109.0
 31
0.0
1001
REVIT
1002
{
1070
     1
1000
580757
1002
}
1002
{
1070
     5
1000
489751
1002
}
1002
{
1070
     3
1000
488774
1002
}
  0
LINE
  5
134
330
132
100
AcDbEntity
  8
_ARDEX - BUTYNOL_
100
AcDbLine
 10
75.57143336628072
 20
109.0
 30
0.0
 11
75.57143336628072
 21
83.58889506486221
 31
0.0
1001
REVIT
1002
{
1070
     1
1000
580757
1002
}
1002
{
1070
     5
1000
489751
1002
}
1002
{
1070
     3
1000
488774
1002
}
  0
LINE
  5
135
330
132
100
AcDbEntity
  8
_ARDEX - BUTYNOL_
100
AcDbLine
 10
75.57143336628072
 20
83.58889506486221
 30
0.0
 11
93.57143336628061
 21
86.76278071761464
 31
0.0
1001
REVIT
1002
{
1070
     1
1000
580757
1002
}
1002
{
1070
     5
1000
489751
1002
}
1002
{
1070
     3
1000
488774
1002
}
  0
LINE
  5
136
330
132
100
AcDbEntity
  8
_ARDEX - BUTYNOL_
100
AcDbLine
 10
93.57143336628061
 20
86.76278071761464
 30
0.0
 11
93.57143336628061
 21
109.0
 31
0.0
1001
REVIT
1002
{
1070
     1
1000
580757
1002
}
1002
{
1070
     5
1000
489751
1002
}
1002
{
1070
     3
1000
488774
1002
}
  0
LINE
  5
137
330
132
100
AcDbEntity
  8
_ARDEX - BUTYNOL_
 62
   156
420
    16512
370
     9
100
AcDbLine
 10
75.57143336628072
 20
83.58889506486221
 30
0.0
 11
93.5143538376605
 21
109.0
 31
0.0
1001
REVIT
1002
{
1070
     1
1000
580757
1002
}
1002
{
1070
     5
1000
489751
1002
}
1002
{
1070
     3
1000
488778
1002
}
  0
LINE
  5
138
330
132
100
AcDbEntity
  8
_ARDEX - BUTYNOL_
 62
   156
420
    16512
370
     9
100
AcDbLine
 10
75.57143336628072
 20
109.0
 30
0.0
 11
93.57143336628055
 21
86.76278071761464
 31
0.0
1001
REVIT
1002
{
1070
     1
1000
580757
1002
}
1002
{
1070
     5
1000
489751
1002
}
1002
{
1070
     3
1000
488778
1002
}
  0
ENDBLK
  5
13A
330
132
100
AcDbEntity
  8
0
100
AcDbBlockEnd
  0
BLOCK
  5
13E
330
13C
100
AcDbEntity
  8
0
100
AcDbBlockBegin
  2
_ARDEX_ Lines - Membrane-581480-AB-06 INTERNAL GUTTER -1
 70
     0
 10
0.0
 20
0.0
 30
0.0
  3
_ARDEX_ Lines - Membrane-581480-AB-06 INTERNAL GUTTER -1
  1

  0
LINE
  5
13D
330
13C
100
AcDbEntity
  8
_ARDEX - BUTYNOL_
  6
Dash
370
   100
100
AcDbLine
 10
108.90910490335
 20
0.0
 30
0.0
 11
-0.0000000000027072
 21
0.0
 31
0.0
1001
REVIT
1002
{
1070
     1
1000
581471
1002
}
1002
{
1070
     5
1000
569180
1002
}
1002
{
1070
     3
1000
352413
1002
}
  0
ENDBLK
  5
13F
330
13C
100
AcDbEntity
  8
0
100
AcDbBlockEnd
  0
BLOCK
  5
151
330
141
100
AcDbEntity
  8
0
100
AcDbBlockBegin
  2
_ARDEX_ Lining - Various - Polyiso Board-586851-AB-06 INTERNAL GUTTER -1
 70
     0
 10
0.0
 20
0.0
 30
0.0
  3
_ARDEX_ Lining - Various - Polyiso Board-586851-AB-06 INTERNAL GUTTER -1
  1

  0
HATCH
  5
146
330
141
100
AcDbEntity
  8
_ARDEX - WELDTEC_
 62
   254
420
 14737632
100
AcDbHatch
 10
0.0
 20
0.0
 30
0.0
210
0.0
220
0.0
230
1.0
  2
SOLID
 70
     1
 71
     0
 91
        1
 92
        1
 93
        4
 72
     1
 10
190.6814727206997
 20
18.00000000000298
 11
3.173885652750641
 21
18.00000000000298
 72
     1
 10
3.173885652750632
 20
18.00000000000298
 11
-0.0000000000022333
 21
0.000000000000135
 72
     1
 10
-0.0000000000022334
 20
0.0000000000001354
 11
190.6814727206997
 21
0.0000000000001354
 72
     1
 10
190.6814727206997
 20
0.0000000000001354
 11
190.6814727206997
 21
18.00000000000298
 97
        0
 75
     0
 76
     1
 98
        1
 10
0.0
 20
0.0
450
        0
451
        0
460
0.0
461
0.0
452
        0
462
0.0
453
        0
470

1001
REVIT
1002
{
1070
     1
1000
581472
1002
}
1002
{
1070
     5
1000
563041
1002
}
  0
HATCH
  5
14B
330
141
100
AcDbEntity
  8
_ARDEX - WELDTEC_
 62
     8
420
  8421504
100
AcDbHatch
 10
0.0
 20
0.0
 30
0.0
210
0.0
220
0.0
230
1.0
  2
FP_4
 70
     0
 71
     0
 91
        1
 92
        1
 93
        4
 72
     1
 10
190.6814727206997
 20
18.00000000000298
 11
3.173885652750641
 21
18.00000000000298
 72
     1
 10
3.173885652750632
 20
18.00000000000298
 11
-0.0000000000022333
 21
0.000000000000135
 72
     1
 10
-0.0000000000022334
 20
0.0000000000001354
 11
190.6814727206997
 21
0.0000000000001354
 72
     1
 10
190.6814727206997
 20
0.0000000000001354
 11
190.6814727206997
 21
18.00000000000298
 97
        0
 75
     0
 76
     2
 52
0.0
 41
1.0
 77
     0
 78
     1
 53
225.0
 43
2680.115
 44
-3619.415
 45
4.242640687119285
 46
-4.242640687119284
 79
     0
 98
        1
 10
0.0
 20
0.0
1001
REVIT
1002
{
1070
     1
1000
581472
1002
}
1002
{
1070
     5
1000
563041
1002
}
  0
LINE
  5
14C
330
141
100
AcDbEntity
  8
_ARDEX - BUTYNOL_
370
    25
100
AcDbLine
 10
190.6814727207017
 20
0.0
 30
0.0
 11
190.6814727207017
 21
18.0
 31
0.0
1001
REVIT
1002
{
1070
     1
1000
581472
1002
}
1002
{
1070
     5
1000
563041
1002
}
1002
{
1070
     3
1000
335610
1002
}
  0
LINE
  5
14D
330
141
100
AcDbEntity
  8
_ARDEX - BUTYNOL_
370
    25
100
AcDbLine
 10
3.173885652752357
 20
18.0
 30
0.0
 11
0.0
 21
0.0
 31
0.0
1001
REVIT
1002
{
1070
     1
1000
581472
1002
}
1002
{
1070
     5
1000
563041
1002
}
1002
{
1070
     3
1000
335610
1002
}
  0
LINE
  5
14E
330
141
100
AcDbEntity
  8
_ARDEX - BUTYNOL_
370
    25
100
AcDbLine
 10
3.173885652752357
 20
18.0
 30
0.0
 11
172.6814727207043
 21
18.0
 31
0.0
1001
REVIT
1002
{
1070
     1
1000
581472
1002
}
1002
{
1070
     5
1000
563041
1002
}
1002
{
1070
     3
1000
335610
1002
}
  0
LINE
  5
14F
330
141
100
AcDbEntity
  8
_ARDEX - BUTYNOL_
370
    25
100
AcDbLine
 10
172.6814727207043
 20
18.0
 30
0.0
 11
190.6814727207017
 21
18.0
 31
0.0
1001
REVIT
1002
{
1070
     1
1000
581472
1002
}
1002
{
1070
     5
1000
563041
1002
}
1002
{
1070
     3
1000
335610
1002
}
  0
LINE
  5
150
330
141
100
AcDbEntity
  8
_ARDEX - BUTYNOL_
370
    25
100
AcDbLine
 10
18.27767901394333
 20
0.0
 30
0.0
 11
190.6814727207017
 21
0.0
 31
0.0
1001
REVIT
1002
{
1070
     1
1000
581472
1002
}
1002
{
1070
     5
1000
563041
1002
}
1002
{
1070
     3
1000
335610
1002
}
  0
ENDBLK
  5
152
330
141
100
AcDbEntity
  8
0
100
AcDbBlockEnd
  0
BLOCK
  5
15E
330
154
100
AcDbEntity
  8
0
100
AcDbBlockBegin
  2
_ARDEX_ Lining - Various - Cover Board-581483-AB-06 INTERNAL GUTTER -1
 70
     0
 10
0.0
 20
0.0
 30
0.0
  3
_ARDEX_ Lining - Various - Cover Board-581483-AB-06 INTERNAL GUTTER -1
  1

  0
HATCH
  5
159
330
154
100
AcDbEntity
  8
_ARDEX - WELDTEC_
 62
     8
420
  8421504
100
AcDbHatch
 10
0.0
 20
0.0
 30
0.0
210
0.0
220
0.0
230
1.0
  2
FP_5
 70
     0
 71
     0
 91
        1
 92
        1
 93
        4
 72
     1
 10
157.7443172608098
 20
0.0000000000059896
 11
-0.0000000000022453
 21
0.0000000000060234
 72
     1
 10
-0.0000000000022334
 20
0.0000000000060234
 11
-1.763269807087357
 21
-9.999999999996846
 72
     1
 10
-1.763269807087357
 20
-9.999999999996846
 11
157.7443172608098
 21
-9.999999999996779
 72
     1
 10
157.7443172608098
 20
-9.999999999996779
 11
157.7443172608098
 21
0.0000000000059899
 97
        0
 75
     0
 76
     2
 52
0.0
 41
1.0
 77
     0
 78
     2
 53
135.0
 43
2675.178
 44
-3647.415
 45
-7.543415141698089
 46
-7.543415141698087
 79
     0
 53
135.0
 43
2663.748
 44
-3647.415
 45
-7.543415141698089
 46
-7.543415141698087
 79
     0
 98
        1
 10
0.0
 20
0.0
1001
REVIT
1002
{
1070
     1
1000
581473
1002
}
1002
{
1070
     5
1000
571521
1002
}
  0
LINE
  5
15A
330
154
100
AcDbEntity
  8
_ARDEX - BUTYNOL_
370
     9
100
AcDbLine
 10
-1.76326980708465
 20
-10.0
 30
0.0
 11
0.0
 21
0.0
 31
0.0
1001
REVIT
1002
{
1070
     1
1000
581473
1002
}
1002
{
1070
     5
1000
571521
1002
}
1002
{
1070
     3
1000
335606
1002
}
  0
LINE
  5
15B
330
154
100
AcDbEntity
  8
_ARDEX - BUTYNOL_
370
     9
100
AcDbLine
 10
157.7443172608118
 20
0.0
 30
0.0
 11
157.7443172608118
 21
-10.0
 31
0.0
1001
REVIT
1002
{
1070
     1
1000
581473
1002
}
1002
{
1070
     5
1000
571521
1002
}
1002
{
1070
     3
1000
335606
1002
}
  0
LINE
  5
15C
330
154
100
AcDbEntity
  8
_ARDEX - BUTYNOL_
370
     9
100
AcDbLine
 10
-1.76326980708465
 20
-10.0
 30
0.0
 11
157.7443172608118
 21
-10.0
 31
0.0
1001
REVIT
1002
{
1070
     1
1000
581473
1002
}
1002
{
1070
     5
1000
571521
1002
}
1002
{
1070
     3
1000
335606
1002
}
  0
LINE
  5
15D
330
154
100
AcDbEntity
  8
_ARDEX - BUTYNOL_
370
     9
100
AcDbLine
 10
0.0
 20
0.0
 30
0.0
 11
157.7443172608118
 21
0.0
 31
0.0
1001
REVIT
1002
{
1070
     1
1000
581473
1002
}
1002
{
1070
     5
1000
571521
1002
}
1002
{
1070
     3
1000
335606
1002
}
  0
ENDBLK
  5
15F
330
154
100
AcDbEntity
  8
0
100
AcDbBlockEnd
  0
BLOCK
  5
163
330
161
100
AcDbEntity
  8
0
100
AcDbBlockBegin
  2
_ARDEX_ Lines - Barrier-581485-AB-06 INTERNAL GUTTER -1
 70
     0
 10
0.0
 20
0.0
 30
0.0
  3
_ARDEX_ Lines - Barrier-581485-AB-06 INTERNAL GUTTER -1
  1

  0
LINE
  5
162
330
161
100
AcDbEntity
  8
_ARDEX - BUTYNOL_
  6
Dash
100
AcDbLine
 10
178.2854286102988
 20
0.0
 30
0.0
 11
-0.0000000000024365
 21
0.0
 31
0.0
1001
REVIT
1002
{
1070
     1
1000
581474
1002
}
1002
{
1070
     5
1000
569184
1002
}
1002
{
1070
     3
1000
342012
1002
}
  0
ENDBLK
  5
164
330
161
100
AcDbEntity
  8
0
100
AcDbBlockEnd
  0
BLOCK
  5
16F
330
166
100
AcDbEntity
  8
0
100
AcDbBlockBegin
  2
_ARDEX_ Plywood - 18mm-581489-AB-06 INTERNAL GUTTER -1
 70
     0
 10
0.0
 20
0.0
 30
0.0
  3
_ARDEX_ Plywood - 18mm-581489-AB-06 INTERNAL GUTTER -1
  1

  0
LINE
  5
167
330
166
100
AcDbEntity
  8
_ARDEX - BUTYNOL_
370
    25
100
AcDbLine
 10
0.0579600720923253
 20
0.0
 30
0.0
 11
77.99655331261968
 21
0.0
 31
0.0
1001
REVIT
1002
{
1070
     1
1000
581478
1002
}
1002
{
1070
     5
1000
502649
1002
}
1002
{
1070
     3
1000
335610
1002
}
  0
LINE
  5
168
330
166
100
AcDbEntity
  8
_ARDEX - BUTYNOL_
370
    25
100
AcDbLine
 10
-3.115925580660163
 20
18.00000000000033
 30
0.0
 11
74.82266765986722
 21
18.00000000000033
 31
0.0
1001
REVIT
1002
{
1070
     1
1000
581478
1002
}
1002
{
1070
     5
1000
502649
1002
}
1002
{
1070
     3
1000
335610
1002
}
  0
LINE
  5
169
330
166
100
AcDbEntity
  8
_ARDEX - BUTYNOL_
370
    25
100
AcDbLine
 10
77.99655331261968
 20
0.0
 30
0.0
 11
74.82266765986722
 21
18.00000000000033
 31
0.0
1001
REVIT
1002
{
1070
     1
1000
581478
1002
}
1002
{
1070
     5
1000
502649
1002
}
1002
{
1070
     3
1000
335610
1002
}
  0
LINE
  5
16A
330
166
100
AcDbEntity
  8
_ARDEX - BUTYNOL_
 62
     8
420
  8421504
370
     9
100
AcDbLine
 10
-2.057963696409333
 20
12.00000000000022
 30
0.0
 11
75.88062954411803
 21
12.00000000000022
 31
0.0
1001
REVIT
1002
{
1070
     1
1000
581478
1002
}
1002
{
1070
     5
1000
502649
1002
}
1002
{
1070
     3
1000
335604
1002
}
  0
LINE
  5
16B
330
166
100
AcDbEntity
  8
_ARDEX - BUTYNOL_
 62
     8
420
  8421504
370
     9
100
AcDbLine
 10
-2.586944638534732
 20
15.00000000000027
 30
0.0
 11
75.35164860199263
 21
15.00000000000027
 31
0.0
1001
REVIT
1002
{
1070
     1
1000
581478
1002
}
1002
{
1070
     5
1000
502649
1002
}
1002
{
1070
     3
1000
335604
1002
}
  0
LINE
  5
16C
330
166
100
AcDbEntity
  8
_ARDEX - BUTYNOL_
 62
     8
420
  8421504
370
     9
100
AcDbLine
 10
76.93859142836886
 20
6.000000000000111
 30
0.0
 11
-1.000001812158506
 21
6.000000000000111
 31
0.0
1001
REVIT
1002
{
1070
     1
1000
581478
1002
}
1002
{
1070
     5
1000
502649
1002
}
1002
{
1070
     3
1000
335604
1002
}
  0
LINE
  5
16D
330
166
100
AcDbEntity
  8
_ARDEX - BUTYNOL_
 62
     8
420
  8421504
370
     9
100
AcDbLine
 10
-0.4710208700330734
 20
3.000000000000055
 30
0.0
 11
77.46757237049428
 21
3.000000000000055
 31
0.0
1001
REVIT
1002
{
1070
     1
1000
581478
1002
}
1002
{
1070
     5
1000
502649
1002
}
1002
{
1070
     3
1000
335604
1002
}
  0
LINE
  5
16E
330
166
100
AcDbEntity
  8
_ARDEX - BUTYNOL_
 62
     8
420
  8421504
370
     9
100
AcDbLine
 10
-1.528982754283902
 20
9.000000000000166
 30
0.0
 11
76.40961048624345
 21
9.000000000000166
 31
0.0
1001
REVIT
1002
{
1070
     1
1000
581478
1002
}
1002
{
1070
     5
1000
502649
1002
}
1002
{
1070
     3
1000
335604
1002
}
  0
ENDBLK
  5
170
330
166
100
AcDbEntity
  8
0
100
AcDbBlockEnd
  0
BLOCK
  5
176
330
172
100
AcDbEntity
  8
0
100
AcDbBlockBegin
  2
_ARDEX_ Lining - Various - Roofing - 18mm-581841-AB-06 INTERNAL GUTTER -1
 70
     0
 10
0.0
 20
0.0
 30
0.0
  3
_ARDEX_ Lining - Various - Roofing - 18mm-581841-AB-06 INTERNAL GUTTER -1
  1

  0
LINE
  5
173
330
172
100
AcDbEntity
  8
_ARDEX - BUTYNOL_
370
     9
100
AcDbLine
 10
0.0
 20
-18.0
 30
0.0
 11
0.0
 21
0.0
 31
0.0
1001
REVIT
1002
{
1070
     1
1000
581479
1002
}
1002
{
1070
     5
1000
523041
1002
}
1002
{
1070
     3
1000
335606
1002
}
  0
LINE
  5
174
330
172
100
AcDbEntity
  8
_ARDEX - BUTYNOL_
370
     9
100
AcDbLine
 10
0.0
 20
-18.0
 30
0.0
 11
174.1395856338047
 21
-18.0
 31
0.0
1001
REVIT
1002
{
1070
     1
1000
581479
1002
}
1002
{
1070
     5
1000
523041
1002
}
1002
{
1070
     3
1000
335606
1002
}
  0
LINE
  5
175
330
172
100
AcDbEntity
  8
_ARDEX - BUTYNOL_
370
     9
100
AcDbLine
 10
0.0
 20
0.0
 30
0.0
 11
170.9656999810524
 21
0.0
 31
0.0
1001
REVIT
1002
{
1070
     1
1000
581479
1002
}
1002
{
1070
     5
1000
523041
1002
}
1002
{
1070
     3
1000
335606
1002
}
  0
ENDBLK
  5
177
330
172
100
AcDbEntity
  8
0
100
AcDbBlockEnd
  0
BLOCK
  5
180
330
179
100
AcDbEntity
  8
0
100
AcDbBlockBegin
  2
_ARDEX_ Framing - Framing-581488-AB-06 INTERNAL GUTTER -1
 70
     0
 10
0.0
 20
0.0
 30
0.0
  3
_ARDEX_ Framing - Framing-581488-AB-06 INTERNAL GUTTER -1
  1

  0
LINE
  5
17A
330
179
100
AcDbEntity
  8
_ARDEX - BUTYNOL_
100
AcDbLine
 10
93.57143336628061
 20
-109.0
 30
0.0
 11
93.57143336628061
 21
-86.76278071761464
 31
0.0
1001
REVIT
1002
{
1070
     1
1000
581477
1002
}
1002
{
1070
     5
1000
489751
1002
}
1002
{
1070
     3
1000
488774
1002
}
  0
LINE
  5
17B
330
179
100
AcDbEntity
  8
_ARDEX - BUTYNOL_
100
AcDbLine
 10
93.57143336628061
 20
-86.76278071761464
 30
0.0
 11
75.57143336628072
 21
-83.58889506486221
 31
0.0
1001
REVIT
1002
{
1070
     1
1000
581477
1002
}
1002
{
1070
     5
1000
489751
1002
}
1002
{
1070
     3
1000
488774
1002
}
  0
LINE
  5
17C
330
179
100
AcDbEntity
  8
_ARDEX - BUTYNOL_
100
AcDbLine
 10
75.57143336628072
 20
-83.58889506486221
 30
0.0
 11
75.57143336628072
 21
-109.0
 31
0.0
1001
REVIT
1002
{
1070
     1
1000
581477
1002
}
1002
{
1070
     5
1000
489751
1002
}
1002
{
1070
     3
1000
488774
1002
}
  0
LINE
  5
17D
330
179
100
AcDbEntity
  8
_ARDEX - BUTYNOL_
100
AcDbLine
 10
75.57143336628072
 20
-109.0
 30
0.0
 11
93.57143336628061
 21
-109.0
 31
0.0
1001
REVIT
1002
{
1070
     1
1000
581477
1002
}
1002
{
1070
     5
1000
489751
1002
}
1002
{
1070
     3
1000
488774
1002
}
  0
LINE
  5
17E
330
179
100
AcDbEntity
  8
_ARDEX - BUTYNOL_
 62
   156
420
    16512
370
     9
100
AcDbLine
 10
75.57143336628072
 20
-83.58889506486221
 30
0.0
 11
93.5143538376605
 21
-109.0
 31
0.0
1001
REVIT
1002
{
1070
     1
1000
581477
1002
}
1002
{
1070
     5
1000
489751
1002
}
1002
{
1070
     3
1000
488778
1002
}
  0
LINE
  5
17F
330
179
100
AcDbEntity
  8
_ARDEX - BUTYNOL_
 62
   156
420
    16512
370
     9
100
AcDbLine
 10
75.57143336628072
 20
-109.0
 30
0.0
 11
93.57143336628055
 21
-86.76278071761464
 31
0.0
1001
REVIT
1002
{
1070
     1
1000
581477
1002
}
1002
{
1070
     5
1000
489751
1002
}
1002
{
1070
     3
1000
488778
1002
}
  0
ENDBLK
  5
181
330
179
100
AcDbEntity
  8
0
100
AcDbBlockEnd
  0
BLOCK
  5
185
330
183
100
AcDbEntity
  8
0
100
AcDbBlockBegin
  2
_ARDEX_ Lines - Membrane-581762-AB-06 INTERNAL GUTTER -1
 70
     0
 10
0.0
 20
0.0
 30
0.0
  3
_ARDEX_ Lines - Membrane-581762-AB-06 INTERNAL GUTTER -1
  1

  0
LINE
  5
184
330
183
100
AcDbEntity
  8
_ARDEX - BUTYNOL_
  6
Dash
370
   100
100
AcDbLine
 10
133.9290208686702
 20
0.0
 30
0.0
 11
-0.0000000000027072
 21
0.0
 31
0.0
1001
REVIT
1002
{
1070
     1
1000
581761
1002
}
1002
{
1070
     5
1000
569180
1002
}
1002
{
1070
     3
1000
352413
1002
}
  0
ENDBLK
  5
186
330
183
100
AcDbEntity
  8
0
100
AcDbBlockEnd
  0
BLOCK
  5
18C
330
188
100
AcDbEntity
  8
0
100
AcDbBlockBegin
  2
_ARDEX_ Lining - Various - Roofing - 18mm-581864-AB-06 INTERNAL GUTTER -1
 70
     0
 10
0.0
 20
0.0
 30
0.0
  3
_ARDEX_ Lining - Various - Roofing - 18mm-581864-AB-06 INTERNAL GUTTER -1
  1

  0
LINE
  5
189
330
188
100
AcDbEntity
  8
_ARDEX - BUTYNOL_
370
     9
100
AcDbLine
 10
0.0
 20
18.0
 30
0.0
 11
0.0
 21
0.0
 31
0.0
1001
REVIT
1002
{
1070
     1
1000
581863
1002
}
1002
{
1070
     5
1000
523041
1002
}
1002
{
1070
     3
1000
335606
1002
}
  0
LINE
  5
18A
330
188
100
AcDbEntity
  8
_ARDEX - BUTYNOL_
370
     9
100
AcDbLine
 10
0.0
 20
18.0
 30
0.0
 11
174.1395856338047
 21
18.0
 31
0.0
1001
REVIT
1002
{
1070
     1
1000
581863
1002
}
1002
{
1070
     5
1000
523041
1002
}
1002
{
1070
     3
1000
335606
1002
}
  0
LINE
  5
18B
330
188
100
AcDbEntity
  8
_ARDEX - BUTYNOL_
370
     9
100
AcDbLine
 10
0.0
 20
0.0
 30
0.0
 11
170.9656999810524
 21
0.0
 31
0.0
1001
REVIT
1002
{
1070
     1
1000
581863
1002
}
1002
{
1070
     5
1000
523041
1002
}
1002
{
1070
     3
1000
335606
1002
}
  0
ENDBLK
  5
18D
330
188
100
AcDbEntity
  8
0
100
AcDbBlockEnd
  0
BLOCK
  5
195
330
18F
100
AcDbEntity
  8
0
100
AcDbBlockBegin
  2
_ARDEX_ Framing - Framing-571537-AB-06 INTERNAL GUTTER -1
 70
     0
 10
0.0
 20
0.0
 30
0.0
  3
_ARDEX_ Framing - Framing-571537-AB-06 INTERNAL GUTTER -1
  1

  0
LINE
  5
190
330
18F
100
AcDbEntity
  8
_ARDEX - BUTYNOL_
100
AcDbLine
 10
120.5714333662809
 20
109.0
 30
0.0
 11
75.57143336628072
 21
109.0
 31
0.0
1001
REVIT
1002
{
1070
     1
1000
616484
1002
}
1002
{
1070
     5
1000
489751
1002
}
1002
{
1070
     3
1000
488774
1002
}
  0
LINE
  5
191
330
18F
100
AcDbEntity
  8
_ARDEX - BUTYNOL_
100
AcDbLine
 10
75.57143336628072
 20
63.99999999999929
 30
0.0
 11
120.5714333662809
 21
63.99999999999945
 31
0.0
1001
REVIT
1002
{
1070
     1
1000
616484
1002
}
1002
{
1070
     5
1000
489751
1002
}
1002
{
1070
     3
1000
488774
1002
}
  0
LINE
  5
192
330
18F
100
AcDbEntity
  8
_ARDEX - BUTYNOL_
100
AcDbLine
 10
120.5714333662809
 20
63.99999999999945
 30
0.0
 11
120.5714333662809
 21
109.0
 31
0.0
1001
REVIT
1002
{
1070
     1
1000
616484
1002
}
1002
{
1070
     5
1000
489751
1002
}
1002
{
1070
     3
1000
488774
1002
}
  0
LINE
  5
193
330
18F
100
AcDbEntity
  8
_ARDEX - BUTYNOL_
 62
   156
420
    16512
370
     9
100
AcDbLine
 10
75.57143336628072
 20
63.99999999999927
 30
0.0
 11
120.5143538376608
 21
109.0
 31
0.0
1001
REVIT
1002
{
1070
     1
1000
616484
1002
}
1002
{
1070
     5
1000
489751
1002
}
1002
{
1070
     3
1000
488778
1002
}
  0
LINE
  5
194
330
18F
100
AcDbEntity
  8
_ARDEX - BUTYNOL_
 62
   156
420
    16512
370
     9
100
AcDbLine
 10
75.57143336628072
 20
109.0
 30
0.0
 11
120.5714333662808
 21
63.99999999999946
 31
0.0
1001
REVIT
1002
{
1070
     1
1000
616484
1002
}
1002
{
1070
     5
1000
489751
1002
}
1002
{
1070
     3
1000
488778
1002
}
  0
ENDBLK
  5
196
330
18F
100
AcDbEntity
  8
0
100
AcDbBlockEnd
  0
BLOCK
  5
19F
330
198
100
AcDbEntity
  8
0
100
AcDbBlockBegin
  2
_ARDEX_ Framing - Framing-616598-AB-06 INTERNAL GUTTER -1
 70
     0
 10
0.0
 20
0.0
 30
0.0
  3
_ARDEX_ Framing - Framing-616598-AB-06 INTERNAL GUTTER -1
  1

  0
LINE
  5
199
330
198
100
AcDbEntity
  8
_ARDEX - BUTYNOL_
100
AcDbLine
 10
120.571433366582
 20
-63.99999999999928
 30
0.0
 11
120.571433366582
 21
138.033289393087
 31
0.0
1001
REVIT
1002
{
1070
     1
1000
616485
1002
}
1002
{
1070
     5
1000
489751
1002
}
1002
{
1070
     3
1000
488774
1002
}
  0
LINE
  5
19A
330
198
100
AcDbEntity
  8
_ARDEX - BUTYNOL_
100
AcDbLine
 10
120.571433366582
 20
138.033289393087
 30
0.0
 11
75.57143336628072
 21
145.9680035250211
 31
0.0
1001
REVIT
1002
{
1070
     1
1000
616485
1002
}
1002
{
1070
     5
1000
489751
1002
}
1002
{
1070
     3
1000
488774
1002
}
  0
LINE
  5
19B
330
198
100
AcDbEntity
  8
_ARDEX - BUTYNOL_
100
AcDbLine
 10
75.57143336628072
 20
145.9680035250211
 30
0.0
 11
75.57143336628072
 21
-109.0
 31
0.0
1001
REVIT
1002
{
1070
     1
1000
616485
1002
}
1002
{
1070
     5
1000
489751
1002
}
1002
{
1070
     3
1000
488774
1002
}
  0
LINE
  5
19C
330
198
100
AcDbEntity
  8
_ARDEX - BUTYNOL_
100
AcDbLine
 10
75.57143336628072
 20
-109.0
 30
0.0
 11
120.571433366582
 21
-109.0
 31
0.0
1001
REVIT
1002
{
1070
     1
1000
616485
1002
}
1002
{
1070
     5
1000
489751
1002
}
1002
{
1070
     3
1000
488774
1002
}
  0
LINE
  5
19D
330
198
100
AcDbEntity
  8
_ARDEX - BUTYNOL_
 62
   156
420
    16512
370
     9
100
AcDbLine
 10
75.57143336628072
 20
145.9680035250212
 30
0.0
 11
120.5143538379618
 21
-109.0
 31
0.0
1001
REVIT
1002
{
1070
     1
1000
616485
1002
}
1002
{
1070
     5
1000
489751
1002
}
1002
{
1070
     3
1000
488778
1002
}
  0
LINE
  5
19E
330
198
100
AcDbEntity
  8
_ARDEX - BUTYNOL_
 62
   156
420
    16512
370
     9
100
AcDbLine
 10
75.57143336628072
 20
-109.0
 30
0.0
 11
120.5714333665819
 21
138.033289393087
 31
0.0
1001
REVIT
1002
{
1070
     1
1000
616485
1002
}
1002
{
1070
     5
1000
489751
1002
}
1002
{
1070
     3
1000
488778
1002
}
  0
ENDBLK
  5
1A0
330
198
100
AcDbEntity
  8
0
100
AcDbBlockEnd
  0
BLOCK
  5
1A9
330
1A2
100
AcDbEntity
  8
0
100
AcDbBlockBegin
  2
_ARDEX_ Framing - Framing-571557-AB-06 INTERNAL GUTTER -1
 70
     0
 10
0.0
 20
0.0
 30
0.0
  3
_ARDEX_ Framing - Framing-571557-AB-06 INTERNAL GUTTER -1
  1

  0
LINE
  5
1A3
330
1A2
100
AcDbEntity
  8
_ARDEX - BUTYNOL_
100
AcDbLine
 10
120.5714333662809
 20
-109.0
 30
0.0
 11
120.5714333662809
 21
-63.99999999999945
 31
0.0
1001
REVIT
1002
{
1070
     1
1000
616486
1002
}
1002
{
1070
     5
1000
489751
1002
}
1002
{
1070
     3
1000
488774
1002
}
  0
LINE
  5
1A4
330
1A2
100
AcDbEntity
  8
_ARDEX - BUTYNOL_
100
AcDbLine
 10
120.5714333662809
 20
-63.99999999999945
 30
0.0
 11
75.57143336628072
 21
-63.99999999999929
 31
0.0
1001
REVIT
1002
{
1070
     1
1000
616486
1002
}
1002
{
1070
     5
1000
489751
1002
}
1002
{
1070
     3
1000
488774
1002
}
  0
LINE
  5
1A5
330
1A2
100
AcDbEntity
  8
_ARDEX - BUTYNOL_
100
AcDbLine
 10
75.57143336628072
 20
-63.99999999999929
 30
0.0
 11
75.57143336628072
 21
-109.0
 31
0.0
1001
REVIT
1002
{
1070
     1
1000
616486
1002
}
1002
{
1070
     5
1000
489751
1002
}
1002
{
1070
     3
1000
488774
1002
}
  0
LINE
  5
1A6
330
1A2
100
AcDbEntity
  8
_ARDEX - BUTYNOL_
100
AcDbLine
 10
75.57143336628072
 20
-109.0
 30
0.0
 11
120.5714333662809
 21
-109.0
 31
0.0
1001
REVIT
1002
{
1070
     1
1000
616486
1002
}
1002
{
1070
     5
1000
489751
1002
}
1002
{
1070
     3
1000
488774
1002
}
  0
LINE
  5
1A7
330
1A2
100
AcDbEntity
  8
_ARDEX - BUTYNOL_
 62
   156
420
    16512
370
     9
100
AcDbLine
 10
75.57143336628072
 20
-63.99999999999927
 30
0.0
 11
120.5143538376608
 21
-109.0
 31
0.0
1001
REVIT
1002
{
1070
     1
1000
616486
1002
}
1002
{
1070
     5
1000
489751
1002
}
1002
{
1070
     3
1000
488778
1002
}
  0
LINE
  5
1A8
330
1A2
100
AcDbEntity
  8
_ARDEX - BUTYNOL_
 62
   156
420
    16512
370
     9
100
AcDbLine
 10
75.57143336628072
 20
-109.0
 30
0.0
 11
120.5714333662808
 21
-63.99999999999946
 31
0.0
1001
REVIT
1002
{
1070
     1
1000
616486
1002
}
1002
{
1070
     5
1000
489751
1002
}
1002
{
1070
     3
1000
488778
1002
}
  0
ENDBLK
  5
1AA
330
1A2
100
AcDbEntity
  8
0
100
AcDbBlockEnd
  0
BLOCK
  5
1B6
330
1AC
100
AcDbEntity
  8
0
100
AcDbBlockBegin
  2
_ARDEX_ Lining - Various - Cover Board-571549-AB-06 INTERNAL GUTTER -1
 70
     0
 10
0.0
 20
0.0
 30
0.0
  3
_ARDEX_ Lining - Various - Cover Board-571549-AB-06 INTERNAL GUTTER -1
  1

  0
HATCH
  5
1B1
330
1AC
100
AcDbEntity
  8
_ARDEX - WELDTEC_
 62
     8
420
  8421504
100
AcDbHatch
 10
0.0
 20
0.0
 30
0.0
210
0.0
220
0.0
230
1.0
  2
FP_6
 70
     0
 71
     0
 91
        1
 92
        1
 93
        4
 72
     1
 10
300.000000000003
 20
-0.0000000000008798
 11
300.000000000003
 21
10.00000000000185
 72
     1
 10
300.000000000003
 20
10.00000000000185
 11
0.0000000000026716
 21
10.00000000000185
 72
     1
 10
0.0000000000026733
 20
10.00000000000185
 11
0.0000000000026733
 21
-0.0000000000009468
 72
     1
 10
0.0000000000026733
 20
-0.0000000000009475
 11
300.000000000003
 21
-0.0000000000008798
 97
        0
 75
     0
 76
     2
 52
0.0
 41
1.0
 77
     0
 78
     2
 53
45.0
 43
-3637.415
 44
-2507.433
 45
-7.543415141698089
 46
7.543415141698089
 79
     0
 53
45.0
 43
-3637.415
 44
-2496.003
 45
-7.543415141698089
 46
7.543415141698089
 79
     0
 98
        1
 10
0.0
 20
0.0
1001
REVIT
1002
{
1070
     1
1000
580687
1002
}
1002
{
1070
     5
1000
571521
1002
}
  0
LINE
  5
1B2
330
1AC
100
AcDbEntity
  8
_ARDEX - BUTYNOL_
370
     9
100
AcDbLine
 10
0.0
 20
10.0
 30
0.0
 11
0.0
 21
0.0
 31
0.0
1001
REVIT
1002
{
1070
     1
1000
580687
1002
}
1002
{
1070
     5
1000
571521
1002
}
1002
{
1070
     3
1000
335606
1002
}
  0
LINE
  5
1B3
330
1AC
100
AcDbEntity
  8
_ARDEX - BUTYNOL_
370
     9
100
AcDbLine
 10
300.0
 20
0.0
 30
0.0
 11
300.0
 21
10.0
 31
0.0
1001
REVIT
1002
{
1070
     1
1000
580687
1002
}
1002
{
1070
     5
1000
571521
1002
}
1002
{
1070
     3
1000
335606
1002
}
  0
LINE
  5
1B4
330
1AC
100
AcDbEntity
  8
_ARDEX - BUTYNOL_
370
     9
100
AcDbLine
 10
0.0
 20
10.0
 30
0.0
 11
300.0
 21
10.0
 31
0.0
1001
REVIT
1002
{
1070
     1
1000
580687
1002
}
1002
{
1070
     5
1000
571521
1002
}
1002
{
1070
     3
1000
335606
1002
}
  0
LINE
  5
1B5
330
1AC
100
AcDbEntity
  8
_ARDEX - BUTYNOL_
370
     9
100
AcDbLine
 10
0.0
 20
0.0
 30
0.0
 11
300.0
 21
0.0
 31
0.0
1001
REVIT
1002
{
1070
     1
1000
580687
1002
}
1002
{
1070
     5
1000
571521
1002
}
1002
{
1070
     3
1000
335606
1002
}
  0
ENDBLK
  5
1B7
330
1AC
100
AcDbEntity
  8
0
100
AcDbBlockEnd
  0
BLOCK
  5
1BB
330
1B9
100
AcDbEntity
  8
0
100
AcDbBlockBegin
  2
_ARDEX_ Lines - Barrier-571555-AB-06 INTERNAL GUTTER -1
 70
     0
 10
0.0
 20
0.0
 30
0.0
  3
_ARDEX_ Lines - Barrier-571555-AB-06 INTERNAL GUTTER -1
  1

  0
LINE
  5
1BA
330
1B9
100
AcDbEntity
  8
_ARDEX - BUTYNOL_
  6
Dash
100
AcDbLine
 10
346.0000000006075
 20
0.0
 30
0.0
 11
-0.0000000000024365
 21
0.0
 31
0.0
1001
REVIT
1002
{
1070
     1
1000
580691
1002
}
1002
{
1070
     5
1000
569184
1002
}
1002
{
1070
     3
1000
342012
1002
}
  0
ENDBLK
  5
1BC
330
1B9
100
AcDbEntity
  8
0
100
AcDbBlockEnd
  0
BLOCK
  5
1C0
330
1BE
100
AcDbEntity
  8
0
100
AcDbBlockBegin
  2
_ARDEX_ Lines - Barrier-571553-AB-06 INTERNAL GUTTER -1
 70
     0
 10
0.0
 20
0.0
 30
0.0
  3
_ARDEX_ Lines - Barrier-571553-AB-06 INTERNAL GUTTER -1
  1

  0
LINE
  5
1BF
330
1BE
100
AcDbEntity
  8
_ARDEX - BUTYNOL_
  6
Dash
100
AcDbLine
 10
156.6853541064528
 20
0.0
 30
0.0
 11
-0.0000000000024365
 21
0.0
 31
0.0
1001
REVIT
1002
{
1070
     1
1000
580692
1002
}
1002
{
1070
     5
1000
569184
1002
}
1002
{
1070
     3
1000
342012
1002
}
  0
ENDBLK
  5
1C1
330
1BE
100
AcDbEntity
  8
0
100
AcDbBlockEnd
  0
BLOCK
  5
1CA
330
1C3
100
AcDbEntity
  8
0
100
AcDbBlockBegin
  2
_ARDEX_ Framing - Framing-616636-AB-06 INTERNAL GUTTER -1
 70
     0
 10
0.0
 20
0.0
 30
0.0
  3
_ARDEX_ Framing - Framing-616636-AB-06 INTERNAL GUTTER -1
  1

  0
LINE
  5
1C4
330
1C3
100
AcDbEntity
  8
_ARDEX - BUTYNOL_
100
AcDbLine
 10
120.571433366582
 20
109.0
 30
0.0
 11
75.57143336628072
 21
109.0
 31
0.0
1001
REVIT
1002
{
1070
     1
1000
616635
1002
}
1002
{
1070
     5
1000
489751
1002
}
1002
{
1070
     3
1000
488774
1002
}
  0
LINE
  5
1C5
330
1C3
100
AcDbEntity
  8
_ARDEX - BUTYNOL_
100
AcDbLine
 10
75.57143336628072
 20
108.9999999999999
 30
0.0
 11
75.57143336628072
 21
-145.9680035250211
 31
0.0
1001
REVIT
1002
{
1070
     1
1000
616635
1002
}
1002
{
1070
     5
1000
489751
1002
}
1002
{
1070
     3
1000
488774
1002
}
  0
LINE
  5
1C6
330
1C3
100
AcDbEntity
  8
_ARDEX - BUTYNOL_
100
AcDbLine
 10
75.57143336628072
 20
-145.9680035250211
 30
0.0
 11
120.571433366582
 21
-138.033289393087
 31
0.0
1001
REVIT
1002
{
1070
     1
1000
616635
1002
}
1002
{
1070
     5
1000
489751
1002
}
1002
{
1070
     3
1000
488774
1002
}
  0
LINE
  5
1C7
330
1C3
100
AcDbEntity
  8
_ARDEX - BUTYNOL_
100
AcDbLine
 10
120.571433366582
 20
-138.033289393087
 30
0.0
 11
120.571433366582
 21
109.0
 31
0.0
1001
REVIT
1002
{
1070
     1
1000
616635
1002
}
1002
{
1070
     5
1000
489751
1002
}
1002
{
1070
     3
1000
488774
1002
}
  0
LINE
  5
1C8
330
1C3
100
AcDbEntity
  8
_ARDEX - BUTYNOL_
 62
   156
420
    16512
370
     9
100
AcDbLine
 10
75.57143336628072
 20
-145.9680035250212
 30
0.0
 11
120.5143538379618
 21
109.0
 31
0.0
1001
REVIT
1002
{
1070
     1
1000
616635
1002
}
1002
{
1070
     5
1000
489751
1002
}
1002
{
1070
     3
1000
488778
1002
}
  0
LINE
  5
1C9
330
1C3
100
AcDbEntity
  8
_ARDEX - BUTYNOL_
 62
   156
420
    16512
370
     9
100
AcDbLine
 10
75.57143336628072
 20
109.0
 30
0.0
 11
120.5714333665819
 21
-138.033289393087
 31
0.0
1001
REVIT
1002
{
1070
     1
1000
616635
1002
}
1002
{
1070
     5
1000
489751
1002
}
1002
{
1070
     3
1000
488778
1002
}
  0
ENDBLK
  5
1CB
330
1C3
100
AcDbEntity
  8
0
100
AcDbBlockEnd
  0
BLOCK
  5
1F9
330
1F7
100
AcDbEntity
  8
0
100
AcDbBlockBegin
  2
_Oblique
 70
     0
 10
0.0
 20
0.0
 30
0.0
  3
_Oblique
  1

  0
LINE
  5
1F8
330
1F7
100
AcDbEntity
  8
0
  6
ByBlock
 62
     0
370
    -2
100
AcDbLine
 10
-0.5
 20
-0.5
 30
0.0
 11
0.5
 21
0.5
 31
0.0
  0
ENDBLK
  5
1FA
330
1F7
100
AcDbEntity
  8
0
100
AcDbBlockEnd
  0
BLOCK
  5
1F4
330
1FE
100
AcDbEntity
  8
0
100
AcDbBlockBegin
  2
DIMBLOCK1-AB-06 INTERNAL GUTTER -1
 70
     0
 10
0.0
 20
0.0
 30
0.0
  3
DIMBLOCK1-AB-06 INTERNAL GUTTER -1
  1

  0
LINE
  5
1EA
330
1FE
100
AcDbEntity
  8
_ARDEX - WELDTEC_-3
100
AcDbLine
 10
3640.814568529893
 20
2721.805760024514
 30
0.0
 11
3703.903636279461
 21
2721.805760024514
 31
0.0
1001
REVIT
1002
{
1070
     1
1000
581746
1002
}
1002
{
1070
     5
1000
337368
1002
}
1002
{
1070
     2
1000
-2000260
1002
}
  0
LINE
  5
1EB
330
1FE
100
AcDbEntity
  8
_ARDEX - WELDTEC_-3
370
    18
100
AcDbLine
 10
3697.303636279462
 20
2721.805760024514
 30
0.0
 11
3695.503636279461
 21
2720.005760024514
 31
0.0
1001
REVIT
1002
{
1070
     1
1000
581746
1002
}
1002
{
1070
     5
1000
337368
1002
}
1002
{
1070
     2
1000
-2000260
1002
}
  0
LINE
  5
1EC
330
1FE
100
AcDbEntity
  8
_ARDEX - WELDTEC_-3
370
    18
100
AcDbLine
 10
3697.303636279462
 20
2721.805760024514
 30
0.0
 11
3699.103636279462
 21
2723.605760024515
 31
0.0
1001
REVIT
1002
{
1070
     1
1000
581746
1002
}
1002
{
1070
     5
1000
337368
1002
}
1002
{
1070
     2
1000
-2000260
1002
}
  0
LINE
  5
1ED
330
1FE
100
AcDbEntity
  8
_ARDEX - WELDTEC_-3
100
AcDbLine
 10
3697.303636279463
 20
2721.805760024514
 30
0.0
 11
3697.303636279463
 21
2726.005760024515
 31
0.0
1001
REVIT
1002
{
1070
     1
1000
581746
1002
}
1002
{
1070
     5
1000
337368
1002
}
1002
{
1070
     2
1000
-2000260
1002
}
  0
LINE
  5
1EE
330
1FE
100
AcDbEntity
  8
_ARDEX - WELDTEC_-3
100
AcDbLine
 10
3697.303636279463
 20
2721.805760024514
 30
0.0
 11
3697.303636279463
 21
2706.805760024515
 31
0.0
1001
REVIT
1002
{
1070
     1
1000
581746
1002
}
1002
{
1070
     5
1000
337368
1002
}
1002
{
1070
     2
1000
-2000260
1002
}
  0
LINE
  5
1EF
330
1FE
100
AcDbEntity
  8
_ARDEX - WELDTEC_-3
370
    18
100
AcDbLine
 10
3647.414568529892
 20
2721.805760024514
 30
0.0
 11
3645.614568529893
 21
2720.005760024514
 31
0.0
1001
REVIT
1002
{
1070
     1
1000
581746
1002
}
1002
{
1070
     5
1000
337368
1002
}
1002
{
1070
     2
1000
-2000260
1002
}
  0
LINE
  5
1F0
330
1FE
100
AcDbEntity
  8
_ARDEX - WELDTEC_-3
370
    18
100
AcDbLine
 10
3647.414568529892
 20
2721.805760024514
 30
0.0
 11
3649.214568529892
 21
2723.605760024515
 31
0.0
1001
REVIT
1002
{
1070
     1
1000
581746
1002
}
1002
{
1070
     5
1000
337368
1002
}
1002
{
1070
     2
1000
-2000260
1002
}
  0
LINE
  5
1F1
330
1FE
100
AcDbEntity
  8
_ARDEX - WELDTEC_-3
100
AcDbLine
 10
3647.414568529892
 20
2721.805760024514
 30
0.0
 11
3647.414568529892
 21
2726.005760024515
 31
0.0
1001
REVIT
1002
{
1070
     1
1000
581746
1002
}
1002
{
1070
     5
1000
337368
1002
}
1002
{
1070
     2
1000
-2000260
1002
}
  0
LINE
  5
1F2
330
1FE
100
AcDbEntity
  8
_ARDEX - WELDTEC_-3
100
AcDbLine
 10
3647.414568529892
 20
2721.805760024514
 30
0.0
 11
3647.414568529892
 21
2706.805760024515
 31
0.0
1001
REVIT
1002
{
1070
     1
1000
581746
1002
}
1002
{
1070
     5
1000
337368
1002
}
1002
{
1070
     2
1000
-2000260
1002
}
  0
MTEXT
  5
1F3
330
1FE
100
AcDbEntity
  8
_ARDEX - WELDTEC_-3
 62
     0
100
AcDbMText
 10
3667.936829794399
 20
2731.315883938278
 30
0.0
 40
6.0
 41
10.61345426466803
 46
0.0
 71
     1
 72
     1
  1
50
  7
Swis721 Lt BT
 73
     2
 44
1.005061956881442
1001
REVIT
1002
{
1070
     1
1000
581746
1002
}
1002
{
1070
     5
1000
337368
1002
}
1002
{
1070
     2
1000
-2000260
1002
}
  0
ENDBLK
  5
1F5
330
1E8
100
AcDbEntity
  8
0
100
AcDbBlockEnd
  0
BLOCK
  5
21A
330
21D
100
AcDbEntity
  8
0
100
AcDbBlockBegin
  2
DIMBLOCK2-AB-06 INTERNAL GUTTER -1
 70
     0
 10
0.0
 20
0.0
 30
0.0
  3
DIMBLOCK2-AB-06 INTERNAL GUTTER -1
  1

  0
LINE
  5
210
330
21D
100
AcDbEntity
  8
_ARDEX - WELDTEC_-3
100
AcDbLine
 10
3870.925500780321
 20
2721.805760024514
 30
0.0
 11
3934.014568529891
 21
2721.805760024514
 31
0.0
1001
REVIT
1002
{
1070
     1
1000
581890
1002
}
1002
{
1070
     5
1000
337368
1002
}
1002
{
1070
     2
1000
-2000260
1002
}
  0
LINE
  5
211
330
21D
100
AcDbEntity
  8
_ARDEX - WELDTEC_-3
370
    18
100
AcDbLine
 10
3927.41456852989
 20
2721.805760024514
 30
0.0
 11
3925.614568529891
 21
2720.005760024514
 31
0.0
1001
REVIT
1002
{
1070
     1
1000
581890
1002
}
1002
{
1070
     5
1000
337368
1002
}
1002
{
1070
     2
1000
-2000260
1002
}
  0
LINE
  5
212
330
21D
100
AcDbEntity
  8
_ARDEX - WELDTEC_-3
370
    18
100
AcDbLine
 10
3927.41456852989
 20
2721.805760024514
 30
0.0
 11
3929.214568529891
 21
2723.605760024515
 31
0.0
1001
REVIT
1002
{
1070
     1
1000
581890
1002
}
1002
{
1070
     5
1000
337368
1002
}
1002
{
1070
     2
1000
-2000260
1002
}
  0
LINE
  5
213
330
21D
100
AcDbEntity
  8
_ARDEX - WELDTEC_-3
100
AcDbLine
 10
3927.41456852989
 20
2721.805760024514
 30
0.0
 11
3927.41456852989
 21
2726.005760024515
 31
0.0
1001
REVIT
1002
{
1070
     1
1000
581890
1002
}
1002
{
1070
     5
1000
337368
1002
}
1002
{
1070
     2
1000
-2000260
1002
}
  0
LINE
  5
214
330
21D
100
AcDbEntity
  8
_ARDEX - WELDTEC_-3
100
AcDbLine
 10
3927.41456852989
 20
2721.805760024514
 30
0.0
 11
3927.41456852989
 21
2706.805760024515
 31
0.0
1001
REVIT
1002
{
1070
     1
1000
581890
1002
}
1002
{
1070
     5
1000
337368
1002
}
1002
{
1070
     2
1000
-2000260
1002
}
  0
LINE
  5
215
330
21D
100
AcDbEntity
  8
_ARDEX - WELDTEC_-3
370
    18
100
AcDbLine
 10
3877.525500780321
 20
2721.805760024514
 30
0.0
 11
3875.725500780321
 21
2720.005760024514
 31
0.0
1001
REVIT
1002
{
1070
     1
1000
581890
1002
}
1002
{
1070
     5
1000
337368
1002
}
1002
{
1070
     2
1000
-2000260
1002
}
  0
LINE
  5
216
330
21D
100
AcDbEntity
  8
_ARDEX - WELDTEC_-3
370
    18
100
AcDbLine
 10
3877.525500780321
 20
2721.805760024514
 30
0.0
 11
3879.325500780322
 21
2723.605760024515
 31
0.0
1001
REVIT
1002
{
1070
     1
1000
581890
1002
}
1002
{
1070
     5
1000
337368
1002
}
1002
{
1070
     2
1000
-2000260
1002
}
  0
LINE
  5
217
330
21D
100
AcDbEntity
  8
_ARDEX - WELDTEC_-3
100
AcDbLine
 10
3877.525500780321
 20
2721.805760024514
 30
0.0
 11
3877.525500780321
 21
2726.005760024515
 31
0.0
1001
REVIT
1002
{
1070
     1
1000
581890
1002
}
1002
{
1070
     5
1000
337368
1002
}
1002
{
1070
     2
1000
-2000260
1002
}
  0
LINE
  5
218
330
21D
100
AcDbEntity
  8
_ARDEX - WELDTEC_-3
100
AcDbLine
 10
3877.525500780321
 20
2721.805760024514
 30
0.0
 11
3877.525500780321
 21
2706.805760024515
 31
0.0
1001
REVIT
1002
{
1070
     1
1000
581890
1002
}
1002
{
1070
     5
1000
337368
1002
}
1002
{
1070
     2
1000
-2000260
1002
}
  0
MTEXT
  5
219
330
21D
100
AcDbEntity
  8
_ARDEX - WELDTEC_-3
 62
     0
100
AcDbMText
 10
3898.047762044828
 20
2731.315883938278
 30
0.0
 40
6.0
 41
10.61345426466803
 46
0.0
 71
     1
 72
     1
  1
50
  7
Swis721 Lt BT
 73
     2
 44
1.005061956881442
1001
REVIT
1002
{
1070
     1
1000
581890
1002
}
1002
{
1070
     5
1000
337368
1002
}
1002
{
1070
     2
1000
-2000260
1002
}
  0
ENDBLK
  5
21B
330
20F
100
AcDbEntity
  8
0
100
AcDbBlockEnd
  0
BLOCK
  5
235
330
238
100
AcDbEntity
  8
0
100
AcDbBlockBegin
  2
DIMBLOCK3-AB-06 INTERNAL GUTTER -1
 70
     0
 10
0.0
 20
0.0
 30
0.0
  3
DIMBLOCK3-AB-06 INTERNAL GUTTER -1
  1

  0
LINE
  5
22A
330
238
100
AcDbEntity
  8
_ARDEX - WELDTEC_-3
100
AcDbLine
 10
3640.814568529893
 20
2759.750635766717
 30
0.0
 11
3934.014568529891
 21
2759.750635766717
 31
0.0
1001
REVIT
1002
{
1070
     1
1000
581903
1002
}
1002
{
1070
     5
1000
337368
1002
}
1002
{
1070
     2
1000
-2000260
1002
}
  0
LINE
  5
22B
330
238
100
AcDbEntity
  8
_ARDEX - WELDTEC_-3
370
    18
100
AcDbLine
 10
3927.41456852989
 20
2759.750635766717
 30
0.0
 11
3925.614568529891
 21
2757.950635766717
 31
0.0
1001
REVIT
1002
{
1070
     1
1000
581903
1002
}
1002
{
1070
     5
1000
337368
1002
}
1002
{
1070
     2
1000
-2000260
1002
}
  0
LINE
  5
22C
330
238
100
AcDbEntity
  8
_ARDEX - WELDTEC_-3
370
    18
100
AcDbLine
 10
3927.41456852989
 20
2759.750635766717
 30
0.0
 11
3929.214568529891
 21
2761.550635766717
 31
0.0
1001
REVIT
1002
{
1070
     1
1000
581903
1002
}
1002
{
1070
     5
1000
337368
1002
}
1002
{
1070
     2
1000
-2000260
1002
}
  0
LINE
  5
22D
330
238
100
AcDbEntity
  8
_ARDEX - WELDTEC_-3
100
AcDbLine
 10
3927.41456852989
 20
2759.750635766717
 30
0.0
 11
3927.41456852989
 21
2763.950635766717
 31
0.0
1001
REVIT
1002
{
1070
     1
1000
581903
1002
}
1002
{
1070
     5
1000
337368
1002
}
1002
{
1070
     2
1000
-2000260
1002
}
  0
LINE
  5
22E
330
238
100
AcDbEntity
  8
_ARDEX - WELDTEC_-3
100
AcDbLine
 10
3927.41456852989
 20
2759.750635766717
 30
0.0
 11
3927.41456852989
 21
2744.750635766718
 31
0.0
1001
REVIT
1002
{
1070
     1
1000
581903
1002
}
1002
{
1070
     5
1000
337368
1002
}
1002
{
1070
     2
1000
-2000260
1002
}
  0
LINE
  5
22F
330
238
100
AcDbEntity
  8
_ARDEX - WELDTEC_-3
370
    18
100
AcDbLine
 10
3647.414568529892
 20
2759.750635766717
 30
0.0
 11
3645.614568529893
 21
2757.950635766717
 31
0.0
1001
REVIT
1002
{
1070
     1
1000
581903
1002
}
1002
{
1070
     5
1000
337368
1002
}
1002
{
1070
     2
1000
-2000260
1002
}
  0
LINE
  5
230
330
238
100
AcDbEntity
  8
_ARDEX - WELDTEC_-3
370
    18
100
AcDbLine
 10
3647.414568529892
 20
2759.750635766717
 30
0.0
 11
3649.214568529892
 21
2761.550635766717
 31
0.0
1001
REVIT
1002
{
1070
     1
1000
581903
1002
}
1002
{
1070
     5
1000
337368
1002
}
1002
{
1070
     2
1000
-2000260
1002
}
  0
LINE
  5
231
330
238
100
AcDbEntity
  8
_ARDEX - WELDTEC_-3
100
AcDbLine
 10
3647.414568529892
 20
2759.750635766717
 30
0.0
 11
3647.414568529892
 21
2763.950635766717
 31
0.0
1001
REVIT
1002
{
1070
     1
1000
581903
1002
}
1002
{
1070
     5
1000
337368
1002
}
1002
{
1070
     2
1000
-2000260
1002
}
  0
LINE
  5
232
330
238
100
AcDbEntity
  8
_ARDEX - WELDTEC_-3
100
AcDbLine
 10
3647.414568529892
 20
2759.750635766717
 30
0.0
 11
3647.414568529892
 21
2744.750635766718
 31
0.0
1001
REVIT
1002
{
1070
     1
1000
581903
1002
}
1002
{
1070
     5
1000
337368
1002
}
1002
{
1070
     2
1000
-2000260
1002
}
  0
MTEXT
  5
233
330
238
100
AcDbEntity
  8
_ARDEX - WELDTEC_-3
 62
     0
100
AcDbMText
 10
3691.38089854987
 20
2756.210140111666
 30
0.0
 40
6.0
 41
230.4808079520524
 46
0.0
 71
     1
 72
     1
  1
GUTTER WIDTH ACCORDANCE WITH NZBC E2/AS1
  7
Swis721 Lt BT
 73
     2
 44
1.005061956881442
1001
REVIT
1002
{
1070
     1
1000
581903
1002
}
1002
{
1070
     5
1000
337368
1002
}
1002
{
1070
     2
1000
-2000260
1002
}
  0
MTEXT
  5
234
330
238
100
AcDbEntity
  8
_ARDEX - WELDTEC_-3
 62
     0
100
AcDbMText
 10
3771.182817926256
 20
2769.260759680481
 30
0.0
 40
6.0
 41
38.9562014487247
 46
0.0
 71
     1
 72
     1
  1
300 MIN.
  7
Swis721 Lt BT
 73
     2
 44
1.005061956881442
1001
REVIT
1002
{
1070
     1
1000
581903
1002
}
1002
{
1070
     5
1000
337368
1002
}
1002
{
1070
     2
1000
-2000260
1002
}
  0
ENDBLK
  5
236
330
229
100
AcDbEntity
  8
0
100
AcDbBlockEnd
  0
BLOCK
  5
2AF
330
24E
100
AcDbEntity
  8
0
100
AcDbBlockBegin
  2
_ARDEX_ Landscape Title block - ARDEX Logo_dwg-603482-INTERNAL GUTTER
 70
     0
 10
0.0
 20
0.0
 30
0.0
  3
_ARDEX_ Landscape Title block - ARDEX Logo_dwg-603482-INTERNAL GUTTER
  1

  0
HATCH
  5
2AE
330
24E
100
AcDbEntity
  8
_ARDEX - WELDTEC_
100
AcDbHatch
 10
0.0
 20
0.0
 30
0.0
210
0.0
220
0.0
230
1.0
  2
SOLID
 70
     1
 71
     0
 91
       10
 92
        1
 93
        9
 72
     2
 10
124477.6924476593
 20
57717.91884407958
 40
95604.56878771125
 50
119.6582597659365
 51
135.2772449014122
 73
     1
 72
     2
 10
97569.92099523827
 20
80348.69210974658
 40
60628.55096713104
 50
132.5784142254349
 51
167.1951084870361
 73
     1
 72
     2
 10
84430.2544945385
 20
83335.13079417297
 40
47153.77261030999
 50
167.1951084870365
 51
230.8048915129539
 73
     1
 72
     1
 10
54630.80824474616
 20
46791.03038671248
 11
61031.0658797229
 21
58828.16430584775
 72
     2
 10
101776.0882193553
 20
92587.59123374682
 40
52913.66318785065
 50
140.3564374123571
 51
160.4021121620632
 73
     0
 72
     1
 10
51927.72315465329
 20
74839.45746330507
 11
64132.70340177394
 21
81604.78848708596
 72
     1
 10
64132.70340177394
 20
81604.78848708596
 11
64132.70340177394
 21
42419.71860701207
 72
     1
 10
64132.70340177394
 20
42419.71860701207
 11
77170.09142470383
 21
42419.71860701207
 72
     1
 10
77170.09142470383
 20
42419.71860701207
 11
77170.09142470405
 21
140797.5460612086
 97
        0
 92
        1
 93
       15
 72
     1
 10
99587.9892175987
 20
42419.71860701207
 11
99587.9892175987
 21
93150.58336594923
 72
     1
 10
99587.9892175987
 20
93150.58336594923
 11
104323.244612749
 21
94781.06255447839
 72
     2
 10
104981.1789583829
 20
91893.80516411493
 40
2961.272166041676
 50
257.1629146881614
 51
358.8370853117459
 73
     0
 72
     1
 10
107941.8411889871
 20
91953.90506134176
 11
107941.841188987
 21
42419.71860701207
 72
     1
 10
107941.841188987
 20
42419.71860701207
 11
121218.1847411904
 21
42419.7186070116
 72
     1
 10
121218.1847411904
 20
42419.7186070116
 11
121218.1847411906
 21
100325.0440555206
 72
     2
 10
115257.0429927786
 20
99877.23760612903
 40
5977.937902050918
 50
4.296042690475857
 51
69.70395730952316
 73
     1
 72
     2
 10
117146.8808736564
 20
109112.6270894137
 40
3633.253173235043
 50
272.8987004041956
 51
343.1012995957967
 73
     1
 72
     2
 10
107238.4034856646
 20
112122.807202992
 40
13988.8849002001
 50
343.1012995958001
 51
357.9328247994059
 73
     1
 72
     1
 10
121218.1847411906
 20
111618.2115245613
 11
121218.1847411905
 21
150938.3506316522
 72
     2
 10
117501.9377644241
 20
150938.3506316523
 40
3716.246976766372
 50
359.9999999999992
 51
450.0000000000004
 73
     1
 72
     1
 10
117501.9377644241
 20
154654.5976084187
 11
113759.3810577393
 21
154654.5976084182
 72
     2
 10
138821.7376305251
 20
43198.45589605923
 40
114239.1931098381
 50
102.672909136411
 51
117.4995807340575
 73
     1
 72
     1
 10
86072.69013612203
 20
144530.243755645
 11
86072.69013612182
 21
42419.71860701206
 72
     1
 10
86072.69013612182
 20
42419.71860701207
 11
99587.9892175987
 21
42419.71860701207
 97
        0
 92
        1
 93
        6
 72
     1
 10
99587.9892175987
 20
106990.7139084901
 11
106513.3266407933
 21
109375.2988146446
 72
     2
 10
105781.2900249622
 20
111413.010849934
 40
2165.213140935683
 50
289.7605409069777
 51
356.2394590929184
 73
     1
 72
     1
 10
107941.8411889871
 20
111271.001648431
 11
107941.8411889873
 21
136146.3715334163
 72
     2
 10
106971.8497563286
 20
136110.2439563157
 40
970.663989884431
 50
2.133009904533575
 51
112.1330099047764
 73
     1
 72
     1
 10
106606.1443298939
 20
137009.3813887111
 11
99587.9892175987
 21
133736.7619137283
 72
     1
 10
99587.9892175987
 20
133736.7619137283
 11
99587.9892175987
 21
106990.7139084901
 97
        0
 92
        1
 93
        3
 72
     1
 10
51087.04573740561
 20
89526.02661651836
 11
64132.70340177392
 21
96757.35274203249
 72
     1
 10
64132.70340177394
 20
96757.35274203249
 11
64132.70340177408
 21
113061.0160419619
 72
     2
 10
86373.34223488702
 20
85349.67085119694
 40
35532.58600196028
 50
128.7499156981673
 51
173.2500843018337
 73
     1
 97
        0
 92
        1
 93
        7
 72
     2
 10
159498.6066256473
 20
47171.09768479351
 40
4751.379077781432
 50
269.9999999999983
 51
360.0000000000004
 73
     1
 72
     1
 10
164249.9857034287
 20
47171.09768479354
 11
164249.9857034286
 21
148929.7251247162
 72
     2
 10
153104.0551340759
 20
145652.2312742628
 40
11617.81968342559
 50
16.38612894579416
 51
85.61387105420656
 73
     1
 72
     1
 10
153992.558609905
 20
157236.0258067134
 11
135476.7284421168
 21
157236.025806713
 72
     2
 10
135476.7284421172
 20
132203.633223968
 40
25032.39258274507
 50
90.00000000000087
 51
104.0000000000446
 73
     1
 72
     1
 10
129420.8445770855
 20
156492.4567654637
 11
129420.8445770854
 21
42419.7186070116
 72
     1
 10
129420.8445770854
 20
42419.7186070116
 11
159498.6066256472
 21
42419.71860701208
 97
        0
 92
        1
 93
        6
 72
     1
 10
142697.1881292888
 20
55489.83103482368
 11
149159.4554178724
 21
55489.831034824
 72
     2
 10
149159.4554178724
 20
57304.01776817661
 40
1814.186733352632
 50
270.0000000000007
 51
360.000000000001
 73
     1
 72
     1
 10
150973.642151225
 20
57304.01776817664
 11
150973.642151225
 21
141389.8290366245
 72
     2
 10
148487.8771841638
 20
141389.8290366245
 40
2485.764967061216
 50
0.0000000000003499
 51
90.00000000000033
 73
     1
 72
     1
 10
148487.8771841638
 20
143875.5940036857
 11
142697.1881292891
 21
143875.5940036856
 72
     1
 10
142697.1881292891
 20
143875.5940036856
 11
142697.1881292888
 21
55489.83103482369
 97
        0
 92
        1
 93
       12
 72
     1
 10
172919.8140256379
 20
42419.7186070116
 11
196992.984425274
 21
42419.7186070116
 72
     1
 10
196992.984425274
 20
42419.7186070116
 11
196992.984425274
 21
54546.71171763528
 72
     1
 10
196992.984425274
 20
54546.71171763528
 11
186196.1575778416
 21
54546.71171763528
 72
     1
 10
186196.1575778416
 20
54546.71171763528
 11
186196.1575778406
 21
93476.59036180981
 72
     2
 10
161707.488942156
 20
-25181.90177575424
 40
121159.12119155
 50
281.6609520622133
 51
293.4724250161588
 73
     0
 72
     1
 10
209966.0956403323
 20
85951.52941153274
 11
209966.0956403329
 21
99223.70245050954
 72
     2
 10
169092.3307322618
 20
11417.28922520742
 40
96853.6569327807
 50
65.03808668413701
 51
79.82853623748811
 73
     1
 72
     1
 10
186196.1575778414
 20
106748.763400787
 11
186196.1575778407
 21
134522.6524809155
 72
     2
 10
149649.8952597929
 20
7420.910997906968
 40
132251.585916514
 50
286.0418218054057
 51
291.9581781945935
 73
     0
 72
     1
 10
199102.6932269282
 20
130078.5758650272
 11
199102.6932269291
 21
145460.8194053911
 72
     2
 10
152033.610092587
 20
51290.32160925423
 40
105278.5887171737
 50
63.44281790000926
 51
78.55718209999064
 73
     1
 72
     1
 10
172919.8140256382
 20
154476.3077098232
 11
172919.8140256379
 21
42419.7186070116
 97
        0
 92
        1
 93
       15
 72
     1
 10
200843.9943688388
 20
42419.7186070116
 11
214718.2128208543
 21
42419.7186070116
 72
     1
 10
214718.2128208543
 20
42419.7186070116
 11
225840.6682517806
 21
68725.18316101737
 72
     1
 10
225840.6682517806
 20
68725.18316101737
 11
232246.5421246085
 21
48633.89078637936
 72
     2
 10
215878.5940257774
 20
72169.27135408337
 40
28667.47047495972
 50
304.8171215495268
 51
337.1828784504726
 73
     1
 72
     2
 10
238905.8055971146
 20
62481.42481598525
 40
3685.339995417663
 50
337.1828784504702
 51
369.7138375590516
 73
     1
 72
     1
 10
242538.3079454534
 20
63103.24277257604
 11
234416.0142442291
 21
86692.09649134927
 72
     2
 10
240052.5154725337
 20
88337.50986077392
 40
5871.757083953601
 50
163.7263636887576
 51
201.7263636887611
 73
     0
 72
     1
 10
234597.8742693718
 20
90511.0830934322
 11
240977.2733653132
 21
106520.3588046445
 72
     2
 10
236381.088340801
 20
108071.7744474019
 40
4850.959418109156
 50
341.3481872592003
 51
383.0214723187967
 73
     1
 72
     2
 10
203805.420895314
 20
91153.86535333568
 40
41545.00353168846
 50
26.92877030208263
 51
46.67979184903328
 73
     1
 72
     1
 10
232308.408978194
 20
121379.136051796
 11
228002.309532135
 21
109548.225057822
 72
     1
 10
228002.309532135
 20
109548.225057822
 11
221642.4787337427
 21
132015.9486933683
 72
     2
 10
168731.8755011547
 20
67203.36186232325
 40
83667.21787037084
 50
50.7730691213507
 51
64.40933290079502
 73
     1
 72
     1
 10
204870.9968443084
 20
142663.0680286801
 11
219652.9064905008
 21
89079.28160512716
 72
     1
 10
219652.9064905008
 20
89079.28160512716
 11
200843.9943688388
 21
42419.7186070116
 97
        0
 92
        1
 93
       11
 72
     1
 10
60760.25147079707
 20
33473.4471139251
 11
225743.0881782895
 21
33473.44711392544
 72
     2
 10
195728.5048987643
 20
89689.63940362025
 40
63727.03888457004
 50
298.0983598942144
 51
325.3528772494833
 73
     1
 72
     2
 10
207631.5266048101
 20
81463.83807677157
 40
49258.25409788611
 50
325.3528772494843
 51
362.6471227505195
 73
     1
 72
     2
 10
186230.686382898
 20
80474.39359199833
 40
70681.95505248924
 50
2.647122750518907
 51
35.35287724949006
 73
     1
 72
     2
 10
169807.2708636503
 20
68823.19701422783
 40
90818.46316615475
 50
35.35287724949011
 51
57.50026675947552
 73
     1
 72
     2
 10
145773.4884706048
 20
31097.32782319365
 40
135549.4803950897
 50
57.50026675947544
 51
91.06601590221627
 73
     1
 72
     2
 10
140729.851178483
 20
31097.32782319106
 40
135549.4803950918
 50
88.93398409778516
 51
122.4997332405255
 73
     1
 72
     2
 10
116696.06878544
 20
68823.19701422378
 40
90818.46316615935
 50
122.4997332405263
 51
144.6471227505104
 73
     1
 72
     2
 10
100272.6532661892
 20
80474.39359199847
 40
70681.95505248945
 50
144.6471227505111
 51
177.3528772494822
 73
     1
 72
     2
 10
78871.81304427679
 20
81463.83807677159
 40
49258.25409788603
 50
177.3528772494818
 51
214.6471227505157
 73
     1
 72
     2
 10
90774.83475031492
 20
89689.63940361074
 40
63727.03888455833
 50
214.6471227505147
 51
241.9016401057878
 73
     1
 97
        0
 92
        1
 93
       11
 72
     2
 10
90774.83475032144
 20
89689.63940361852
 40
76114.49352209958
 50
115.6676497836031
 51
145.3528772494841
 73
     0
 72
     2
 10
78871.81304427716
 20
81463.83807677169
 40
61645.7087354179
 50
145.3528772494848
 51
182.6471227505183
 73
     0
 72
     2
 10
100272.6532661902
 20
80474.39359199792
 40
83069.40969002218
 50
182.6471227505189
 51
215.3528772494895
 73
     0
 72
     2
 10
116696.0687854374
 20
68823.19701422652
 40
103205.9178036874
 50
215.3528772494901
 51
237.500266759475
 73
     0
 72
     2
 10
140729.8511784818
 20
31097.32782319603
 40
147936.9350326188
 50
237.5002667594748
 51
270.9767443388683
 73
     0
 72
     2
 10
145773.488470605
 20
31097.32782319397
 40
147936.9350326207
 50
269.0232556611323
 51
302.4997332405255
 73
     0
 72
     2
 10
169807.2708636478
 20
68823.19701422454
 40
103205.9178036901
 50
302.4997332405259
 51
324.6471227505102
 73
     0
 72
     2
 10
186230.6863828967
 20
80474.39359199808
 40
83069.40969002223
 50
324.6471227505111
 51
357.3528772494815
 73
     0
 72
     2
 10
207631.5266048085
 20
81463.8380767721
 40
61645.70873541929
 50
357.3528772494821
 51
394.6471227505164
 73
     0
 72
     2
 10
195728.5048987675
 20
89689.63940361675
 40
76114.49352209723
 50
34.64712275051661
 51
64.33235021639949
 73
     0
 72
     1
 10
228697.516901105
 20
21085.99247639351
 11
57805.82274798077
 21
21085.99247639414
 97
        0
 75
     0
 76
     1
 98
        1
 10
0.0
 20
0.0
450
        0
451
        0
460
0.0
461
0.0
452
        0
462
0.0
453
        0
470

1001
REVIT
1002
{
1070
     1
1000
333399
1002
}
1002
{
1070
     5
1000
333213
1002
}
  0
ENDBLK
  5
2B0
330
24E
100
AcDbEntity
  8
0
100
AcDbBlockEnd
  0
BLOCK
  5
2DA
330
2B1
100
AcDbEntity
  8
0
100
AcDbBlockBegin
  2
_ARDEX_ Landscape Title block - _ARDEX_ Landscape Title block-333213-INTERNAL GUTTER
 70
     0
 10
0.0
 20
0.0
 30
0.0
  3
_ARDEX_ Landscape Title block - _ARDEX_ Landscape Title block-333213-INTERNAL GUTTER
  1

  0
LINE
  5
2B2
330
2B1
100
AcDbEntity
  8
_ARDEX - WELDTEC_
100
AcDbLine
 10
5.3206767357453
 20
0.1047184170705877
 30
0.0
 11
5.3206767357453
 21
20.1047184170714
 31
0.0
1001
REVIT
1002
{
1070
     1
1000
333399
1002
}
1002
{
1070
     5
1000
333213
1002
}
  0
LINE
  5
2B3
330
2B1
100
AcDbEntity
  8
_ARDEX - WELDTEC_
100
AcDbLine
 10
218.5398289799351
 20
10.10471841707111
 30
0.0
 11
255.7980057156809
 21
10.10471841707111
 31
0.0
1001
REVIT
1002
{
1070
     1
1000
333399
1002
}
1002
{
1070
     5
1000
333213
1002
}
  0
LINE
  5
2B4
330
2B1
100
AcDbEntity
  8
_ARDEX - WELDTEC_
100
AcDbLine
 10
285.3206767356986
 20
0.104718417071116
 30
0.0
 11
285.3206767356986
 21
20.10471841707112
 31
0.0
1001
REVIT
1002
{
1070
     1
1000
333399
1002
}
1002
{
1070
     5
1000
333213
1002
}
  0
LINE
  5
2B5
330
2B1
100
AcDbEntity
  8
_ARDEX - WELDTEC_
100
AcDbLine
 10
93.03982897993519
 20
0.1047184170707532
 30
0.0
 11
93.03982897993519
 21
20.10471841707112
 31
0.0
1001
REVIT
1002
{
1070
     1
1000
333399
1002
}
1002
{
1070
     5
1000
333213
1002
}
  0
LINE
  5
2B6
330
2B1
100
AcDbEntity
  8
_ARDEX - WELDTEC_
100
AcDbLine
 10
285.3206767356986
 20
0.1047184170711139
 30
0.0
 11
5.320676735745351
 21
0.1047184170711139
 31
0.0
1001
REVIT
1002
{
1070
     1
1000
333399
1002
}
1002
{
1070
     5
1000
333213
1002
}
  0
LINE
  5
2B7
330
2B1
100
AcDbEntity
  8
_ARDEX - WELDTEC_
100
AcDbLine
 10
5.3206767357453
 20
20.10471841707112
 30
0.0
 11
285.3206767356986
 21
20.10471841707112
 31
0.0
1001
REVIT
1002
{
1070
     1
1000
333399
1002
}
1002
{
1070
     5
1000
333213
1002
}
  0
LINE
  5
2B8
330
2B1
100
AcDbEntity
  8
_ARDEX - WELDTEC_
100
AcDbLine
 10
218.5398289799351
 20
20.10471841707112
 30
0.0
 11
218.5398289799351
 21
0.1047184170711139
 31
0.0
1001
REVIT
1002
{
1070
     1
1000
333399
1002
}
1002
{
1070
     5
1000
333213
1002
}
  0
LINE
  5
2B9
330
2B1
100
AcDbEntity
  8
_ARDEX - WELDTEC_
100
AcDbLine
 10
255.7980057156809
 20
0.1047184170711139
 30
0.0
 11
255.7980057156809
 21
20.10471841707112
 31
0.0
1001
REVIT
1002
{
1070
     1
1000
333399
1002
}
1002
{
1070
     5
1000
333213
1002
}
  0
ARC
  5
2BA
330
2B1
100
AcDbEntity
  8
_ARDEX - WELDTEC_
100
AcDbCircle
 10
264.796839942536
 20
8.615450092703692
 30
0.0
 40
3.599904939316393
100
AcDbArc
 50
128.7499156981656
 51
173.2500843018355
1001
REVIT
1002
{
1070
     1
1000
333399
1002
}
1002
{
1070
     5
1000
333213
1002
}
  0
LINE
  5
2BB
330
2B1
100
AcDbEntity
  8
_ARDEX - WELDTEC_
100
AcDbLine
 10
261.2218872767082
 20
9.038568290379725
 30
0.0
 11
262.5435790742037
 21
9.771194016962342
 31
0.0
1001
REVIT
1002
{
1070
     1
1000
333399
1002
}
1002
{
1070
     5
1000
333213
1002
}
  0
LINE
  5
2BC
330
2B1
100
AcDbEntity
  8
_ARDEX - WELDTEC_
100
AcDbLine
 10
262.5435790742037
 20
9.771194016962342
 30
0.0
 11
262.5435790742037
 21
11.42296341081213
 31
0.0
1001
REVIT
1002
{
1070
     1
1000
333399
1002
}
1002
{
1070
     5
1000
333213
1002
}
  0
LINE
  5
2BD
330
2B1
100
AcDbEntity
  8
_ARDEX - WELDTEC_
100
AcDbLine
 10
266.135652517049
 20
10.80796424829059
 30
0.0
 11
266.9820044536196
 21
11.09938659061303
 31
0.0
1001
REVIT
1002
{
1070
     1
1000
333399
1002
}
1002
{
1070
     5
1000
333213
1002
}
  0
LINE
  5
2BE
330
2B1
100
AcDbEntity
  8
_ARDEX - WELDTEC_
100
AcDbLine
 10
266.9820044536196
 20
11.09938659061303
 30
0.0
 11
266.9820044536196
 21
13.91234101803237
 31
0.0
1001
REVIT
1002
{
1070
     1
1000
333399
1002
}
1002
{
1070
     5
1000
333213
1002
}
  0
LINE
  5
2BF
330
2B1
100
AcDbEntity
  8
_ARDEX - WELDTEC_
100
AcDbLine
 10
266.9820044536196
 20
13.91234101803237
 30
0.0
 11
266.135652517049
 21
13.5176806285152
 31
0.0
1001
REVIT
1002
{
1070
     1
1000
333399
1002
}
1002
{
1070
     5
1000
333213
1002
}
  0
LINE
  5
2C0
330
2B1
100
AcDbEntity
  8
_ARDEX - WELDTEC_
100
AcDbLine
 10
266.135652517049
 20
13.5176806285152
 30
0.0
 11
266.135652517049
 21
10.80796424829059
 31
0.0
1001
REVIT
1002
{
1070
     1
1000
333399
1002
}
1002
{
1070
     5
1000
333213
1002
}
  0
LINE
  5
2C1
330
2B1
100
AcDbEntity
  8
_ARDEX - WELDTEC_
100
AcDbLine
 10
270.5031651456994
 20
5.590266819067713
 30
0.0
 11
271.3408089774199
 21
5.590266819067713
 31
0.0
1001
REVIT
1002
{
1070
     1
1000
333399
1002
}
1002
{
1070
     5
1000
333213
1002
}
  0
LINE
  5
2C2
330
2B1
100
AcDbEntity
  8
_ARDEX - WELDTEC_
100
AcDbLine
 10
271.3408089774199
 20
5.590266819067713
 30
0.0
 11
271.3408089774199
 21
14.54487385665581
 31
0.0
1001
REVIT
1002
{
1070
     1
1000
333399
1002
}
1002
{
1070
     5
1000
333213
1002
}
  0
LINE
  5
2C3
330
2B1
100
AcDbEntity
  8
_ARDEX - WELDTEC_
100
AcDbLine
 10
271.3408089774199
 20
14.54487385665581
 30
0.0
 11
270.5031651456994
 21
14.54487385665581
 31
0.0
1001
REVIT
1002
{
1070
     1
1000
333399
1002
}
1002
{
1070
     5
1000
333213
1002
}
  0
LINE
  5
2C4
330
2B1
100
AcDbEntity
  8
_ARDEX - WELDTEC_
100
AcDbLine
 10
270.5031651456994
 20
14.54487385665581
 30
0.0
 11
270.5031651456994
 21
5.590266819067713
 31
0.0
1001
REVIT
1002
{
1070
     1
1000
333399
1002
}
1002
{
1070
     5
1000
333213
1002
}
  0
MTEXT
  5
2C6
330
2B1
100
AcDbEntity
  8
_ARDEX - WELDTEC_
100
AcDbMText
 10
95.1576274176504
 20
8.67341586252181
 30
0.0
 40
1.5
 41
13.275945
 46
0.0
 71
     1
 72
     1
  1
SHEET TITLE
  7
Swis721 Lt BT_1
 73
     2
 44
1.0
1001
REVIT
1002
{
1070
     1
1000
333399
1002
}
1002
{
1070
     5
1000
333213
1002
}
  0
MTEXT
  5
2C7
330
2B1
100
AcDbEntity
  8
_ARDEX - WELDTEC_
100
AcDbMText
 10
220.3053465833535
 20
13.82166287222621
 30
0.0
 40
1.5
 41
9.95695875
 46
0.0
 71
     1
 72
     1
  1
DWG NO.
  7
Swis721 Lt BT_1
 73
     2
 44
1.0
1001
REVIT
1002
{
1070
     1
1000
333399
1002
}
1002
{
1070
     5
1000
333213
1002
}
  0
MTEXT
  5
2C8
330
2B1
100
AcDbEntity
  8
_ARDEX - WELDTEC_
100
AcDbMText
 10
220.3053465833535
 20
3.82166287222594
 30
0.0
 40
1.5
 41
6.998731874999998
 46
0.0
 71
     1
 72
     1
  1
SCALE
  7
Swis721 Lt BT_1
 73
     2
 44
1.0
1001
REVIT
1002
{
1070
     1
1000
333399
1002
}
1002
{
1070
     5
1000
333213
1002
}
  0
MTEXT
  5
2CA
330
2B1
100
AcDbEntity
  8
_ARDEX - WELDTEC_
100
AcDbMText
 10
239.0752451580743
 20
4.127661816395773
 30
0.0
 40
2.1
 41
8.730376874999999
 46
0.0
 71
     1
 72
     1
  1
@  A4
  7
Swis721 Lt BT_2
 73
     2
 44
1.0
1001
REVIT
1002
{
1070
     1
1000
333399
1002
}
1002
{
1070
     5
1000
333213
1002
}
  0
MTEXT
  5
2CB
330
2B1
100
AcDbEntity
  8
_ARDEX - WELDTEC_
100
AcDbMText
 10
220.3053465833535
 20
7.734351438880705
 30
0.0
 40
1.5
 41
5.62784625
 46
0.0
 71
     1
 72
     1
  1
DATE
  7
Swis721 Lt BT_1
 73
     2
 44
1.0
1001
REVIT
1002
{
1070
     1
1000
333399
1002
}
1002
{
1070
     5
1000
333213
1002
}
  0
MTEXT
  5
2CD
330
2B1
100
AcDbEntity
  8
_ARDEX - WELDTEC_
100
AcDbMText
 10
6.949872989435805
 20
8.938253401590928
 30
0.0
 40
0.7000000000000001
 41
6.6379725
 46
0.0
 71
     1
 72
     1
  1
Disclaimer: 
  7
Swis721 Lt BT_B
 73
     2
 44
1.0
1001
REVIT
1002
{
1070
     1
1000
333399
1002
}
1002
{
1070
     5
1000
333213
1002
}
  0
MTEXT
  5
2CF
330
2B1
100
AcDbEntity
  8
_ARDEX - WELDTEC_
100
AcDbMText
 10
12.4267479894358
 20
8.938253401590928
 30
0.0
 40
0.7000000000000001
 41
17.821513125
 46
0.0
 71
     1
 72
     1
  1
Ardex makes every reasonable effort
  7
Swis721 Lt BT_3
 73
     2
 44
1.0
1001
REVIT
1002
{
1070
     1
1000
333399
1002
}
1002
{
1070
     5
1000
333213
1002
}
  0
MTEXT
  5
2D0
330
2B1
100
AcDbEntity
  8
_ARDEX - WELDTEC_
100
AcDbMText
 10
27.13096673943581
 20
8.938253401590928
 30
0.0
 40
0.7000000000000001
 41
0.3607593750000011
 46
0.0
 71
     1
 72
     1
  1
\fSwis721 Lt BT|b1|i0|c0|p34|;\W.9; 
  7
Swis721 Lt BT_B
 73
     2
 44
1.0
1001
REVIT
1002
{
1070
     1
1000
333399
1002
}
1002
{
1070
     5
1000
333213
1002
}
  0
MTEXT
  5
2D1
330
2B1
100
AcDbEntity
  8
_ARDEX - WELDTEC_
100
AcDbMText
 10
27.42862298943581
 20
8.938253401590928
 30
0.0
 40
0.7000000000000001
 41
13.27594499999999
 46
0.0
 71
     1
 72
     1
  1
to ensure that the technical
  7
Swis721 Lt BT_3
 73
     2
 44
1.0
1001
REVIT
1002
{
1070
     1
1000
333399
1002
}
1002
{
1070
     5
1000
333213
1002
}
  0
MTEXT
  5
2D2
330
2B1
100
AcDbEntity
  8
_ARDEX - WELDTEC_
100
AcDbMText
 10
38.3823729894358
 20
8.938253401590928
 30
0.0
 40
0.7000000000000001
 41
0.3607593750000057
 46
0.0
 71
     1
 72
     1
  1
\fSwis721 Lt BT|b1|i0|c0|p34|;\W.9; 
  7
Swis721 Lt BT_B
 73
     2
 44
1.0
1001
REVIT
1002
{
1070
     1
1000
333399
1002
}
1002
{
1070
     5
1000
333213
1002
}
  0
MTEXT
  5
2D3
330
2B1
100
AcDbEntity
  8
_ARDEX - WELDTEC_
100
AcDbMText
 10
38.6800292394358
 20
8.938253401590928
 30
0.0
 40
0.7000000000000001
 41
59.95820812499999
 46
0.0
 71
     1
 72
     1
  1
details, recommendations and other information contained in this drawing are accurate and represent our knowledge and 
  7
Swis721 Lt BT_3
 73
     2
 44
1.0
1001
REVIT
1002
{
1070
     1
1000
333399
1002
}
1002
{
1070
     5
1000
333213
1002
}
  0
MTEXT
  5
2D4
330
2B1
100
AcDbEntity
  8
_ARDEX - WELDTEC_
100
AcDbMText
 10
6.949872989435805
 20
7.681482568257595
 30
0.0
 40
0.7000000000000001
 41
98.920220625
 46
0.0
 71
     1
 72
     1
  1
experience at the time of design and publication. Ardex reserves the right to change the information without prior notice.  Ardex provides the information in good faith with no representations or warranties 
  7
Swis721 Lt BT_3
 73
     2
 44
1.0
1001
REVIT
1002
{
1070
     1
1000
333399
1002
}
1002
{
1070
     5
1000
333213
1002
}
  0
MTEXT
  5
2D5
330
2B1
100
AcDbEntity
  8
_ARDEX - WELDTEC_
100
AcDbMText
 10
6.949872989435805
 20
6.424711734924262
 30
0.0
 40
0.7000000000000001
 41
100.1468025
 46
0.0
 71
     1
 72
     1
  1
(whether implied or otherwise), and will not be liable for any losses or damages (whether direct, indirect or consequential) whatsoever, whether in contract, negligence  or any other action, arising out of or in 
  7
Swis721 Lt BT_3
 73
     2
 44
1.0
1001
REVIT
1002
{
1070
     1
1000
333399
1002
}
1002
{
1070
     5
1000
333213
1002
}
  0
MTEXT
  5
2D6
330
2B1
100
AcDbEntity
  8
_ARDEX - WELDTEC_
100
AcDbMText
 10
6.949872989435805
 20
5.167940901590927
 30
0.0
 40
0.7000000000000001
 41
29.221509375
 46
0.0
 71
     1
 72
     1
  1
connection with the use, or inability to use, the information.  
  7
Swis721 Lt BT_3
 73
     2
 44
1.0
1001
REVIT
1002
{
1070
     1
1000
333399
1002
}
1002
{
1070
     5
1000
333213
1002
}
  0
MTEXT
  5
2D7
330
2B1
100
AcDbEntity
  8
_ARDEX - WELDTEC_
100
AcDbMText
 10
6.949872989435805
 20
3.911170068257595
 30
0.0
 40
0.7000000000000001
 41
100.1468025
 46
0.0
 71
     1
 72
     1
  1
It is your responsibility to ensure that our products are used only for the purposes for which they are intended and are used in accordance with any applicable specifications, guidelines, standards, codes of 
  7
Swis721 Lt BT_3
 73
     2
 44
1.0
1001
REVIT
1002
{
1070
     1
1000
333399
1002
}
1002
{
1070
     5
1000
333213
1002
}
  0
MTEXT
  5
2D8
330
2B1
100
AcDbEntity
  8
_ARDEX - WELDTEC_
100
AcDbMText
 10
6.949872989435805
 20
2.654399234924261
 30
0.0
 40
0.7000000000000001
 41
79.94427750000001
 46
0.0
 71
     1
 72
     1
  1
practice, regulations and laws. The supply of our products and services are also subject to certain terms, warranties and exclusions which are available on request.
  7
Swis721 Lt BT_3
 73
     2
 44
1.0
1001
REVIT
1002
{
1070
     1
1000
333399
1002
}
1002
{
1070
     5
1000
333213
1002
}
  0
INSERT
  5
2D9
330
2B1
100
AcDbEntity
  8
0
100
AcDbBlockReference
  2
_ARDEX_ Landscape Title block - ARDEX Logo_dwg-603482-INTERNAL GUTTER
 10
256.0461168367232
 20
-0.0315620231414024
 30
0.0
 41
0.0001013127763658
 42
0.0001013127763658
 43
0.0001013127763658
  0
ENDBLK
  5
2DB
330
2B1
100
AcDbEntity
  8
0
100
AcDbBlockEnd
  0
ENDSEC
  0
SECTION
  2
ENTITIES
  0
LINE
  5
BE
330
70
100
AcDbEntity
  8
_ARDEX - BUTYNOL_
100
AcDbLine
 10
3965.414568530197
 20
2479.433257459894
 30
0.0
 11
3609.414568529585
 21
2479.433257459895
 31
0.0
1001
REVIT
1002
{
1070
     1
1000
581243
1002
}
1002
{
1070
     5
1000
581377
1002
}
1002
{
1070
     2
1000
-2000051
1002
}
1002
{
1070
     3
1000
330674
1002
}
  0
LINE
  5
BF
330
70
100
AcDbEntity
  8
_ARDEX - BUTYNOL_
100
AcDbLine
 10
3654.414568529585
 20
2461.450690795964
 30
0.0
 11
3920.414568530197
 21
2461.450690795963
 31
0.0
1001
REVIT
1002
{
1070
     1
1000
581243
1002
}
1002
{
1070
     5
1000
581377
1002
}
1002
{
1070
     2
1000
-2000051
1002
}
1002
{
1070
     3
1000
330674
1002
}
  0
INSERT
  5
CA
330
70
100
AcDbEntity
  8
_ARDEX - WELDTEC_
100
AcDbBlockReference
  2
_ARDEX_ Fillet - _ARDEX_ Fillet 25mm-376727-AB-06 INTERNAL GUTTER -1
 10
3927.414568529889
 20
2517.433257459898
 30
0.0
1001
REVIT
1002
{
1070
     1
1000
580663
1002
}
1002
{
1070
     5
1000
376727
1002
}
1002
{
1070
     2
1000
-2002000
1002
}
  0
INSERT
  5
D0
330
70
100
AcDbEntity
  8
_ARDEX - WELDTEC_
100
AcDbBlockReference
  2
_ARDEX_ Lines - Membrane-571531-AB-06 INTERNAL GUTTER -1
 10
3901.580044750737
 20
2519.933257459894
 30
0.0
 50
45.0
1001
REVIT
1002
{
1070
     1
1000
580664
1002
}
1002
{
1070
     5
1000
569180
1002
}
1002
{
1070
     2
1000
-2002000
1002
}
  0
INSERT
  5
D5
330
70
100
AcDbEntity
  8
_ARDEX - WELDTEC_
100
AcDbBlockReference
  2
_ARDEX_ Lines - Membrane-571532-AB-06 INTERNAL GUTTER -1
 10
3673.249092309032
 20
2519.933257459895
 30
0.0
1001
REVIT
1002
{
1070
     1
1000
580665
1002
}
1002
{
1070
     5
1000
569180
1002
}
1002
{
1070
     2
1000
-2002000
1002
}
  0
INSERT
  5
DA
330
70
100
AcDbEntity
  8
_ARDEX - WELDTEC_
100
AcDbBlockReference
  2
_ARDEX_ Lines - Membrane-581172-AB-06 INTERNAL GUTTER -1
 10
4032.169099412334
 20
2696.108669705526
 30
0.0
 50
190.0
1001
REVIT
1002
{
1070
     1
1000
580666
1002
}
1002
{
1070
     5
1000
569180
1002
}
1002
{
1070
     2
1000
-2002000
1002
}
  0
INSERT
  5
E5
330
70
100
AcDbEntity
  8
_ARDEX - WELDTEC_
100
AcDbBlockReference
  2
_ARDEX_ Fillet - _ARDEX_ Fillet 25mm-376892-AB-06 INTERNAL GUTTER -1
 10
3647.414568529891
 20
2517.433257459895
 30
0.0
 50
180.0
1001
REVIT
1002
{
1070
     1
1000
580674
1002
}
1002
{
1070
     5
1000
376727
1002
}
1002
{
1070
     2
1000
-2002000
1002
}
  0
INSERT
  5
EA
330
70
100
AcDbEntity
  8
_ARDEX - WELDTEC_
100
AcDbBlockReference
  2
_ARDEX_ Lines - Membrane-571534-AB-06 INTERNAL GUTTER -1
 10
3673.249092309032
 20
2519.933257459895
 30
0.0
 50
135.0
1001
REVIT
1002
{
1070
     1
1000
580675
1002
}
1002
{
1070
     5
1000
569180
1002
}
1002
{
1070
     2
1000
-2002000
1002
}
  0
INSERT
  5
FA
330
70
100
AcDbEntity
  8
_ARDEX - WELDTEC_
100
AcDbBlockReference
  2
_ARDEX_ Lining - Various - Polyiso Board-586833-AB-06 INTERNAL GUTTER -1
 10
3637.414568529891
 20
2489.433257459895
 30
0.0
1001
REVIT
1002
{
1070
     1
1000
580680
1002
}
1002
{
1070
     5
1000
563041
1002
}
1002
{
1070
     2
1000
-2002000
1002
}
  0
INSERT
  5
10D
330
70
100
AcDbEntity
  8
_ARDEX - WELDTEC_
100
AcDbBlockReference
  2
_ARDEX_ Lining - Various - Polyiso Board-586848-AB-06 INTERNAL GUTTER -1
 10
3955.414568530197
 20
2680.114730180597
 30
0.0
 50
270.0
1001
REVIT
1002
{
1070
     1
1000
580682
1002
}
1002
{
1070
     5
1000
563041
1002
}
1002
{
1070
     2
1000
-2002000
1002
}
  0
INSERT
  5
112
330
70
100
AcDbEntity
  8
_ARDEX - WELDTEC_
100
AcDbBlockReference
  2
_ARDEX_ Lines - Membrane-580865-AB-06 INTERNAL GUTTER -1
 10
3924.914568529892
 20
2543.26778123905
 30
0.0
 50
90.0
1001
REVIT
1002
{
1070
     1
1000
580685
1002
}
1002
{
1070
     5
1000
569180
1002
}
1002
{
1070
     2
1000
-2002000
1002
}
  0
INSERT
  5
120
330
70
100
AcDbEntity
  8
_ARDEX - WELDTEC_
100
AcDbBlockReference
  2
_ARDEX_ Lining - Various - Cover Board-580925-AB-06 INTERNAL GUTTER -1
 10
3927.41456852989
 20
2675.177574720706
 30
0.0
 50
270.0000000000002
1001
REVIT
1002
{
1070
     1
1000
580688
1002
}
1002
{
1070
     5
1000
571521
1002
}
1002
{
1070
     2
1000
-2002000
1002
}
  0
INSERT
  5
125
330
70
100
AcDbEntity
  8
_ARDEX - WELDTEC_
100
AcDbBlockReference
  2
_ARDEX_ Lines - Barrier-581105-AB-06 INTERNAL GUTTER -1
 10
3960.414568530197
 20
2484.433257459895
 30
0.0
 50
90.0
1001
REVIT
1002
{
1070
     1
1000
580689
1002
}
1002
{
1070
     5
1000
569184
1002
}
1002
{
1070
     2
1000
-2002000
1002
}
  0
INSERT
  5
131
330
70
100
AcDbEntity
  8
_ARDEX - WELDTEC_
 62
     8
420
  8421504
100
AcDbBlockReference
  2
_ARDEX_ Plywood - 18mm-580957-AB-06 INTERNAL GUTTER -1
 10
4032.226178940695
 20
2675.381010513692
 30
0.0
 50
190.0000000000001
1001
REVIT
1002
{
1070
     1
1000
580758
1002
}
1002
{
1070
     5
1000
502649
1002
}
1002
{
1070
     2
1000
-2002000
1002
}
  0
INSERT
  5
13B
330
70
100
AcDbEntity
  8
_ARDEX - WELDTEC_
 62
   156
420
    16512
100
AcDbBlockReference
  2
_ARDEX_ Framing - Framing-580764-AB-06 INTERNAL GUTTER -1
 10
4125.740532778613
 20
2784.381010514062
 30
0.0
 50
180.0
1001
REVIT
1002
{
1070
     1
1000
580757
1002
}
1002
{
1070
     5
1000
489751
1002
}
1002
{
1070
     2
1000
-2002000
1002
}
  0
INSERT
  5
140
330
70
100
AcDbEntity
  8
_ARDEX - WELDTEC_
100
AcDbBlockReference
  2
_ARDEX_ Lines - Membrane-581480-AB-06 INTERNAL GUTTER -1
 10
3542.660037647449
 20
2696.108669705526
 30
0.0
 50
350.0
1001
REVIT
1002
{
1070
     1
1000
581471
1002
}
1002
{
1070
     5
1000
569180
1002
}
1002
{
1070
     2
1000
-2002000
1002
}
  0
INSERT
  5
153
330
70
100
AcDbEntity
  8
_ARDEX - WELDTEC_
100
AcDbBlockReference
  2
_ARDEX_ Lining - Various - Polyiso Board-586851-AB-06 INTERNAL GUTTER -1
 10
3619.414568529586
 20
2680.114730180597
 30
0.0
 50
270.0
1001
REVIT
1002
{
1070
     1
1000
581472
1002
}
1002
{
1070
     5
1000
563041
1002
}
1002
{
1070
     2
1000
-2002000
1002
}
  0
INSERT
  5
160
330
70
100
AcDbEntity
  8
_ARDEX - WELDTEC_
100
AcDbBlockReference
  2
_ARDEX_ Lining - Various - Cover Board-581483-AB-06 INTERNAL GUTTER -1
 10
3647.414568529892
 20
2675.177574720706
 30
0.0
 50
269.9999999999998
1001
REVIT
1002
{
1070
     1
1000
581473
1002
}
1002
{
1070
     5
1000
571521
1002
}
1002
{
1070
     2
1000
-2002000
1002
}
  0
INSERT
  5
165
330
70
100
AcDbEntity
  8
_ARDEX - WELDTEC_
100
AcDbBlockReference
  2
_ARDEX_ Lines - Barrier-581485-AB-06 INTERNAL GUTTER -1
 10
3614.414568529586
 20
2484.433257459895
 30
0.0
 50
90.0
1001
REVIT
1002
{
1070
     1
1000
581474
1002
}
1002
{
1070
     5
1000
569184
1002
}
1002
{
1070
     2
1000
-2002000
1002
}
  0
INSERT
  5
171
330
70
100
AcDbEntity
  8
_ARDEX - WELDTEC_
 62
     8
420
  8421504
100
AcDbBlockReference
  2
_ARDEX_ Plywood - 18mm-581489-AB-06 INTERNAL GUTTER -1
 10
3542.602958119088
 20
2675.381010513692
 30
0.0
 50
349.9999999999998
1001
REVIT
1002
{
1070
     1
1000
581478
1002
}
1002
{
1070
     5
1000
502649
1002
}
1002
{
1070
     2
1000
-2002000
1002
}
  0
INSERT
  5
178
330
70
100
AcDbEntity
  8
_ARDEX - WELDTEC_
100
AcDbBlockReference
  2
_ARDEX_ Lining - Various - Roofing - 18mm-581841-AB-06 INTERNAL GUTTER -1
 10
3694.177969081458
 20
2672.009058553543
 30
0.0
 50
170.0
1001
REVIT
1002
{
1070
     1
1000
581479
1002
}
1002
{
1070
     5
1000
523041
1002
}
1002
{
1070
     2
1000
-2002000
1002
}
  0
INSERT
  5
182
330
70
100
AcDbEntity
  8
_ARDEX - WELDTEC_
 62
   156
420
    16512
100
AcDbBlockReference
  2
_ARDEX_ Framing - Framing-581488-AB-06 INTERNAL GUTTER -1
 10
3449.088604281169
 20
2784.381010514062
 30
0.0
1001
REVIT
1002
{
1070
     1
1000
581477
1002
}
1002
{
1070
     5
1000
489751
1002
}
1002
{
1070
     2
1000
-2002000
1002
}
  0
INSERT
  5
187
330
70
100
AcDbEntity
  8
_ARDEX - WELDTEC_
100
AcDbBlockReference
  2
_ARDEX_ Lines - Membrane-581762-AB-06 INTERNAL GUTTER -1
 10
3649.914568529891
 20
2543.26778123905
 30
0.0
 50
90.0
1001
REVIT
1002
{
1070
     1
1000
581761
1002
}
1002
{
1070
     5
1000
569180
1002
}
1002
{
1070
     2
1000
-2002000
1002
}
  0
INSERT
  5
18E
330
70
100
AcDbEntity
  8
_ARDEX - WELDTEC_
100
AcDbBlockReference
  2
_ARDEX_ Lining - Various - Roofing - 18mm-581864-AB-06 INTERNAL GUTTER -1
 10
3880.651167978326
 20
2672.009058553543
 30
0.0
 50
10.00000000000001
1001
REVIT
1002
{
1070
     1
1000
581863
1002
}
1002
{
1070
     5
1000
523041
1002
}
1002
{
1070
     2
1000
-2002000
1002
}
  0
INSERT
  5
197
330
70
100
AcDbEntity
  8
_ARDEX - WELDTEC_
 62
   156
420
    16512
100
AcDbBlockReference
  2
_ARDEX_ Framing - Framing-571537-AB-06 INTERNAL GUTTER -1
 10
4040.986001896477
 20
2525.433257459895
 30
0.0
 50
180.0
1001
REVIT
1002
{
1070
     1
1000
616484
1002
}
1002
{
1070
     5
1000
489751
1002
}
1002
{
1070
     2
1000
-2002000
1002
}
  0
INSERT
  5
1A1
330
70
100
AcDbEntity
  8
_ARDEX - WELDTEC_
 62
   156
420
    16512
100
AcDbBlockReference
  2
_ARDEX_ Framing - Framing-616598-AB-06 INTERNAL GUTTER -1
 10
3488.843135163004
 20
2525.433257459895
 30
0.0
1001
REVIT
1002
{
1070
     1
1000
616485
1002
}
1002
{
1070
     5
1000
489751
1002
}
1002
{
1070
     2
1000
-2002000
1002
}
  0
INSERT
  5
1AB
330
70
100
AcDbEntity
  8
_ARDEX - WELDTEC_
 62
   156
420
    16512
100
AcDbBlockReference
  2
_ARDEX_ Framing - Framing-571557-AB-06 INTERNAL GUTTER -1
 10
3533.843135163304
 20
2525.433257459895
 30
0.0
1001
REVIT
1002
{
1070
     1
1000
616486
1002
}
1002
{
1070
     5
1000
489751
1002
}
1002
{
1070
     2
1000
-2002000
1002
}
  0
INSERT
  5
1B8
330
70
100
AcDbEntity
  8
_ARDEX - WELDTEC_
100
AcDbBlockReference
  2
_ARDEX_ Lining - Various - Cover Board-571549-AB-06 INTERNAL GUTTER -1
 10
3637.414568529891
 20
2507.433257459896
 30
0.0
1001
REVIT
1002
{
1070
     1
1000
580687
1002
}
1002
{
1070
     5
1000
571521
1002
}
1002
{
1070
     2
1000
-2002000
1002
}
  0
INSERT
  5
1BD
330
70
100
AcDbEntity
  8
_ARDEX - WELDTEC_
100
AcDbBlockReference
  2
_ARDEX_ Lines - Barrier-571555-AB-06 INTERNAL GUTTER -1
 10
3960.414568530197
 20
2484.433257459895
 30
0.0
 50
180.0
1001
REVIT
1002
{
1070
     1
1000
580691
1002
}
1002
{
1070
     5
1000
569184
1002
}
1002
{
1070
     2
1000
-2002000
1002
}
  0
INSERT
  5
1C2
330
70
100
AcDbEntity
  8
_ARDEX - WELDTEC_
100
AcDbBlockReference
  2
_ARDEX_ Lines - Barrier-571553-AB-06 INTERNAL GUTTER -1
 10
3614.414568529588
 20
2484.433257459897
 30
0.0
 50
90.0
1001
REVIT
1002
{
1070
     1
1000
580692
1002
}
1002
{
1070
     5
1000
569184
1002
}
1002
{
1070
     2
1000
-2002000
1002
}
  0
INSERT
  5
1CC
330
70
100
AcDbEntity
  8
_ARDEX - WELDTEC_
 62
   156
420
    16512
100
AcDbBlockReference
  2
_ARDEX_ Framing - Framing-616636-AB-06 INTERNAL GUTTER -1
 10
4085.98600189678
 20
2525.433257459895
 30
0.0
 50
180.0
1001
REVIT
1002
{
1070
     1
1000
616635
1002
}
1002
{
1070
     5
1000
489751
1002
}
1002
{
1070
     2
1000
-2002000
1002
}
  0
CIRCLE
  5
1CD
330
70
100
AcDbEntity
  8
_ARDEX - WELDTEC_
100
AcDbCircle
 10
3920.295766572117
 20
2525.38199516462
 30
0.0
 40
2.249999999999817
1001
REVIT
1002
{
1070
     1
1000
580679
1002
}
1002
{
1070
     5
1000
372253
1002
}
1002
{
1070
     2
1000
-2005022
1002
}
  0
HATCH
  5
1CE
330
70
100
AcDbEntity
  8
_ARDEX - WELDTEC_
100
AcDbHatch
 10
0.0
 20
0.0
 30
0.0
210
0.0
220
0.0
230
1.0
  2
SOLID
 70
     1
 71
     0
 91
        1
 92
        1
 93
        1
 72
     2
 10
3920.295766572117
 20
2525.38199516462
 40
2.249999999999817
 50
0.0
 51
360.0
 73
     1
 97
        0
 75
     0
 76
     1
 98
        1
 10
0.0
 20
0.0
450
        0
451
        0
460
0.0
461
0.0
452
        0
462
0.0
453
        0
470

1001
REVIT
1002
{
1070
     1
1000
580679
1002
}
1002
{
1070
     5
1000
372253
1002
}
1002
{
1070
     2
1000
-2005022
1002
}
  0
LINE
  5
1CF
330
70
100
AcDbEntity
  8
_ARDEX - WELDTEC_
100
AcDbLine
 10
3892.978597603209
 20
2562.00349060803
 30
0.0
 11
3878.838057449836
 21
2562.00349060803
 31
0.0
1001
REVIT
1002
{
1070
     1
1000
580679
1002
}
1002
{
1070
     5
1000
372253
1002
}
1002
{
1070
     2
1000
-2005022
1002
}
  0
LINE
  5
1D0
330
70
100
AcDbEntity
  8
_ARDEX - WELDTEC_
100
AcDbLine
 10
3920.295766572117
 20
2525.38199516462
 30
0.0
 11
3892.978597603209
 21
2562.00349060803
 31
0.0
1001
REVIT
1002
{
1070
     1
1000
580679
1002
}
1002
{
1070
     5
1000
372253
1002
}
1002
{
1070
     2
1000
-2005022
1002
}
  0
MTEXT
  5
1D2
330
70
100
AcDbEntity
  8
_ARDEX - WELDTEC_
100
AcDbMText
 10
3746.478057449836
 20
2569.992553108029
 30
0.0
 40
5.999999999999998
 41
160.1771624999999
 46
0.0
 71
     1
 72
     1
  1
FILLET OPTIONAL DEPENDING ON
  7
Swis721 Lt BT
 73
     2
 44
1.0
1001
REVIT
1002
{
1070
     1
1000
580679
1002
}
1002
{
1070
     5
1000
372253
1002
}
1002
{
1070
     2
1000
-2005022
1002
}
  0
MTEXT
  5
1D3
330
70
100
AcDbEntity
  8
_ARDEX - WELDTEC_
100
AcDbMText
 10
3746.478057449836
 20
2559.872240608029
 30
0.0
 40
5.999999999999998
 41
56.27846249999997
 46
0.0
 71
     1
 72
     1
  1
MEMBRANE
  7
Swis721 Lt BT
 73
     2
 44
1.0
1001
REVIT
1002
{
1070
     1
1000
580679
1002
}
1002
{
1070
     5
1000
372253
1002
}
1002
{
1070
     2
1000
-2005022
1002
}
  0
CIRCLE
  5
1D4
330
70
100
AcDbEntity
  8
_ARDEX - WELDTEC_
100
AcDbCircle
 10
3922.941722669767
 20
2614.362498956518
 30
0.0
 40
2.25
1001
REVIT
1002
{
1070
     1
1000
580686
1002
}
1002
{
1070
     5
1000
372253
1002
}
1002
{
1070
     2
1000
-2005022
1002
}
  0
HATCH
  5
1D5
330
70
100
AcDbEntity
  8
_ARDEX - WELDTEC_
100
AcDbHatch
 10
0.0
 20
0.0
 30
0.0
210
0.0
220
0.0
230
1.0
  2
SOLID
 70
     1
 71
     0
 91
        1
 92
        1
 93
        1
 72
     2
 10
3922.941722669767
 20
2614.362498956518
 40
2.25
 50
0.0
 51
360.0
 73
     1
 97
        0
 75
     0
 76
     1
 98
        1
 10
0.0
 20
0.0
450
        0
451
        0
460
0.0
461
0.0
452
        0
462
0.0
453
        0
470

1001
REVIT
1002
{
1070
     1
1000
580686
1002
}
1002
{
1070
     5
1000
372253
1002
}
1002
{
1070
     2
1000
-2005022
1002
}
  0
LINE
  5
1D6
330
70
100
AcDbEntity
  8
_ARDEX - WELDTEC_
100
AcDbLine
 10
3922.941722669767
 20
2614.362498956518
 30
0.0
 11
3822.078057449836
 21
2614.362498956518
 31
0.0
1001
REVIT
1002
{
1070
     1
1000
580686
1002
}
1002
{
1070
     5
1000
372253
1002
}
1002
{
1070
     2
1000
-2005022
1002
}
  0
MTEXT
  5
1D7
330
70
100
AcDbEntity
  8
_ARDEX - WELDTEC_
100
AcDbMText
 10
3746.478057449836
 20
2617.296561456518
 30
0.0
 40
5.999999999999998
 41
91.39237499999998
 46
0.0
 71
     1
 72
     1
  1
ARDEX MEMBRANE
  7
Swis721 Lt BT
 73
     2
 44
1.0
1001
REVIT
1002
{
1070
     1
1000
580686
1002
}
1002
{
1070
     5
1000
372253
1002
}
1002
{
1070
     2
1000
-2005022
1002
}
  0
CIRCLE
  5
1D8
330
70
100
AcDbEntity
  8
_ARDEX - WELDTEC_
100
AcDbCircle
 10
3883.439499593548
 20
2500.230746447261
 30
0.0
 40
2.25
1001
REVIT
1002
{
1070
     1
1000
580714
1002
}
1002
{
1070
     5
1000
372253
1002
}
1002
{
1070
     2
1000
-2005022
1002
}
  0
HATCH
  5
1D9
330
70
100
AcDbEntity
  8
_ARDEX - WELDTEC_
100
AcDbHatch
 10
0.0
 20
0.0
 30
0.0
210
0.0
220
0.0
230
1.0
  2
SOLID
 70
     1
 71
     0
 91
        1
 92
        1
 93
        1
 72
     2
 10
3883.439499593548
 20
2500.230746447261
 40
2.25
 50
0.0
 51
360.0
 73
     1
 97
        0
 75
     0
 76
     1
 98
        1
 10
0.0
 20
0.0
450
        0
451
        0
460
0.0
461
0.0
452
        0
462
0.0
453
        0
470

1001
REVIT
1002
{
1070
     1
1000
580714
1002
}
1002
{
1070
     5
1000
372253
1002
}
1002
{
1070
     2
1000
-2005022
1002
}
  0
LINE
  5
1DA
330
70
100
AcDbEntity
  8
_ARDEX - WELDTEC_
100
AcDbLine
 10
3883.439499593548
 20
2535.616205781602
 30
0.0
 11
3839.928057449835
 21
2535.616205781602
 31
0.0
1001
REVIT
1002
{
1070
     1
1000
580714
1002
}
1002
{
1070
     5
1000
372253
1002
}
1002
{
1070
     2
1000
-2005022
1002
}
  0
LINE
  5
1DB
330
70
100
AcDbEntity
  8
_ARDEX - WELDTEC_
100
AcDbLine
 10
3883.439499593548
 20
2500.230746447261
 30
0.0
 11
3883.439499593548
 21
2535.616205781602
 31
0.0
1001
REVIT
1002
{
1070
     1
1000
580714
1002
}
1002
{
1070
     5
1000
372253
1002
}
1002
{
1070
     2
1000
-2005022
1002
}
  0
MTEXT
  5
1DC
330
70
100
AcDbEntity
  8
_ARDEX - WELDTEC_
100
AcDbMText
 10
3745.278057449836
 20
2538.550268281602
 30
0.0
 40
5.999999999999998
 41
114.4809749999999
 46
0.0
 71
     1
 72
     1
  1
ARDEX POLYISO BOARD
  7
Swis721 Lt BT
 73
     2
 44
1.0
1001
REVIT
1002
{
1070
     1
1000
580714
1002
}
1002
{
1070
     5
1000
372253
1002
}
1002
{
1070
     2
1000
-2005022
1002
}
  0
CIRCLE
  5
1DD
330
70
100
AcDbEntity
  8
_ARDEX - WELDTEC_
100
AcDbCircle
 10
3929.298410018141
 20
2645.275289237821
 30
0.0
 40
2.250000000000454
1001
REVIT
1002
{
1070
     1
1000
580723
1002
}
1002
{
1070
     5
1000
372253
1002
}
1002
{
1070
     2
1000
-2005022
1002
}
  0
HATCH
  5
1DE
330
70
100
AcDbEntity
  8
_ARDEX - WELDTEC_
100
AcDbHatch
 10
0.0
 20
0.0
 30
0.0
210
0.0
220
0.0
230
1.0
  2
SOLID
 70
     1
 71
     0
 91
        1
 92
        1
 93
        1
 72
     2
 10
3929.298410018141
 20
2645.275289237821
 40
2.250000000000454
 50
0.0
 51
360.0
 73
     1
 97
        0
 75
     0
 76
     1
 98
        1
 10
0.0
 20
0.0
450
        0
451
        0
460
0.0
461
0.0
452
        0
462
0.0
453
        0
470

1001
REVIT
1002
{
1070
     1
1000
580723
1002
}
1002
{
1070
     5
1000
372253
1002
}
1002
{
1070
     2
1000
-2005022
1002
}
  0
LINE
  5
1DF
330
70
100
AcDbEntity
  8
_ARDEX - WELDTEC_
100
AcDbLine
 10
3929.298410018141
 20
2645.275289237821
 30
0.0
 11
3848.688057449836
 21
2645.275289237821
 31
0.0
1001
REVIT
1002
{
1070
     1
1000
580723
1002
}
1002
{
1070
     5
1000
372253
1002
}
1002
{
1070
     2
1000
-2005022
1002
}
  0
MTEXT
  5
1E0
330
70
100
AcDbEntity
  8
_ARDEX - WELDTEC_
100
AcDbMText
 10
3746.478057449837
 20
2648.209351737822
 30
0.0
 40
5.999999999999998
 41
123.6202125
 46
0.0
 71
     1
 72
     1
  1
ARDEX HD COVER BOARD
  7
Swis721 Lt BT
 73
     2
 44
1.0
1001
REVIT
1002
{
1070
     1
1000
580723
1002
}
1002
{
1070
     5
1000
372253
1002
}
1002
{
1070
     2
1000
-2005022
1002
}
  0
CIRCLE
  5
1E1
330
70
100
AcDbEntity
  8
_ARDEX - WELDTEC_
100
AcDbCircle
 10
3890.566057397427
 20
2468.441741426391
 30
0.0
 40
2.25
1001
REVIT
1002
{
1070
     1
1000
581712
1002
}
1002
{
1070
     5
1000
372261
1002
}
1002
{
1070
     2
1000
-2005022
1002
}
  0
HATCH
  5
1E2
330
70
100
AcDbEntity
  8
_ARDEX - WELDTEC_
100
AcDbHatch
 10
0.0
 20
0.0
 30
0.0
210
0.0
220
0.0
230
1.0
  2
SOLID
 70
     1
 71
     0
 91
        1
 92
        1
 93
        1
 72
     2
 10
3890.566057397427
 20
2468.441741426391
 40
2.25
 50
0.0
 51
360.0
 73
     1
 97
        0
 75
     0
 76
     1
 98
        1
 10
0.0
 20
0.0
450
        0
451
        0
460
0.0
461
0.0
452
        0
462
0.0
453
        0
470

1001
REVIT
1002
{
1070
     1
1000
581712
1002
}
1002
{
1070
     5
1000
372261
1002
}
1002
{
1070
     2
1000
-2005022
1002
}
  0
LINE
  5
1E3
330
70
100
AcDbEntity
  8
_ARDEX - WELDTEC_
100
AcDbLine
 10
3890.566057397427
 20
2432.634741499049
 30
0.0
 11
3864.738057449835
 21
2432.634741499047
 31
0.0
1001
REVIT
1002
{
1070
     1
1000
581712
1002
}
1002
{
1070
     5
1000
372261
1002
}
1002
{
1070
     2
1000
-2005022
1002
}
  0
LINE
  5
1E4
330
70
100
AcDbEntity
  8
_ARDEX - WELDTEC_
100
AcDbLine
 10
3890.566057397427
 20
2468.441741426391
 30
0.0
 11
3890.566057397427
 21
2432.634741499049
 31
0.0
1001
REVIT
1002
{
1070
     1
1000
581712
1002
}
1002
{
1070
     5
1000
372261
1002
}
1002
{
1070
     2
1000
-2005022
1002
}
  0
MTEXT
  5
1E5
330
70
100
AcDbEntity
  8
_ARDEX - WELDTEC_
100
AcDbMText
 10
3746.478057449835
 20
2445.678803999048
 30
0.0
 40
5.999999999999998
 41
143.1012187499999
 46
0.0
 71
     1
 72
     1
  1
SUBSTRATE TO COMPLY WITH
  7
Swis721 Lt BT
 73
     2
 44
1.0
1001
REVIT
1002
{
1070
     1
1000
581712
1002
}
1002
{
1070
     5
1000
372261
1002
}
1002
{
1070
     2
1000
-2005022
1002
}
  0
MTEXT
  5
1E6
330
70
100
AcDbEntity
  8
_ARDEX - WELDTEC_
100
AcDbMText
 10
3746.478057449835
 20
2435.558491499048
 30
0.0
 40
5.999999999999998
 41
141.417675
 46
0.0
 71
     1
 72
     1
  1
CURRENT ARDEX SUBSTRATE
  7
Swis721 Lt BT
 73
     2
 44
1.0
1001
REVIT
1002
{
1070
     1
1000
581712
1002
}
1002
{
1070
     5
1000
372261
1002
}
1002
{
1070
     2
1000
-2005022
1002
}
  0
MTEXT
  5
1E7
330
70
100
AcDbEntity
  8
_ARDEX - WELDTEC_
100
AcDbMText
 10
3746.478057449835
 20
2425.438178999047
 30
0.0
 40
5.999999999999998
 41
73.11389999999999
 46
0.0
 71
     1
 72
     1
  1
SPECIFICATION
  7
Swis721 Lt BT
 73
     2
 44
1.0
1001
REVIT
1002
{
1070
     1
1000
581712
1002
}
1002
{
1070
     5
1000
372261
1002
}
1002
{
1070
     2
1000
-2005022
1002
}
  0
DIMENSION
  5
1FB
330
70
100
AcDbEntity
  8
_ARDEX - WELDTEC_
100
AcDbDimension
  2
DIMBLOCK1-AB-06 INTERNAL GUTTER -1
 10
3697.303636279463
 20
2721.805760024514
 30
0.0
 11
3672.359102404678
 21
2726.389263076467
 31
0.0
 70
    32
 71
     5
 42
49.88906774956967
 73
     0
 74
     0
 75
     0
  3
_ARDEX__-_2mm
100
AcDbAlignedDimension
 13
3647.414568529892
 23
2706.805760024515
 33
0.0
 14
3697.303636279463
 24
2706.805760024515
 34
0.0
100
AcDbRotatedDimension
1001
ACAD
1000
DSTYLE
1002
{
1070
    49
1040
49.88906774956967
1002
}
1001
REVIT
1002
{
1070
     1
1000
581746
1002
}
1002
{
1070
     5
1000
337368
1002
}
1002
{
1070
     2
1000
-2000260
1002
}
  0
CIRCLE
  5
20A
330
70
100
AcDbEntity
  8
_ARDEX - WELDTEC_
100
AcDbCircle
 10
3887.242684940623
 20
2684.350228035607
 30
0.0
 40
2.25
1001
REVIT
1002
{
1070
     1
1000
581882
1002
}
1002
{
1070
     5
1000
372261
1002
}
1002
{
1070
     2
1000
-2005022
1002
}
  0
HATCH
  5
20B
330
70
100
AcDbEntity
  8
_ARDEX - WELDTEC_
100
AcDbHatch
 10
0.0
 20
0.0
 30
0.0
210
0.0
220
0.0
230
1.0
  2
SOLID
 70
     1
 71
     0
 91
        1
 92
        1
 93
        1
 72
     2
 10
3887.242684940623
 20
2684.350228035607
 40
2.25
 50
0.0
 51
360.0
 73
     1
 97
        0
 75
     0
 76
     1
 98
        1
 10
0.0
 20
0.0
450
        0
451
        0
460
0.0
461
0.0
452
        0
462
0.0
453
        0
470

1001
REVIT
1002
{
1070
     1
1000
581882
1002
}
1002
{
1070
     5
1000
372261
1002
}
1002
{
1070
     2
1000
-2005022
1002
}
  0
LINE
  5
20C
330
70
100
AcDbEntity
  8
_ARDEX - WELDTEC_
100
AcDbLine
 10
3848.688057449836
 20
2684.350228035607
 30
0.0
 11
3812.505388147926
 21
2684.350228035607
 31
0.0
1001
REVIT
1002
{
1070
     1
1000
581882
1002
}
1002
{
1070
     5
1000
372261
1002
}
1002
{
1070
     2
1000
-2005022
1002
}
  0
LINE
  5
20D
330
70
100
AcDbEntity
  8
_ARDEX - WELDTEC_
100
AcDbLine
 10
3887.242684940623
 20
2684.350228035607
 30
0.0
 11
3848.688057449836
 21
2684.350228035607
 31
0.0
1001
REVIT
1002
{
1070
     1
1000
581882
1002
}
1002
{
1070
     5
1000
372261
1002
}
1002
{
1070
     2
1000
-2005022
1002
}
  0
MTEXT
  5
20E
330
70
100
AcDbEntity
  8
_ARDEX - WELDTEC_
100
AcDbMText
 10
3746.235388147926
 20
2687.284290535608
 30
0.0
 40
5.999999999999998
 41
80.08858124999997
 46
0.0
 71
     1
 72
     1
  1
METAL ROOFING
  7
Swis721 Lt BT
 73
     2
 44
1.0
1001
REVIT
1002
{
1070
     1
1000
581882
1002
}
1002
{
1070
     5
1000
372261
1002
}
1002
{
1070
     2
1000
-2005022
1002
}
  0
DIMENSION
  5
21C
330
70
100
AcDbEntity
  8
_ARDEX - WELDTEC_
100
AcDbDimension
  2
DIMBLOCK2-AB-06 INTERNAL GUTTER -1
 10
3927.41456852989
 20
2721.805760024514
 30
0.0
 11
3902.470034655106
 21
2726.389263076467
 31
0.0
 70
    32
 71
     5
 42
49.88906774956922
 73
     0
 74
     0
 75
     0
  3
_ARDEX__-_2mm
100
AcDbAlignedDimension
 13
3877.525500780321
 23
2706.805760024515
 33
0.0
 14
3927.41456852989
 24
2706.805760024515
 34
0.0
100
AcDbRotatedDimension
1001
ACAD
1000
DSTYLE
1002
{
1070
    49
1040
49.88906774956922
1002
}
1001
REVIT
1002
{
1070
     1
1000
581890
1002
}
1002
{
1070
     5
1000
337368
1002
}
1002
{
1070
     2
1000
-2000260
1002
}
  0
DIMENSION
  5
237
330
70
100
AcDbEntity
  8
_ARDEX - WELDTEC_
100
AcDbDimension
  2
DIMBLOCK3-AB-06 INTERNAL GUTTER -1
 10
3927.41456852989
 20
2759.750635766717
 30
0.0
 11
3787.414568529892
 21
2759.750635766717
 31
0.0
 70
    32
  1
300 MIN.\XGUTTER WIDTH ACCORDANCE WITH NZBC E2/AS1
 71
     5
 42
279.9999999999982
 73
     0
 74
     0
 75
     0
  3
_ARDEX__-_2mm
100
AcDbAlignedDimension
 13
3647.414568529892
 23
2744.750635766718
 33
0.0
 14
3927.41456852989
 24
2744.750635766718
 34
0.0
100
AcDbRotatedDimension
1001
ACAD
1000
DSTYLE
1002
{
1070
    49
1040
279.9999999999982
1002
}
1001
REVIT
1002
{
1070
     1
1000
581903
1002
}
1002
{
1070
     5
1000
337368
1002
}
1002
{
1070
     2
1000
-2000260
1002
}
  0
CIRCLE
  5
245
330
70
100
AcDbEntity
  8
_ARDEX - WELDTEC_
100
AcDbCircle
 10
3959.814909332854
 20
2594.170066916763
 30
0.0
 40
2.25
1001
REVIT
1002
{
1070
     1
1000
581933
1002
}
1002
{
1070
     5
1000
372253
1002
}
1002
{
1070
     2
1000
-2005022
1002
}
  0
HATCH
  5
246
330
70
100
AcDbEntity
  8
_ARDEX - WELDTEC_
100
AcDbHatch
 10
0.0
 20
0.0
 30
0.0
210
0.0
220
0.0
230
1.0
  2
SOLID
 70
     1
 71
     0
 91
        1
 92
        1
 93
        1
 72
     2
 10
3959.814909332854
 20
2594.170066916763
 40
2.25
 50
0.0
 51
360.0
 73
     1
 97
        0
 75
     0
 76
     1
 98
        1
 10
0.0
 20
0.0
450
        0
451
        0
460
0.0
461
0.0
452
        0
462
0.0
453
        0
470

1001
REVIT
1002
{
1070
     1
1000
581933
1002
}
1002
{
1070
     5
1000
372253
1002
}
1002
{
1070
     2
1000
-2005022
1002
}
  0
LINE
  5
247
330
70
100
AcDbEntity
  8
_ARDEX - WELDTEC_
100
AcDbLine
 10
3959.814909332854
 20
2594.170066916763
 30
0.0
 11
3845.508057449836
 21
2594.170066916763
 31
0.0
1001
REVIT
1002
{
1070
     1
1000
581933
1002
}
1002
{
1070
     5
1000
372253
1002
}
1002
{
1070
     2
1000
-2005022
1002
}
  0
MTEXT
  5
248
330
70
100
AcDbEntity
  8
_ARDEX - WELDTEC_
100
AcDbMText
 10
3746.478057449836
 20
2597.104129416763
 30
0.0
 40
5.999999999999998
 41
119.7721124999999
 46
0.0
 71
     1
 72
     1
  1
ARDEX VAPOUR BARRIER
  7
Swis721 Lt BT
 73
     2
 44
1.0
1001
REVIT
1002
{
1070
     1
1000
581933
1002
}
1002
{
1070
     5
1000
372253
1002
}
1002
{
1070
     2
1000
-2005022
1002
}
  0
VIEWPORT
  5
249
330
6C
100
AcDbEntity
 67
     1
  8
_ARDEX - WELDTEC_
100
AcDbViewport
 10
143.7098132913449
 20
136.0831812144455
 30
0.0
 40
194.5713200201331
 41
160.2031031071832
 68
    -1
 69
     2
 12
3787.414568529892
 22
2656.737912120669
 13
0.0
 23
0.0
 14
0.0
 24
0.0
 15
0.0
 25
0.0
 16
0.0
 26
0.0
 36
1.0
 17
0.0
 27
0.0
 37
0.0
 42
0.0
 43
0.0
 44
0.0
 45
480.6093093215496
 50
0.0
 51
0.0
 72
  1000
 90
    32768
  1

281
     0
 71
     1
 74
     1
110
0.0
120
0.0
130
0.0
111
1.0
121
0.0
131
0.0
112
0.0
122
1.0
132
0.0
 79
     0
146
0.0
170
     0
 61
     5
292
     1
282
     1
141
0.0
142
0.0
 63
   250
421
  3355443
  0
VIEWPORT
  5
24B
330
6C
100
AcDbEntity
 67
     1
  8
0
100
AcDbViewport
 10
6.0
 20
4.5
 30
0.0
 40
12.0
 41
9.0
 68
    -1
 69
     1
 12
6.0
 22
4.5
 13
0.0
 23
0.0
 14
0.0
 24
0.0
 15
0.0
 25
0.0
 16
0.0
 26
0.0
 36
1.0
 17
0.0
 27
0.0
 37
0.0
 42
50.0
 43
0.0
 44
0.0
 45
12.0
 50
0.0
 51
0.0
 72
   100
 90
    32800
  1

281
     0
 71
     1
 74
     1
110
0.0
120
0.0
130
0.0
111
1.0
121
0.0
131
0.0
112
0.0
122
1.0
132
0.0
 79
     0
146
0.0
170
     0
 61
     5
292
     1
282
     1
141
0.0
142
0.0
 63
   250
421
  3355443
  0
INSERT
  5
2DC
330
6C
100
AcDbEntity
 67
     1
  8
_ARDEX - WELDTEC_
100
AcDbBlockReference
  2
_ARDEX_ Landscape Title block - _ARDEX_ Landscape Title block-333213-INTERNAL GUTTER
 10
0.0
 20
0.0
 30
0.0
1001
REVIT
1002
{
1070
     1
1000
333399
1002
}
1002
{
1070
     5
1000
333213
1002
}
1002
{
1070
     2
1000
-2000280
1002
}
  0
MTEXT
  5
2DE
330
6C
100
AcDbEntity
 67
     1
  8
_ARDEX - WELDTEC_
100
AcDbMText
 10
231.0292895384866
 20
4.159953483062439
 30
0.0
 40
2.0
 41
6.413499999999999
 46
0.0
 71
     1
 72
     1
  1
1 : 3
  7
Swis721 Lt BT_4
 73
     2
 44
1.0
 90
        3
 63
     9
421
 13158600
 45
1.25
441
        0
1001
REVIT
1002
{
1070
     1
1000
333399
1002
}
1002
{
1070
     5
1000
333213
1002
}
1002
{
1070
     2
1000
-2000280
1002
}
  0
MTEXT
  5
2E0
330
6C
100
AcDbEntity
 67
     1
  8
_ARDEX - WELDTEC_
 62
   133
420
  7589074
100
AcDbMText
 10
7.016261025088629
 20
17.11411991695474
 30
0.0
 40
5.0
 41
101.517688125
 46
0.0
 71
     1
 72
     1
  1
ARDEX WARM ROOFING
  7
Arial Black_B
 73
     2
 44
1.0
1001
REVIT
1002
{
1070
     1
1000
333399
1002
}
1002
{
1070
     5
1000
333213
1002
}
1002
{
1070
     2
1000
-2000280
1002
}
  0
MTEXT
  5
2E2
330
6C
100
AcDbEntity
 67
     1
  8
_ARDEX - WELDTEC_
100
AcDbMText
 10
95.1576274176504
 20
13.00813448458874
 30
0.0
 40
3.0
 41
44.01264374999999
 46
0.0
 71
     1
 72
     1
  1
INTERNAL GUTTER
  7
Swis721 Lt BT_5
 73
     2
 44
1.0
 90
        3
 63
     9
421
 13158600
 45
1.25
441
        0
1001
REVIT
1002
{
1070
     1
1000
333399
1002
}
1002
{
1070
     5
1000
333213
1002
}
1002
{
1070
     2
1000
-2000280
1002
}
  0
MTEXT
  5
2E4
330
6C
100
AcDbEntity
 67
     1
  8
_ARDEX - WELDTEC_
100
AcDbMText
 10
231.6542895384866
 20
17.41984908362141
 30
0.0
 40
4.0
 41
26.05484375
 46
0.0
 71
     1
 72
     1
  1
AWR-06
  7
Arial
 73
     2
 44
1.0
 90
        3
 63
     9
421
 13158600
 45
1.25
441
        0
1001
REVIT
1002
{
1070
     1
1000
333399
1002
}
1002
{
1070
     5
1000
333213
1002
}
1002
{
1070
     2
1000
-2000280
1002
}
  0
MTEXT
  5
2E5
330
6C
100
AcDbEntity
 67
     1
  8
_ARDEX - WELDTEC_
100
AcDbMText
 10
231.6542895384866
 20
8.218762607224865
 30
0.0
 40
2.0
 41
16.8354375
 46
0.0
 71
     1
 72
     1
  1
01/07/2022
  7
Swis721 Lt BT_4
 73
     2
 44
1.0
 90
        3
 63
     9
421
 13158600
 45
1.25
441
        0
1001
REVIT
1002
{
1070
     1
1000
333399
1002
}
1002
{
1070
     5
1000
333213
1002
}
1002
{
1070
     2
1000
-2000280
1002
}
  0
LINE
  5
2E6
330
6C
100
AcDbEntity
 67
     1
  8
_ARDEX - WELDTEC_
100
AcDbLine
 10
5.334813291446231
 20
20.10471841707003
 30
0.0
 11
285.3348132914464
 21
20.10471841707003
 31
0.0
1001
REVIT
1002
{
1070
     1
1000
581916
1002
}
1002
{
1070
     5
1000
949
1002
}
1002
{
1070
     2
1000
-2000510
1002
}
  0
ENDSEC
  0
SECTION
  2
OBJECTS
  0
DICTIONARY
  5
C
330
0
100
AcDbDictionary
281
     1
  3
ACAD_CIP_PREVIOUS_PRODUCT_INFO
350
79
  3
ACAD_COLOR
350
63
  3
ACAD_DETAILVIEWSTYLE
350
6A
  3
ACAD_GROUP
350
D
  3
ACAD_IMAGE_VARS
350
7A
  3
ACAD_LAYOUT
350
62
  3
ACAD_MATERIAL
350
10
  3
ACAD_MLEADERSTYLE
350
66
  3
ACAD_MLINESTYLE
350
5F
  3
ACAD_PLOTSETTINGS
350
61
  3
ACAD_PLOTSTYLENAME
350
E
  3
ACAD_SCALELIST
350
42
  3
ACAD_SECTIONVIEWSTYLE
350
68
  3
ACAD_TABLESTYLE
350
64
  3
ACAD_VISUALSTYLE
350
29
  3
ACDB_RECOMPOSE_DATA
350
2F4
  3
AcDbVariableDictionary
350
7B
  3
REVIT_DICTIONARY
350
2E7
  0
SUN
  5
2EE
330
57
100
AcDbSun
 90
        1
290
     1
 63
     7
421
 16777215
 40
0.3
291
     1
 91
  2459407
 92
 65356000
292
     0
 70
     1
 71
   128
280
     1
1001
ACAD
1000
AcDbSavedByObjectVersion
1070
     0
  0
DICTIONARY
  5
2EC
330
70
100
AcDbDictionary
280
     1
281
     1
  3
ACAD_SORTENTS
360
2ED
  0
XRECORD
  5
79
102
{ACAD_REACTORS
330
C
102
}
330
C
100
AcDbXrecord
280
     1
300
RVT
300
2023
300
RVT2023
  0
DICTIONARY
  5
63
102
{ACAD_REACTORS
330
C
102
}
330
C
100
AcDbDictionary
281
     1
  0
DICTIONARY
  5
6A
102
{ACAD_REACTORS
330
C
102
}
330
C
100
AcDbDictionary
281
     1
  3
Imperial24
350
6B
  0
DICTIONARY
  5
D
102
{ACAD_REACTORS
330
C
102
}
330
C
100
AcDbDictionary
281
     1
  0
RASTERVARIABLES
  5
7A
102
{ACAD_REACTORS
330
C
102
}
330
C
100
AcDbRasterVariables
 90
        0
 70
     0
 71
     1
 72
     1
  0
DICTIONARY
  5
62
102
{ACAD_REACTORS
330
C
102
}
330
C
100
AcDbDictionary
281
     1
  3
Layout1
350
6F
  3
Layout2
350
77
  3
Model
350
73
  0
DICTIONARY
  5
10
102
{ACAD_REACTORS
330
C
102
}
330
C
100
AcDbDictionary
281
     1
  3
ByBlock
350
19
  3
ByLayer
350
11
  3
Global
350
21
  0
DICTIONARY
  5
66
102
{ACAD_REACTORS
330
C
102
}
330
C
100
AcDbDictionary
281
     1
  3
Standard
350
67
  0
DICTIONARY
  5
5F
102
{ACAD_REACTORS
330
C
102
}
330
C
100
AcDbDictionary
281
     1
  3
Standard
350
60
  0
DICTIONARY
  5
61
102
{ACAD_REACTORS
330
C
102
}
330
C
100
AcDbDictionary
281
     1
  0
ACDBDICTIONARYWDFLT
  5
E
102
{ACAD_REACTORS
330
C
102
}
330
C
100
AcDbDictionary
281
     1
  3
Normal
350
F
100
AcDbDictionaryWithDefault
340
F
  0
DICTIONARY
  5
42
102
{ACAD_REACTORS
330
C
102
}
330
C
100
AcDbDictionary
281
     1
  3
A0
350
43
  3
A1
350
44
  3
A2
350
45
  3
A3
350
46
  3
A4
350
47
  3
A5
350
48
  3
A6
350
49
  3
A7
350
4A
  3
A8
350
4B
  3
A9
350
4C
  3
B0
350
4D
  3
B1
350
4E
  3
B2
350
4F
  3
B3
350
50
  3
B4
350
51
  3
B5
350
52
  3
B6
350
53
  0
DICTIONARY
  5
68
102
{ACAD_REACTORS
330
C
102
}
330
C
100
AcDbDictionary
281
     1
  3
Imperial24
350
69
  0
DICTIONARY
  5
64
102
{ACAD_REACTORS
330
C
102
}
330
C
100
AcDbDictionary
281
     1
  3
Standard
350
65
  0
DICTIONARY
  5
29
102
{ACAD_REACTORS
330
C
102
}
330
C
100
AcDbDictionary
281
     1
  3
2dWireframe
350
2F
  3
Basic
350
2E
  3
Brighten
350
35
  3
ColorChange
350
39
  3
Conceptual
350
32
  3
Dim
350
34
  3
EdgeColorOff
350
41
  3
Facepattern
350
38
  3
Flat
350
2A
  3
FlatWithEdges
350
2B
  3
Gouraud
350
2C
  3
GouraudWithEdges
350
2D
  3
Hidden
350
31
  3
JitterOff
350
3F
  3
Linepattern
350
37
  3
OverhangOff
350
40
  3
Realistic
350
33
  3
Shaded
350
3E
  3
Shaded with edges
350
3D
  3
Shades of Gray
350
3A
  3
Sketchy
350
3B
  3
Thicken
350
36
  3
Wireframe
350
30
  3
X-Ray
350
3C
  0
XRECORD
  5
2F4
102
{ACAD_REACTORS
330
C
102
}
330
C
100
AcDbXrecord
280
     1
 90
        1
330
65
  0
DICTIONARY
  5
7B
102
{ACAD_REACTORS
330
C
102
}
330
C
100
AcDbDictionary
281
     1
  3
CANNOSCALE
350
80
  3
CMLEADERSTYLE
350
7D
  3
CTABLESTYLE
350
7C
  3
CVIEWDETAILSTYLE
350
7E
  3
CVIEWSECTIONSTYLE
350
7F
  3
XCLIPFRAME
350
81
  0
DICTIONARY
  5
2E7
102
{ACAD_REACTORS
330
C
102
}
330
C
100
AcDbDictionary
281
     1
  3
DRAWING_TOOL
350
2EB
  3
REVIT_CATEGORY_MAPPING
350
2E9
  3
REVIT_SUB_CATEGORY_MAPPING
350
2EA
  3
REVIT_TYPE_MAPPING
350
2E8
  0
SORTENTSTABLE
  5
2ED
102
{ACAD_REACTORS
330
2EC
102
}
330
2EC
100
AcDbSortentsTable
330
70
  0
ACDBDETAILVIEWSTYLE
  5
6B
102
{ACAD_XDICTIONARY
360
32A
102
}
102
{ACAD_REACTORS
330
6A
102
}
330
6A
100
AcDbModelDocViewStyle
 70
     0
  3
Imperial24
290
     0
100
AcDbDetailViewStyle
 70
     0
 71
     0
 90
        3
 71
     1
340
55
 62
   256
 40
0.24
340
0
 62
   256
 40
0.24
300

 40
0.36
280
     3
 71
     2
340
5D
 90
       25
 62
   256
 71
     3
340
55
 62
   256
 40
0.24
 90
        1
 40
0.75
 90
        1
300
%<\AcVar ViewType \f "%tc1">% %<\AcVar ViewDetailId>%\PSCALE %<\AcVar ViewScale \f "%sn">%
 71
     4
340
5D
 90
       25
 62
   256
340
5D
 90
       25
 62
   256
280
     0
  0
LAYOUT
  5
6F
102
{ACAD_REACTORS
330
62
102
}
330
62
100
AcDbPlotSettings
  1

  2

  4

  6

 40
0.0
 41
0.0
 42
0.0
 43
0.0
 44
0.0
 45
0.0
 46
0.0
 47
0.0
 48
0.0
 49
0.0
140
0.0
141
0.0
142
1.0
143
1.0
 70
   688
 72
     0
 73
     0
 74
     5
  7

 75
    16
147
1.0
 76
     0
 77
     2
 78
   300
148
0.0
149
0.0
100
AcDbLayout
  1
Layout1
 70
     1
 71
     1
 10
0.0
 20
0.0
 11
12.0
 21
9.0
 12
0.0
 22
0.0
 32
0.0
 14
0.0
 24
0.0
 34
0.0
 15
0.0
 25
0.0
 35
0.0
146
0.0
 13
0.0
 23
0.0
 33
0.0
 16
1.0
 26
0.0
 36
0.0
 17
0.0
 27
1.0
 37
0.0
 76
     0
330
6C
  0
LAYOUT
  5
77
102
{ACAD_REACTORS
330
62
102
}
330
62
100
AcDbPlotSettings
  1

  2

  4

  6

 40
0.0
 41
0.0
 42
0.0
 43
0.0
 44
0.0
 45
0.0
 46
0.0
 47
0.0
 48
0.0
 49
0.0
140
0.0
141
0.0
142
1.0
143
1.0
 70
   688
 72
     0
 73
     0
 74
     5
  7

 75
    16
147
1.0
 76
     0
 77
     2
 78
   300
148
0.0
149
0.0
100
AcDbLayout
  1
Layout2
 70
     1
 71
     2
 10
0.0
 20
0.0
 11
12.0
 21
9.0
 12
0.0
 22
0.0
 32
0.0
 14
0.0
 24
0.0
 34
0.0
 15
0.0
 25
0.0
 35
0.0
146
0.0
 13
0.0
 23
0.0
 33
0.0
 16
1.0
 26
0.0
 36
0.0
 17
0.0
 27
1.0
 37
0.0
 76
     0
330
74
  0
LAYOUT
  5
73
102
{ACAD_REACTORS
330
62
102
}
330
62
100
AcDbPlotSettings
  1

  2

  4

  6

 40
0.0
 41
0.0
 42
0.0
 43
0.0
 44
0.0
 45
0.0
 46
0.0
 47
0.0
 48
0.0
 49
0.0
140
0.0
141
0.0
142
1.0
143
1.0
 70
  1712
 72
     0
 73
     0
 74
     0
  7

 75
     0
147
1.0
 76
     0
 77
     2
 78
   300
148
0.0
149
0.0
100
AcDbLayout
  1
Model
 70
     1
 71
     0
 10
0.0
 20
0.0
 11
12.0
 21
9.0
 12
0.0
 22
0.0
 32
0.0
 14
0.0
 24
0.0
 34
0.0
 15
0.0
 25
0.0
 35
0.0
146
0.0
 13
0.0
 23
0.0
 33
0.0
 16
1.0
 26
0.0
 36
0.0
 17
0.0
 27
1.0
 37
0.0
 76
     0
330
70
  0
MATERIAL
  5
19
102
{ACAD_XDICTIONARY
360
1A
102
}
102
{ACAD_REACTORS
330
10
102
}
330
10
100
AcDbMaterial
  1
ByBlock
 72
     0
 43
0.0208333333333333
 43
0.0
 43
0.0
 43
0.0
 43
0.0
 43
0.0208333333333333
 43
0.0
 43
0.0
 43
0.0
 43
0.0
 43
1.0
 43
0.0
 43
0.0
 43
0.0
 43
0.0
 43
1.0
 77
     0
 47
0.0208333333333333
 47
0.0
 47
0.0
 47
0.0
 47
0.0
 47
0.0208333333333333
 47
0.0
 47
0.0
 47
0.0
 47
0.0
 47
1.0
 47
0.0
 47
0.0
 47
0.0
 47
0.0
 47
1.0
171
     0
 49
0.0208333333333333
 49
0.0
 49
0.0
 49
0.0
 49
0.0
 49
0.0208333333333333
 49
0.0
 49
0.0
 49
0.0
 49
0.0
 49
1.0
 49
0.0
 49
0.0
 49
0.0
 49
0.0
 49
1.0
175
     0
142
0.0208333333333333
142
0.0
142
0.0
142
0.0
142
0.0
142
0.0208333333333333
142
0.0
142
0.0
142
0.0
142
0.0
142
1.0
142
0.0
142
0.0
142
0.0
142
0.0
142
1.0
179
     0
144
0.0208333333333333
144
0.0
144
0.0
144
0.0
144
0.0
144
0.0208333333333333
144
0.0
144
0.0
144
0.0
144
0.0
144
1.0
144
0.0
144
0.0
144
0.0
144
0.0
144
1.0
147
0.0208333333333333
147
0.0
147
0.0
147
0.0
147
0.0
147
0.0208333333333333
147
0.0
147
0.0
147
0.0
147
0.0
147
1.0
147
0.0
147
0.0
147
0.0
147
0.0
147
1.0
  0
MATERIAL
  5
11
102
{ACAD_XDICTIONARY
360
12
102
}
102
{ACAD_REACTORS
330
10
102
}
330
10
100
AcDbMaterial
  1
ByLayer
 72
     0
 43
0.0208333333333333
 43
0.0
 43
0.0
 43
0.0
 43
0.0
 43
0.0208333333333333
 43
0.0
 43
0.0
 43
0.0
 43
0.0
 43
1.0
 43
0.0
 43
0.0
 43
0.0
 43
0.0
 43
1.0
 77
     0
 47
0.0208333333333333
 47
0.0
 47
0.0
 47
0.0
 47
0.0
 47
0.0208333333333333
 47
0.0
 47
0.0
 47
0.0
 47
0.0
 47
1.0
 47
0.0
 47
0.0
 47
0.0
 47
0.0
 47
1.0
171
     0
 49
0.0208333333333333
 49
0.0
 49
0.0
 49
0.0
 49
0.0
 49
0.0208333333333333
 49
0.0
 49
0.0
 49
0.0
 49
0.0
 49
1.0
 49
0.0
 49
0.0
 49
0.0
 49
0.0
 49
1.0
175
     0
142
0.0208333333333333
142
0.0
142
0.0
142
0.0
142
0.0
142
0.0208333333333333
142
0.0
142
0.0
142
0.0
142
0.0
142
1.0
142
0.0
142
0.0
142
0.0
142
0.0
142
1.0
179
     0
144
0.0208333333333333
144
0.0
144
0.0
144
0.0
144
0.0
144
0.0208333333333333
144
0.0
144
0.0
144
0.0
144
0.0
144
1.0
144
0.0
144
0.0
144
0.0
144
0.0
144
1.0
147
0.0208333333333333
147
0.0
147
0.0
147
0.0
147
0.0
147
0.0208333333333333
147
0.0
147
0.0
147
0.0
147
0.0
147
1.0
147
0.0
147
0.0
147
0.0
147
0.0
147
1.0
  0
MATERIAL
  5
21
102
{ACAD_XDICTIONARY
360
22
102
}
102
{ACAD_REACTORS
330
10
102
}
330
10
100
AcDbMaterial
  1
Global
 72
     0
 43
0.0208333333333333
 43
0.0
 43
0.0
 43
0.0
 43
0.0
 43
0.0208333333333333
 43
0.0
 43
0.0
 43
0.0
 43
0.0
 43
1.0
 43
0.0
 43
0.0
 43
0.0
 43
0.0
 43
1.0
 77
     0
 47
0.0208333333333333
 47
0.0
 47
0.0
 47
0.0
 47
0.0
 47
0.0208333333333333
 47
0.0
 47
0.0
 47
0.0
 47
0.0
 47
1.0
 47
0.0
 47
0.0
 47
0.0
 47
0.0
 47
1.0
171
     0
 49
0.0208333333333333
 49
0.0
 49
0.0
 49
0.0
 49
0.0
 49
0.0208333333333333
 49
0.0
 49
0.0
 49
0.0
 49
0.0
 49
1.0
 49
0.0
 49
0.0
 49
0.0
 49
0.0
 49
1.0
175
     0
142
0.0208333333333333
142
0.0
142
0.0
142
0.0
142
0.0
142
0.0208333333333333
142
0.0
142
0.0
142
0.0
142
0.0
142
1.0
142
0.0
142
0.0
142
0.0
142
0.0
142
1.0
179
     0
144
0.0208333333333333
144
0.0
144
0.0
144
0.0
144
0.0
144
0.0208333333333333
144
0.0
144
0.0
144
0.0
144
0.0
144
1.0
144
0.0
144
0.0
144
0.0
144
0.0
144
1.0
147
0.0208333333333333
147
0.0
147
0.0
147
0.0
147
0.0
147
0.0208333333333333
147
0.0
147
0.0
147
0.0
147
0.0
147
1.0
147
0.0
147
0.0
147
0.0
147
0.0
147
1.0
  0
MLEADERSTYLE
  5
67
102
{ACAD_XDICTIONARY
360
326
102
}
102
{ACAD_REACTORS
330
66
102
}
330
66
100
AcDbMLeaderStyle
170
     2
171
     1
172
     0
 90
        2
 40
0.0
 41
0.0
173
     1
 91
-1056964608
340
5B
 92
       -2
290
     1
 42
0.09
291
     1
 43
0.36
  3
Standard
 44
0.18
300

342
55
174
     1
178
     6
175
     1
176
     0
 93
-1056964608
 45
0.18
292
     0
297
     0
 46
0.18
 94
-1056964608
 47
1.0
 49
1.0
140
1.0
293
     1
141
0.0
294
     1
177
     0
142
1.0
295
     0
296
     0
143
0.125
1001
ACAD_MLEADERVER
1070
     2
  0
MLINESTYLE
  5
60
102
{ACAD_REACTORS
330
5F
102
}
330
5F
100
AcDbMlineStyle
  2
STANDARD
 70
     0
  3

 62
   256
 51
90.0
 52
90.0
 71
     2
 49
0.5
 62
   256
  6
BYLAYER
 49
-0.5
 62
   256
  6
BYLAYER
  0
ACDBPLACEHOLDER
  5
F
102
{ACAD_REACTORS
330
E
102
}
330
E
  0
SCALE
  5
43
102
{ACAD_REACTORS
330
42
102
}
330
42
100
AcDbScale
 70
     0
300
1:1
140
1.0
141
1.0
290
     1
  0
SCALE
  5
44
102
{ACAD_REACTORS
330
42
102
}
330
42
100
AcDbScale
 70
     0
300
1/128" = 1'-0"
140
0.0078125
141
12.0
290
     0
  0
SCALE
  5
45
102
{ACAD_REACTORS
330
42
102
}
330
42
100
AcDbScale
 70
     0
300
1/64" = 1'-0"
140
0.015625
141
12.0
290
     0
  0
SCALE
  5
46
102
{ACAD_REACTORS
330
42
102
}
330
42
100
AcDbScale
 70
     0
300
1/32" = 1'-0"
140
0.03125
141
12.0
290
     0
  0
SCALE
  5
47
102
{ACAD_REACTORS
330
42
102
}
330
42
100
AcDbScale
 70
     0
300
1/16" = 1'-0"
140
0.0625
141
12.0
290
     0
  0
SCALE
  5
48
102
{ACAD_REACTORS
330
42
102
}
330
42
100
AcDbScale
 70
     0
300
3/32" = 1'-0"
140
0.09375
141
12.0
290
     0
  0
SCALE
  5
49
102
{ACAD_REACTORS
330
42
102
}
330
42
100
AcDbScale
 70
     0
300
1/8" = 1'-0"
140
0.125
141
12.0
290
     0
  0
SCALE
  5
4A
102
{ACAD_REACTORS
330
42
102
}
330
42
100
AcDbScale
 70
     0
300
3/16" = 1'-0"
140
0.1875
141
12.0
290
     0
  0
SCALE
  5
4B
102
{ACAD_REACTORS
330
42
102
}
330
42
100
AcDbScale
 70
     0
300
1/4" = 1'-0"
140
0.25
141
12.0
290
     0
  0
SCALE
  5
4C
102
{ACAD_REACTORS
330
42
102
}
330
42
100
AcDbScale
 70
     0
300
3/8" = 1'-0"
140
0.375
141
12.0
290
     0
  0
SCALE
  5
4D
102
{ACAD_REACTORS
330
42
102
}
330
42
100
AcDbScale
 70
     0
300
1/2" = 1'-0"
140
0.5
141
12.0
290
     0
  0
SCALE
  5
4E
102
{ACAD_REACTORS
330
42
102
}
330
42
100
AcDbScale
 70
     0
300
3/4" = 1'-0"
140
0.75
141
12.0
290
     0
  0
SCALE
  5
4F
102
{ACAD_REACTORS
330
42
102
}
330
42
100
AcDbScale
 70
     0
300
1" = 1'-0"
140
1.0
141
12.0
290
     0
  0
SCALE
  5
50
102
{ACAD_REACTORS
330
42
102
}
330
42
100
AcDbScale
 70
     0
300
1-1/2" = 1'-0"
140
1.5
141
12.0
290
     0
  0
SCALE
  5
51
102
{ACAD_REACTORS
330
42
102
}
330
42
100
AcDbScale
 70
     0
300
3" = 1'-0"
140
3.0
141
12.0
290
     0
  0
SCALE
  5
52
102
{ACAD_REACTORS
330
42
102
}
330
42
100
AcDbScale
 70
     0
300
6" = 1'-0"
140
6.0
141
12.0
290
     0
  0
SCALE
  5
53
102
{ACAD_REACTORS
330
42
102
}
330
42
100
AcDbScale
 70
     0
300
1'-0" = 1'-0"
140
12.0
141
12.0
290
     0
  0
ACDBSECTIONVIEWSTYLE
  5
69
102
{ACAD_XDICTIONARY
360
328
102
}
102
{ACAD_REACTORS
330
68
102
}
330
68
100
AcDbModelDocViewStyle
 70
     0
  3
Imperial24
290
     0
100
AcDbSectionViewStyle
 70
     0
 71
     0
 90
       78
 71
     1
340
55
 62
   256
 40
0.24
340
0
340
0
 62
   256
 40
0.24
300
I, O, Q, S, X, Z
 40
0.48
 90
        3
 40
0.18
 90
        1
 71
     2
340
5D
 90
       25
 62
   256
340
5D
 90
       50
 62
   256
 40
0.24
 40
0.0
 40
0.24
 71
     3
340
55
 62
   256
 40
0.24
 90
        1
 40
0.75
 90
        1
300
%<\AcVar ViewType \f "%tc1">% %<\AcVar ViewSectionStartId>%-%<\AcVar ViewSectionEndId>%\PSCALE %<\AcVar ViewScale \f "%sn">%
 71
     4
 62
   256
 62
   257
300
ANSI31
 40
1.0
 90
        0
290
     0
290
     0
 90
        6
 40
0.0
 40
1.570796326794896
 40
0.2617993877991494
 40
1.308996938995747
 40
-0.2617993877991494
 40
1.832595714594046
  0
TABLESTYLE
  5
65
102
{ACAD_XDICTIONARY
360
2EF
102
}
102
{ACAD_REACTORS
330
64
102
}
330
64
100
AcDbTableStyle
  3
Standard
 70
     0
 71
     0
 40
0.06
 41
0.06
280
     0
281
     0
  7
Standard
140
0.18
170
     2
 62
     0
 63
     7
283
     0
 90
      512
 91
        0
  1

274
    -2
284
     1
 64
     0
275
    -2
285
     1
 65
     0
276
    -2
286
     1
 66
     0
277
    -2
287
     1
 67
     0
278
    -2
288
     1
 68
     0
279
    -2
289
     1
 69
     0
  7
Standard
140
0.25
170
     5
 62
     0
 63
     7
283
     0
 90
      512
 91
        0
  1

274
    -2
284
     1
 64
     0
275
    -2
285
     1
 65
     0
276
    -2
286
     1
 66
     0
277
    -2
287
     1
 67
     0
278
    -2
288
     1
 68
     0
279
    -2
289
     1
 69
     0
  7
Standard
140
0.18
170
     5
 62
     0
 63
     7
283
     0
 90
      512
 91
        0
  1

274
    -2
284
     1
 64
     0
275
    -2
285
     1
 65
     0
276
    -2
286
     1
 66
     0
277
    -2
287
     1
 67
     0
278
    -2
288
     1
 68
     0
279
    -2
289
     1
 69
     0
  0
VISUALSTYLE
  5
2F
102
{ACAD_XDICTIONARY
360
2FF
102
}
102
{ACAD_REACTORS
330
29
102
}
330
29
100
AcDbVisualStyle
  2
2dWireframe
 70
     4
 71
     0
 72
     2
 73
     0
 90
        0
 40
-0.6
 41
-30.0
 62
     5
 63
     7
421
 16777215
 74
     1
 91
        4
 64
     7
 65
   257
 75
     1
175
     1
 42
1.0
 92
        0
 66
   257
 43
1.0
 76
     1
 77
     6
 78
     2
 67
     7
 79
     5
170
     0
171
     0
290
     0
174
     0
 93
        1
 44
0.0
173
     0
291
     0
 45
0.0
1001
ACAD
1000
AcDbSavedByObjectVersion
1070
     0
  0
VISUALSTYLE
  5
2E
102
{ACAD_XDICTIONARY
360
2FD
102
}
102
{ACAD_REACTORS
330
29
102
}
330
29
100
AcDbVisualStyle
  2
Basic
 70
     7
 71
     1
 72
     0
 73
     1
 90
        0
 40
-0.6
 41
-30.0
 62
     5
 63
     7
421
 16777215
 74
     0
 91
        4
 64
     7
 65
   257
 75
     1
175
     1
 42
1.0
 92
        8
 66
     7
 43
1.0
 76
     1
 77
     6
 78
     2
 67
     7
 79
     5
170
     0
171
     0
290
     0
174
     0
 93
        1
 44
0.0
173
     0
291
     1
 45
0.0
1001
ACAD
1000
AcDbSavedByObjectVersion
1070
     0
  0
VISUALSTYLE
  5
35
102
{ACAD_XDICTIONARY
360
30B
102
}
102
{ACAD_REACTORS
330
29
102
}
330
29
100
AcDbVisualStyle
  2
Brighten
 70
    12
 71
     2
 72
     2
 73
     0
 90
        0
 40
-0.6
 41
-30.0
 62
     5
 63
     7
421
 16777215
 74
     1
 91
        4
 64
     7
 65
   257
 75
     1
175
     1
 42
1.0
 92
        8
 66
     7
 43
1.0
 76
     1
 77
     6
 78
     2
 67
     7
 79
     5
170
     0
171
     0
290
     0
174
     0
 93
        1
 44
50.0
173
     0
291
     1
 45
0.0
1001
ACAD
1000
AcDbSavedByObjectVersion
1070
     0
  0
VISUALSTYLE
  5
39
102
{ACAD_XDICTIONARY
360
313
102
}
102
{ACAD_REACTORS
330
29
102
}
330
29
100
AcDbVisualStyle
  2
ColorChange
 70
    16
 71
     2
 72
     2
 73
     3
 90
        0
 40
-0.6
 41
-30.0
 62
     5
 63
     8
421
  8421504
 74
     1
 91
        4
 64
     7
 65
   257
 75
     1
175
     1
 42
1.0
 92
        8
 66
     8
424
  8421504
 43
1.0
 76
     1
 77
     6
 78
     2
 67
     7
 79
     5
170
     0
171
     0
290
     0
174
     0
 93
        1
 44
0.0
173
     0
291
     1
 45
0.0
1001
ACAD
1000
AcDbSavedByObjectVersion
1070
     0
  0
VISUALSTYLE
  5
32
102
{ACAD_XDICTIONARY
360
305
102
}
102
{ACAD_REACTORS
330
29
102
}
330
29
100
AcDbVisualStyle
  2
Conceptual
 70
     9
 71
     3
 72
     2
 73
     0
 90
        0
 40
-0.6
 41
-30.0
 62
     5
 63
     7
421
 16777215
 74
     2
 91
        2
 64
     7
 65
   257
 75
     1
175
     1
 42
179.0
 92
        8
 66
     7
 43
1.0
 76
     1
 77
     6
 78
     2
 67
     7
 79
     3
170
     0
171
     0
290
     0
174
     0
 93
        1
 44
0.0
173
     0
291
     0
 45
0.0
1001
ACAD
1000
AcDbSavedByObjectVersion
1070
     0
  0
VISUALSTYLE
  5
34
102
{ACAD_XDICTIONARY
360
309
102
}
102
{ACAD_REACTORS
330
29
102
}
330
29
100
AcDbVisualStyle
  2
Dim
 70
    11
 71
     2
 72
     2
 73
     0
 90
        0
 40
-0.6
 41
-30.0
 62
     5
 63
     7
421
 16777215
 74
     1
 91
        4
 64
     7
 65
   257
 75
     1
175
     1
 42
1.0
 92
        8
 66
     7
 43
1.0
 76
     1
 77
     6
 78
     2
 67
     7
 79
     5
170
     0
171
     0
290
     0
174
     0
 93
        1
 44
-50.0
173
     0
291
     1
 45
0.0
1001
ACAD
1000
AcDbSavedByObjectVersion
1070
     0
  0
VISUALSTYLE
  5
41
102
{ACAD_XDICTIONARY
360
323
102
}
102
{ACAD_REACTORS
330
29
102
}
330
29
100
AcDbVisualStyle
  2
EdgeColorOff
 70
    22
 71
     2
 72
     2
 73
     0
 90
        0
 40
-0.6
 41
-30.0
 62
     5
 63
     7
421
 16777215
 74
     1
 91
        4
 64
     7
 65
   257
 75
     1
175
     1
 42
1.0
 92
        8
 66
     7
 43
1.0
 76
     1
 77
     6
 78
     2
 67
     7
 79
     5
170
     0
171
     0
290
     0
174
     0
 93
        1
 44
0.0
173
     0
291
     1
 45
0.0
1001
ACAD
1000
AcDbSavedByObjectVersion
1070
     0
  0
VISUALSTYLE
  5
38
102
{ACAD_XDICTIONARY
360
311
102
}
102
{ACAD_REACTORS
330
29
102
}
330
29
100
AcDbVisualStyle
  2
Facepattern
 70
    15
 71
     2
 72
     2
 73
     0
 90
        0
 40
-0.6
 41
-30.0
 62
     5
 63
     7
421
 16777215
 74
     1
 91
        4
 64
     7
 65
   257
 75
     1
175
     1
 42
1.0
 92
        8
 66
     7
 43
1.0
 76
     1
 77
     6
 78
     2
 67
     7
 79
     5
170
     0
171
     0
290
     0
174
     0
 93
        1
 44
0.0
173
     0
291
     1
 45
0.0
1001
ACAD
1000
AcDbSavedByObjectVersion
1070
     0
  0
VISUALSTYLE
  5
2A
102
{ACAD_XDICTIONARY
360
2F5
102
}
102
{ACAD_REACTORS
330
29
102
}
330
29
100
AcDbVisualStyle
  2
Flat
 70
     0
 71
     2
 72
     1
 73
     1
 90
        2
 40
-0.6
 41
30.0
 62
     5
 63
     7
421
 16777215
 74
     0
 91
        0
 64
     7
 65
   257
 75
     1
175
     1
 42
1.0
 92
        8
 66
     7
 43
1.0
 76
     1
 77
     6
 78
     2
 67
     7
 79
     5
170
     0
171
     0
290
     0
174
     0
 93
       13
 44
0.0
173
     0
291
     1
 45
0.0
1001
ACAD
1000
AcDbSavedByObjectVersion
1070
     0
  0
VISUALSTYLE
  5
2B
102
{ACAD_XDICTIONARY
360
2F7
102
}
102
{ACAD_REACTORS
330
29
102
}
330
29
100
AcDbVisualStyle
  2
FlatWithEdges
 70
     1
 71
     2
 72
     1
 73
     1
 90
        2
 40
-0.6
 41
30.0
 62
     5
 63
     7
421
 16777215
 74
     1
 91
        0
 64
     7
 65
   257
 75
     1
175
     1
 42
1.0
 92
        0
 66
   257
 43
1.0
 76
     1
 77
     6
 78
     2
 67
     7
 79
     5
170
     0
171
     0
290
     0
174
     0
 93
       13
 44
0.0
173
     0
291
     1
 45
0.0
1001
ACAD
1000
AcDbSavedByObjectVersion
1070
     0
  0
VISUALSTYLE
  5
2C
102
{ACAD_XDICTIONARY
360
2F9
102
}
102
{ACAD_REACTORS
330
29
102
}
330
29
100
AcDbVisualStyle
  2
Gouraud
 70
     2
 71
     2
 72
     2
 73
     1
 90
        2
 40
-0.6
 41
30.0
 62
     5
 63
     7
421
 16777215
 74
     0
 91
        0
 64
     7
 65
   257
 75
     1
175
     1
 42
1.0
 92
        0
 66
     7
 43
1.0
 76
     1
 77
     6
 78
     2
 67
     7
 79
     5
170
     0
171
     0
290
     0
174
     0
 93
       13
 44
0.0
173
     0
291
     1
 45
0.0
1001
ACAD
1000
AcDbSavedByObjectVersion
1070
     0
  0
VISUALSTYLE
  5
2D
102
{ACAD_XDICTIONARY
360
2FB
102
}
102
{ACAD_REACTORS
330
29
102
}
330
29
100
AcDbVisualStyle
  2
GouraudWithEdges
 70
     3
 71
     2
 72
     2
 73
     1
 90
        2
 40
-0.6
 41
30.0
 62
     5
 63
     7
421
 16777215
 74
     1
 91
        0
 64
     7
 65
   257
 75
     1
175
     1
 42
1.0
 92
        0
 66
   257
 43
1.0
 76
     1
 77
     6
 78
     2
 67
     7
 79
     5
170
     0
171
     0
290
     0
174
     0
 93
       13
 44
0.0
173
     0
291
     1
 45
0.0
1001
ACAD
1000
AcDbSavedByObjectVersion
1070
     0
  0
VISUALSTYLE
  5
31
102
{ACAD_XDICTIONARY
360
303
102
}
102
{ACAD_REACTORS
330
29
102
}
330
29
100
AcDbVisualStyle
  2
Hidden
 70
     6
 71
     1
 72
     2
 73
     2
 90
        0
 40
-0.6
 41
-30.0
 62
     5
 63
     7
421
 16777215
 74
     2
 91
        2
 64
     7
 65
   257
 75
     2
175
     1
 42
40.0
 92
        0
 66
   257
 43
1.0
 76
     1
 77
     6
 78
     2
 67
     7
 79
     3
170
     0
171
     0
290
     0
174
     0
 93
        1
 44
0.0
173
     0
291
     0
 45
0.0
1001
ACAD
1000
AcDbSavedByObjectVersion
1070
     0
  0
VISUALSTYLE
  5
3F
102
{ACAD_XDICTIONARY
360
31F
102
}
102
{ACAD_REACTORS
330
29
102
}
330
29
100
AcDbVisualStyle
  2
JitterOff
 70
    20
 71
     2
 72
     2
 73
     0
 90
        0
 40
-0.6
 41
-30.0
 62
     5
 63
     7
421
 16777215
 74
     1
 91
        4
 64
     7
 65
   257
 75
     1
175
     1
 42
1.0
 92
       10
 66
     7
 43
1.0
 76
     1
 77
     6
 78
     2
 67
     7
 79
     5
170
     0
171
     0
290
     0
174
     0
 93
        1
 44
0.0
173
     0
291
     1
 45
0.0
1001
ACAD
1000
AcDbSavedByObjectVersion
1070
     0
  0
VISUALSTYLE
  5
37
102
{ACAD_XDICTIONARY
360
30F
102
}
102
{ACAD_REACTORS
330
29
102
}
330
29
100
AcDbVisualStyle
  2
Linepattern
 70
    14
 71
     2
 72
     2
 73
     0
 90
        0
 40
-0.6
 41
-30.0
 62
     5
 63
     7
421
 16777215
 74
     1
 91
        4
 64
     7
 65
   257
 75
     7
175
     7
 42
1.0
 92
        8
 66
     7
 43
1.0
 76
     1
 77
     6
 78
     2
 67
     7
 79
     5
170
     0
171
     0
290
     0
174
     0
 93
        1
 44
0.0
173
     0
291
     1
 45
0.0
1001
ACAD
1000
AcDbSavedByObjectVersion
1070
     0
  0
VISUALSTYLE
  5
40
102
{ACAD_XDICTIONARY
360
321
102
}
102
{ACAD_REACTORS
330
29
102
}
330
29
100
AcDbVisualStyle
  2
OverhangOff
 70
    21
 71
     2
 72
     2
 73
     0
 90
        0
 40
-0.6
 41
-30.0
 62
     5
 63
     7
421
 16777215
 74
     1
 91
        4
 64
     7
 65
   257
 75
     1
175
     1
 42
1.0
 92
        9
 66
     7
 43
1.0
 76
     1
 77
     6
 78
     2
 67
     7
 79
     5
170
     0
171
     0
290
     0
174
     0
 93
        1
 44
0.0
173
     0
291
     1
 45
0.0
1001
ACAD
1000
AcDbSavedByObjectVersion
1070
     0
  0
VISUALSTYLE
  5
33
102
{ACAD_XDICTIONARY
360
307
102
}
102
{ACAD_REACTORS
330
29
102
}
330
29
100
AcDbVisualStyle
  2
Realistic
 70
     8
 71
     2
 72
     3
 73
     0
 90
        2
 40
-0.6
 41
30.0
 62
     5
 63
     7
421
 16777215
 74
     0
 91
        0
 64
     7
 65
   257
 75
     1
175
     1
 42
1.0
 92
        8
 66
   257
 43
1.0
 76
     1
 77
     6
 78
     2
 67
     7
 79
     3
170
     0
171
     0
290
     0
174
     0
 93
       13
 44
0.0
173
     0
291
     0
 45
0.0
1001
ACAD
1000
AcDbSavedByObjectVersion
1070
     0
  0
VISUALSTYLE
  5
3E
102
{ACAD_XDICTIONARY
360
31D
102
}
102
{ACAD_REACTORS
330
29
102
}
330
29
100
AcDbVisualStyle
  2
Shaded
 70
    27
 71
     2
 72
     2
 73
     1
 90
        2
 40
-0.6
 41
30.0
 62
     5
 63
     7
421
 16777215
 74
     0
 91
        4
 64
     7
 65
   257
 75
     1
175
     1
 42
1.0
 92
        8
 66
   257
 43
1.0
 76
     1
 77
     6
 78
     2
 67
     8
425
  7895160
 79
     3
170
     0
171
     0
290
     0
174
     0
 93
        5
 44
0.0
173
     0
291
     0
 45
0.0
1001
ACAD
1000
AcDbSavedByObjectVersion
1070
     0
  0
VISUALSTYLE
  5
3D
102
{ACAD_XDICTIONARY
360
31B
102
}
102
{ACAD_REACTORS
330
29
102
}
330
29
100
AcDbVisualStyle
  2
Shaded with edges
 70
    26
 71
     2
 72
     2
 73
     1
 90
        2
 40
-0.6
 41
30.0
 62
     5
 63
     7
421
 16777215
 74
     1
 91
        2
 64
     7
 65
   257
 75
     2
175
     1
 42
1.0
 92
        8
 66
   257
 43
1.0
 76
     1
 77
     6
 78
     2
 67
     7
 79
     3
170
     0
171
     0
290
     0
174
     0
 93
        5
 44
0.0
173
     0
291
     0
 45
0.0
1001
ACAD
1000
AcDbSavedByObjectVersion
1070
     0
  0
VISUALSTYLE
  5
3A
102
{ACAD_XDICTIONARY
360
315
102
}
102
{ACAD_REACTORS
330
29
102
}
330
29
100
AcDbVisualStyle
  2
Shades of Gray
 70
    23
 71
     2
 72
     2
 73
     3
 90
        0
 40
-0.6
 41
-30.0
 62
     5
 63
     7
421
 16777215
 74
     2
 91
        2
 64
     7
 65
     7
 75
     1
175
     1
 42
40.0
 92
        8
 66
     7
 43
1.0
 76
     1
 77
     6
 78
     2
 67
     7
 79
     3
170
     0
171
     0
290
     0
174
     0
 93
        1
 44
0.0
173
     0
291
     0
 45
0.0
1001
ACAD
1000
AcDbSavedByObjectVersion
1070
     0
  0
VISUALSTYLE
  5
3B
102
{ACAD_XDICTIONARY
360
317
102
}
102
{ACAD_REACTORS
330
29
102
}
330
29
100
AcDbVisualStyle
  2
Sketchy
 70
    24
 71
     1
 72
     2
 73
     2
 90
        0
 40
-0.6
 41
-30.0
 62
     5
 63
     7
421
 16777215
 74
     2
 91
        2
 64
     7
 65
     7
 75
     1
175
     1
 42
40.0
 92
       11
 66
     7
 43
1.0
 76
     1
 77
     6
 78
     2
 67
     7
 79
     6
170
     0
171
     0
290
     0
174
     0
 93
        1
 44
0.0
173
     0
291
     0
 45
0.0
1001
ACAD
1000
AcDbSavedByObjectVersion
1070
     0
  0
VISUALSTYLE
  5
36
102
{ACAD_XDICTIONARY
360
30D
102
}
102
{ACAD_REACTORS
330
29
102
}
330
29
100
AcDbVisualStyle
  2
Thicken
 70
    13
 71
     2
 72
     2
 73
     0
 90
        0
 40
-0.6
 41
-30.0
 62
     5
 63
     7
421
 16777215
 74
     1
 91
        4
 64
     7
 65
   257
 75
     1
175
     1
 42
1.0
 92
       12
 66
     7
 43
1.0
 76
     1
 77
     6
 78
     2
 67
     7
 79
     5
170
     0
171
     0
290
     0
174
     0
 93
        1
 44
0.0
173
     0
291
     1
 45
0.0
1001
ACAD
1000
AcDbSavedByObjectVersion
1070
     0
  0
VISUALSTYLE
  5
30
102
{ACAD_XDICTIONARY
360
301
102
}
102
{ACAD_REACTORS
330
29
102
}
330
29
100
AcDbVisualStyle
  2
Wireframe
 70
     5
 71
     0
 72
     2
 73
     0
 90
        0
 40
-0.6
 41
-30.0
 62
     5
 63
     7
421
 16777215
 74
     1
 91
        4
 64
     7
 65
   257
 75
     1
175
     1
 42
1.0
 92
        0
 66
   257
 43
1.0
 76
     1
 77
     6
 78
     2
 67
     7
 79
     3
170
     0
171
     0
290
     0
174
     0
 93
        1
 44
0.0
173
     0
291
     0
 45
0.0
1001
ACAD
1000
AcDbSavedByObjectVersion
1070
     0
  0
VISUALSTYLE
  5
3C
102
{ACAD_XDICTIONARY
360
319
102
}
102
{ACAD_REACTORS
330
29
102
}
330
29
100
AcDbVisualStyle
  2
X-Ray
 70
    25
 71
     2
 72
     2
 73
     1
 90
        1
 40
0.5
 41
-30.0
 62
     5
 63
     7
421
 16777215
 74
     1
 91
        0
 64
     7
 65
   257
 75
     1
175
     1
 42
1.0
 92
        8
 66
     7
 43
1.0
 76
     1
 77
     6
 78
     2
 67
     7
 79
     3
170
     0
171
     0
290
     0
174
     0
 93
       13
 44
0.0
173
     0
291
     0
 45
0.0
1001
ACAD
1000
AcDbSavedByObjectVersion
1070
     0
  0
DICTIONARYVAR
  5
80
102
{ACAD_REACTORS
330
7B
102
}
330
7B
100
DictionaryVariables
280
     0
  1
1:1
  0
DICTIONARYVAR
  5
7D
102
{ACAD_REACTORS
330
7B
102
}
330
7B
100
DictionaryVariables
280
     0
  1
STANDARD
  0
DICTIONARYVAR
  5
7C
102
{ACAD_REACTORS
330
7B
102
}
330
7B
100
DictionaryVariables
280
     0
  1
STANDARD
  0
DICTIONARYVAR
  5
7E
102
{ACAD_REACTORS
330
7B
102
}
330
7B
100
DictionaryVariables
280
     0
  1
Imperial24
  0
DICTIONARYVAR
  5
7F
102
{ACAD_REACTORS
330
7B
102
}
330
7B
100
DictionaryVariables
280
     0
  1
Imperial24
  0
DICTIONARYVAR
  5
81
102
{ACAD_REACTORS
330
7B
102
}
330
7B
100
DictionaryVariables
280
     0
  1
2
  0
XRECORD
  5
2EB
102
{ACAD_REACTORS
330
2E7
102
}
330
2E7
100
AcDbXrecord
280
     1
  1
BUILDING_ID
  1
22-07-08 Ardex Mebrane 2023 Revit File
  1
FLOOR_ID
  1
333394
  0
XRECORD
  5
2E9
102
{ACAD_REACTORS
330
2E7
102
}
330
2E7
100
AcDbXrecord
280
     1
  1
-2000051
  1
Lines
  1
-2000260
  1
Dimensions
  1
-2000280
  1
Title Blocks
  1
-2000510
  1
Viewports
  1
-2002000
  1
Detail Items
  1
-2005022
  1
Multi-Category Tags
  0
XRECORD
  5
2EA
102
{ACAD_REACTORS
330
2E7
102
}
330
2E7
100
AcDbXrecord
280
     1
  1
330674
  1
(ARDEX) Lines 05
  1
335604
  1
(ARDEX) Lines 01 Grey
  1
335606
  1
(ARDEX) Lines 01
  1
335610
  1
(ARDEX) Lines 03
  1
342012
  1
(ARDEX) Lines 05 Dashed
  1
352413
  1
(ARDEX) Lines 08 Dashed
  1
488774
  1
05
  1
488778
  1
Cut Lines
  0
XRECORD
  5
2E8
102
{ACAD_REACTORS
330
2E7
102
}
330
2E7
100
AcDbXrecord
280
     1
  1
333213
  1
(ARDEX) Landscape Title block : (ARDEX) Landscape Title block
  1
337368
  1
Linear Dimension Style : (ARDEX) - 2mm
  1
372253
  1
(ARDEX) Tag Multi Category : Detail components
  1
372261
  1
(ARDEX) Tag Multi Category : Comments
  1
376727
  1
(ARDEX) Fillet : (ARDEX) Fillet 25mm
  1
489751
  1
(ARDEX) Framing : Framing
  1
502649
  1
(ARDEX) Plywood : 18mm
  1
523041
  1
(ARDEX) Lining - Various : Roofing - 18mm
  1
563041
  1
(ARDEX) Lining - Various : Polyiso Board
  1
569180
  1
(ARDEX) Lines : Membrane
  1
569184
  1
(ARDEX) Lines : Barrier
  1
571521
  1
(ARDEX) Lining - Various : Cover Board
  1
581377
  1
Filled region : SUBSTRATE TO COMPLY WITH CURRENT ARDEX SUBSTRATE SPECIFICATION
  1
949
  1
Viewport : (AS) No Scale No Back Ref
  0
DICTIONARY
  5
32A
330
6B
100
AcDbDictionary
280
     1
281
     1
  3
ACAD_XREC_ROUNDTRIP
360
32B
  0
DICTIONARY
  5
1A
330
19
100
AcDbDictionary
280
     1
281
     1
  3
BUMPTILE
360
1C
  3
DIFFUSETILE
360
1B
  3
OPACITYTILE
360
1F
  3
REFLECTIONTILE
360
1E
  3
REFRACTIONTILE
360
20
  3
SPECULARTILE
360
1D
  0
DICTIONARY
  5
12
330
11
100
AcDbDictionary
280
     1
281
     1
  3
BUMPTILE
360
14
  3
DIFFUSETILE
360
13
  3
OPACITYTILE
360
17
  3
REFLECTIONTILE
360
16
  3
REFRACTIONTILE
360
18
  3
SPECULARTILE
360
15
  0
DICTIONARY
  5
22
330
21
100
AcDbDictionary
280
     1
281
     1
  3
BUMPTILE
360
24
  3
DIFFUSETILE
360
23
  3
OPACITYTILE
360
27
  3
REFLECTIONTILE
360
26
  3
REFRACTIONTILE
360
28
  3
SPECULARTILE
360
25
  0
DICTIONARY
  5
326
330
67
100
AcDbDictionary
280
     1
281
     1
  3
ACAD_XREC_ROUNDTRIP
360
327
  0
DICTIONARY
  5
328
330
69
100
AcDbDictionary
280
     1
281
     1
  3
ACAD_XREC_ROUNDTRIP
360
329
  0
DICTIONARY
  5
2EF
330
65
100
AcDbDictionary
280
     1
281
     1
  3
ACAD_ROUNDTRIP_2008_TABLESTYLE_CELLSTYLEMAP
360
2F0
  0
DICTIONARY
  5
2FF
330
2F
100
AcDbDictionary
280
     1
281
     1
  3
ACAD_XREC_ROUNDTRIP
360
300
  0
DICTIONARY
  5
2FD
330
2E
100
AcDbDictionary
280
     1
281
     1
  3
ACAD_XREC_ROUNDTRIP
360
2FE
  0
DICTIONARY
  5
30B
330
35
100
AcDbDictionary
280
     1
281
     1
  3
ACAD_XREC_ROUNDTRIP
360
30C
  0
DICTIONARY
  5
313
330
39
100
AcDbDictionary
280
     1
281
     1
  3
ACAD_XREC_ROUNDTRIP
360
314
  0
DICTIONARY
  5
305
330
32
100
AcDbDictionary
280
     1
281
     1
  3
ACAD_XREC_ROUNDTRIP
360
306
  0
DICTIONARY
  5
309
330
34
100
AcDbDictionary
280
     1
281
     1
  3
ACAD_XREC_ROUNDTRIP
360
30A
  0
DICTIONARY
  5
323
330
41
100
AcDbDictionary
280
     1
281
     1
  3
ACAD_XREC_ROUNDTRIP
360
324
  0
DICTIONARY
  5
311
330
38
100
AcDbDictionary
280
     1
281
     1
  3
ACAD_XREC_ROUNDTRIP
360
312
  0
DICTIONARY
  5
2F5
330
2A
100
AcDbDictionary
280
     1
281
     1
  3
ACAD_XREC_ROUNDTRIP
360
2F6
  0
DICTIONARY
  5
2F7
330
2B
100
AcDbDictionary
280
     1
281
     1
  3
ACAD_XREC_ROUNDTRIP
360
2F8
  0
DICTIONARY
  5
2F9
330
2C
100
AcDbDictionary
280
     1
281
     1
  3
ACAD_XREC_ROUNDTRIP
360
2FA
  0
DICTIONARY
  5
2FB
330
2D
100
AcDbDictionary
280
     1
281
     1
  3
ACAD_XREC_ROUNDTRIP
360
2FC
  0
DICTIONARY
  5
303
330
31
100
AcDbDictionary
280
     1
281
     1
  3
ACAD_XREC_ROUNDTRIP
360
304
  0
DICTIONARY
  5
31F
330
3F
100
AcDbDictionary
280
     1
281
     1
  3
ACAD_XREC_ROUNDTRIP
360
320
  0
DICTIONARY
  5
30F
330
37
100
AcDbDictionary
280
     1
281
     1
  3
ACAD_XREC_ROUNDTRIP
360
310
  0
DICTIONARY
  5
321
330
40
100
AcDbDictionary
280
     1
281
     1
  3
ACAD_XREC_ROUNDTRIP
360
322
  0
DICTIONARY
  5
307
330
33
100
AcDbDictionary
280
     1
281
     1
  3
ACAD_XREC_ROUNDTRIP
360
308
  0
DICTIONARY
  5
31D
330
3E
100
AcDbDictionary
280
     1
281
     1
  3
ACAD_XREC_ROUNDTRIP
360
31E
  0
DICTIONARY
  5
31B
330
3D
100
AcDbDictionary
280
     1
281
     1
  3
ACAD_XREC_ROUNDTRIP
360
31C
  0
DICTIONARY
  5
315
330
3A
100
AcDbDictionary
280
     1
281
     1
  3
ACAD_XREC_ROUNDTRIP
360
316
  0
DICTIONARY
  5
317
330
3B
100
AcDbDictionary
280
     1
281
     1
  3
ACAD_XREC_ROUNDTRIP
360
318
  0
DICTIONARY
  5
30D
330
36
100
AcDbDictionary
280
     1
281
     1
  3
ACAD_XREC_ROUNDTRIP
360
30E
  0
DICTIONARY
  5
301
330
30
100
AcDbDictionary
280
     1
281
     1
  3
ACAD_XREC_ROUNDTRIP
360
302
  0
DICTIONARY
  5
319
330
3C
100
AcDbDictionary
280
     1
281
     1
  3
ACAD_XREC_ROUNDTRIP
360
31A
  0
XRECORD
  5
32B
102
{ACAD_REACTORS
330
32A
102
}
330
32A
100
AcDbXrecord
280
     1
102
DISPLAYNAME
  1
Imperial24
102
FLAGS
 90
        0
  0
XRECORD
  5
1C
102
{ACAD_REACTORS
330
1A
102
}
330
1A
100
AcDbXrecord
280
     1
270
     1
271
     1
  0
XRECORD
  5
1B
102
{ACAD_REACTORS
330
1A
102
}
330
1A
100
AcDbXrecord
280
     1
270
     1
271
     1
  0
XRECORD
  5
1F
102
{ACAD_REACTORS
330
1A
102
}
330
1A
100
AcDbXrecord
280
     1
270
     1
271
     1
  0
XRECORD
  5
1E
102
{ACAD_REACTORS
330
1A
102
}
330
1A
100
AcDbXrecord
280
     1
270
     1
271
     1
  0
XRECORD
  5
20
102
{ACAD_REACTORS
330
1A
102
}
330
1A
100
AcDbXrecord
280
     1
270
     1
271
     1
  0
XRECORD
  5
1D
102
{ACAD_REACTORS
330
1A
102
}
330
1A
100
AcDbXrecord
280
     1
270
     1
271
     1
  0
XRECORD
  5
14
102
{ACAD_REACTORS
330
12
102
}
330
12
100
AcDbXrecord
280
     1
270
     1
271
     1
  0
XRECORD
  5
13
102
{ACAD_REACTORS
330
12
102
}
330
12
100
AcDbXrecord
280
     1
270
     1
271
     1
  0
XRECORD
  5
17
102
{ACAD_REACTORS
330
12
102
}
330
12
100
AcDbXrecord
280
     1
270
     1
271
     1
  0
XRECORD
  5
16
102
{ACAD_REACTORS
330
12
102
}
330
12
100
AcDbXrecord
280
     1
270
     1
271
     1
  0
XRECORD
  5
18
102
{ACAD_REACTORS
330
12
102
}
330
12
100
AcDbXrecord
280
     1
270
     1
271
     1
  0
XRECORD
  5
15
102
{ACAD_REACTORS
330
12
102
}
330
12
100
AcDbXrecord
280
     1
270
     1
271
     1
  0
XRECORD
  5
24
102
{ACAD_REACTORS
330
22
102
}
330
22
100
AcDbXrecord
280
     1
270
     1
271
     1
  0
XRECORD
  5
23
102
{ACAD_REACTORS
330
22
102
}
330
22
100
AcDbXrecord
280
     1
270
     1
271
     1
  0
XRECORD
  5
27
102
{ACAD_REACTORS
330
22
102
}
330
22
100
AcDbXrecord
280
     1
270
     1
271
     1
  0
XRECORD
  5
26
102
{ACAD_REACTORS
330
22
102
}
330
22
100
AcDbXrecord
280
     1
270
     1
271
     1
  0
XRECORD
  5
28
102
{ACAD_REACTORS
330
22
102
}
330
22
100
AcDbXrecord
280
     1
270
     1
271
     1
  0
XRECORD
  5
25
102
{ACAD_REACTORS
330
22
102
}
330
22
100
AcDbXrecord
280
     1
270
     1
271
     1
  0
XRECORD
  5
327
102
{ACAD_REACTORS
330
326
102
}
330
326
100
AcDbXrecord
280
     1
102
ACAD_ROUNDTRIP_2012_MLEADER_STYLE
298
     1
  0
XRECORD
  5
329
102
{ACAD_REACTORS
330
328
102
}
330
328
100
AcDbXrecord
280
     1
102
DISPLAYNAME
  1
Imperial24
102
FLAGS
 90
        0
  0
CELLSTYLEMAP
  5
2F0
102
{ACAD_REACTORS
330
2EF
102
}
330
2EF
100
AcDbCellStyleMap
 90
        3
300
CELLSTYLE
  1
TABLEFORMAT_BEGIN
 90
        5
170
     1
 91
        0
 92
    32768
 62
   257
 93
        1
300
CONTENTFORMAT
  1
CONTENTFORMAT_BEGIN
 90
        0
 91
        0
 92
      512
 93
        0
300

 40
0.0
140
1.0
 94
        5
 62
     0
340
55
144
0.25
309
CONTENTFORMAT_END
171
     0
 94
        0
309
TABLEFORMAT_END
  1
CELLSTYLE_BEGIN
 90
        1
 91
        1
300
_TITLE
309
CELLSTYLE_END
300
CELLSTYLE
  1
TABLEFORMAT_BEGIN
 90
        5
170
     1
 91
        0
 92
        0
 62
   257
 93
        1
300
CONTENTFORMAT
  1
CONTENTFORMAT_BEGIN
 90
        0
 91
        0
 92
      512
 93
        0
300

 40
0.0
140
1.0
 94
        5
 62
     0
340
55
144
0.18
309
CONTENTFORMAT_END
171
     0
 94
        0
309
TABLEFORMAT_END
  1
CELLSTYLE_BEGIN
 90
        2
 91
        1
300
_HEADER
309
CELLSTYLE_END
300
CELLSTYLE
  1
TABLEFORMAT_BEGIN
 90
        5
170
     1
 91
        0
 92
        0
 62
   257
 93
        1
300
CONTENTFORMAT
  1
CONTENTFORMAT_BEGIN
 90
        0
 91
        0
 92
      512
 93
        0
300

 40
0.0
140
1.0
 94
        2
 62
     0
340
55
144
0.18
309
CONTENTFORMAT_END
171
     0
 94
        0
309
TABLEFORMAT_END
  1
CELLSTYLE_BEGIN
 90
        3
 91
        2
300
_DATA
309
CELLSTYLE_END
  0
XRECORD
  5
300
102
{ACAD_REACTORS
330
2FF
102
}
330
2FF
100
AcDbXrecord
280
     1
102
RTVSPost2010Prop28
280
     1
102
RTVSPost2010PropOp28
 70
     1
102
RTVSPost2010Prop29
280
     1
102
RTVSPost2010PropOp29
 70
     1
102
RTVSPost2010Prop30
280
     0
102
RTVSPost2010PropOp30
 70
     1
102
RTVSPost2010Prop31
280
     0
102
RTVSPost2010PropOp31
 70
     1
102
RTVSPost2010Prop32
280
     0
102
RTVSPost2010PropOp32
 70
     1
102
RTVSPost2010Prop33
280
     0
102
RTVSPost2010PropOp33
 70
     1
102
RTVSPost2010Prop34
280
     0
102
RTVSPost2010PropOp34
 70
     1
102
RTVSPost2010Prop35
280
     0
102
RTVSPost2010PropOp35
 70
     1
102
RTVSPost2010Prop36
280
     0
102
RTVSPost2010PropOp36
 70
     1
102
RTVSPost2010Prop37
 90
       50
102
RTVSPost2010PropOp37
 70
     1
102
RTVSPost2010Prop38
140
0.0
102
RTVSPost2010PropOp38
 70
     1
102
RTVSPost2010Prop39
140
1.0
102
RTVSPost2010PropOp39
 70
     1
102
RTVSPost2010Prop40
 90
        0
102
RTVSPost2010PropOp40
 70
     1
102
RTVSPost2010Prop41ColorIndex
 90
       18
102
RTVSPost2010Prop41ColorRGB
 90
        0
102
RTVSPost2010PropOp41
 70
     1
102
RTVSPost2010Prop42
 90
       50
102
RTVSPost2010PropOp42
 70
     1
102
RTVSPost2010Prop43
 90
        3
102
RTVSPost2010PropOp43
 70
     1
102
RTVSPost2010Prop44ColorIndex
 90
        5
102
RTVSPost2010Prop44ColorRGB
 90
      255
102
RTVSPost2010PropOp44
 70
     1
102
RTVSPost2010Prop45
280
     0
102
RTVSPost2010PropOp45
 70
     1
102
RTVSPost2010Prop46
 90
       50
102
RTVSPost2010PropOp46
 70
     1
102
RTVSPost2010Prop47
 90
       50
102
RTVSPost2010PropOp47
 70
     1
102
RTVSPost2010Prop48
 90
       50
102
RTVSPost2010PropOp48
 70
     1
102
RTVSPost2010Prop49
280
     0
102
RTVSPost2010PropOp49
 70
     1
102
RTVSPost2010Prop50
 90
       50
102
RTVSPost2010PropOp50
 70
     1
102
RTVSPost2010Prop51ColorIndex
 90
      256
102
RTVSPost2010Prop51ColorRGB
 90
-16777216
102
RTVSPost2010PropOp51
 70
     0
102
RTVSPost2010Prop52
140
1.0
102
RTVSPost2010PropOp52
 70
     0
102
RTVSPost2010Prop53
 90
        2
102
RTVSPost2010PropOp53
 70
     1
102
RTVSPost2010Prop54
  1
strokes_ogs.tif
102
RTVSPost2010PropOp54
 70
     1
102
RTVSPost2010Prop55
280
     0
102
RTVSPost2010PropOp55
 70
     1
102
RTVSPost2010Prop56
140
1.0
102
RTVSPost2010PropOp56
 70
     1
102
RTVSPost2010Prop57
140
1.0
102
RTVSPost2010PropOp57
 70
     1
102
RTVSPropertyOp0
 70
     1
102
RTVSPropertyOp1
 70
     1
102
RTVSPropertyOp2
 70
     1
102
RTVSPropertyOp3
 70
     1
102
RTVSPropertyOp4
 70
     1
102
RTVSPropertyOp5
 70
     1
102
RTVSPropertyOp6
 70
     1
102
RTVSPropertyOp7
 70
     1
102
RTVSPropertyOp8
 70
     1
102
RTVSPropertyOp9
 70
     1
102
RTVSPropertyOp10
 70
     1
102
RTVSPropertyOp11
 70
     1
102
RTVSPropertyOp12
 70
     1
102
RTVSPropertyOp13
 70
     1
102
RTVSPropertyOp14
 70
     1
102
RTVSPropertyOp15
 70
     1
102
RTVSPropertyOp16
 70
     1
102
RTVSPropertyOp17
 70
     1
102
RTVSPropertyOp18
 70
     1
102
RTVSPropertyOp19
 70
     1
102
RTVSPropertyOp20
 70
     1
102
RTVSPropertyOp21
 70
     1
102
RTVSPropertyOp22
 70
     1
102
RTVSPropertyOp23
 70
     1
102
RTVSPropertyOp24
 70
     1
102
RTVSPropertyOp25
 70
     1
102
RTVSPropertyOp26
 70
     1
102
RTVSPropertyOp27
 70
     1
102
RTVSPropertyOp28
 70
     1
102
RTVSPropertyOp29
 70
     1
102
RTVSPropertyOp30
 70
     1
102
RTVSPropertyOp31
 70
     1
102
RTVSPropertyOp32
 70
     1
102
RTVSPropertyOp33
 70
     1
102
RTVSPropertyOp34
 70
     1
102
RTVSPropertyOp35
 70
     1
102
RTVSPropertyOp36
 70
     1
102
RTVSPropertyOp37
 70
     1
102
RTVSPropertyOp38
 70
     1
102
RTVSPropertyOp39
 70
     1
102
RTVSPropertyOp40
 70
     1
102
RTVSPropertyOp41
 70
     1
102
RTVSPropertyOp42
 70
     1
102
RTVSPropertyOp43
 70
     1
102
RTVSPropertyOp44
 70
     1
102
RTVSPropertyOp45
 70
     1
102
RTVSPropertyOp46
 70
     1
102
RTVSPropertyOp47
 70
     1
102
RTVSPropertyOp48
 70
     1
102
RTVSPropertyOp49
 70
     1
102
RTVSPropertyOp50
 70
     1
102
RTVSPropertyOp51
 70
     0
102
RTVSPropertyOp52
 70
     0
102
RTVSPropertyOp53
 70
     1
102
RTVSPropertyOp54
 70
     1
102
RTVSPropertyOp55
 70
     1
102
RTVSPropertyOp56
 70
     1
102
RTVSPropertyOp57
 70
     1
102
RTVSPropertyOp58
 70
     1
102
RTVSPropertyOp59
 70
     1
102
RTVSPropertyOp60
 70
     1
102
RTVSPropertyOp61
 70
     1
102
RTVSPropertyOp62
 70
     1
  0
XRECORD
  5
2FE
102
{ACAD_REACTORS
330
2FD
102
}
330
2FD
100
AcDbXrecord
280
     1
102
RTVSPost2010Prop28
280
     0
102
RTVSPost2010PropOp28
 70
     1
102
RTVSPost2010Prop29
280
     1
102
RTVSPost2010PropOp29
 70
     1
102
RTVSPost2010Prop30
280
     1
102
RTVSPost2010PropOp30
 70
     1
102
RTVSPost2010Prop31
280
     0
102
RTVSPost2010PropOp31
 70
     1
102
RTVSPost2010Prop32
280
     0
102
RTVSPost2010PropOp32
 70
     1
102
RTVSPost2010Prop33
280
     0
102
RTVSPost2010PropOp33
 70
     1
102
RTVSPost2010Prop34
280
     0
102
RTVSPost2010PropOp34
 70
     1
102
RTVSPost2010Prop35
280
     0
102
RTVSPost2010PropOp35
 70
     1
102
RTVSPost2010Prop36
280
     0
102
RTVSPost2010PropOp36
 70
     1
102
RTVSPost2010Prop37
 90
       50
102
RTVSPost2010PropOp37
 70
     1
102
RTVSPost2010Prop38
140
0.0
102
RTVSPost2010PropOp38
 70
     1
102
RTVSPost2010Prop39
140
1.0
102
RTVSPost2010PropOp39
 70
     1
102
RTVSPost2010Prop40
 90
        0
102
RTVSPost2010PropOp40
 70
     1
102
RTVSPost2010Prop41ColorIndex
 90
       18
102
RTVSPost2010Prop41ColorRGB
 90
        0
102
RTVSPost2010PropOp41
 70
     1
102
RTVSPost2010Prop42
 90
       50
102
RTVSPost2010PropOp42
 70
     1
102
RTVSPost2010Prop43
 90
        3
102
RTVSPost2010PropOp43
 70
     1
102
RTVSPost2010Prop44ColorIndex
 90
        5
102
RTVSPost2010Prop44ColorRGB
 90
      255
102
RTVSPost2010PropOp44
 70
     1
102
RTVSPost2010Prop45
280
     0
102
RTVSPost2010PropOp45
 70
     1
102
RTVSPost2010Prop46
 90
       50
102
RTVSPost2010PropOp46
 70
     1
102
RTVSPost2010Prop47
 90
       50
102
RTVSPost2010PropOp47
 70
     1
102
RTVSPost2010Prop48
 90
       50
102
RTVSPost2010PropOp48
 70
     1
102
RTVSPost2010Prop49
280
     0
102
RTVSPost2010PropOp49
 70
     1
102
RTVSPost2010Prop50
 90
       50
102
RTVSPost2010PropOp50
 70
     1
102
RTVSPost2010Prop51ColorIndex
 90
      256
102
RTVSPost2010Prop51ColorRGB
 90
-16777216
102
RTVSPost2010PropOp51
 70
     0
102
RTVSPost2010Prop52
140
1.0
102
RTVSPost2010PropOp52
 70
     0
102
RTVSPost2010Prop53
 90
        2
102
RTVSPost2010PropOp53
 70
     1
102
RTVSPost2010Prop54
  1
strokes_ogs.tif
102
RTVSPost2010PropOp54
 70
     1
102
RTVSPost2010Prop55
280
     0
102
RTVSPost2010PropOp55
 70
     1
102
RTVSPost2010Prop56
140
1.0
102
RTVSPost2010PropOp56
 70
     1
102
RTVSPost2010Prop57
140
1.0
102
RTVSPost2010PropOp57
 70
     1
102
RTVSPropertyOp0
 70
     1
102
RTVSPropertyOp1
 70
     1
102
RTVSPropertyOp2
 70
     1
102
RTVSPropertyOp3
 70
     1
102
RTVSPropertyOp4
 70
     1
102
RTVSPropertyOp5
 70
     1
102
RTVSPropertyOp6
 70
     1
102
RTVSPropertyOp7
 70
     1
102
RTVSPropertyOp8
 70
     1
102
RTVSPropertyOp9
 70
     1
102
RTVSPropertyOp10
 70
     1
102
RTVSPropertyOp11
 70
     1
102
RTVSPropertyOp12
 70
     1
102
RTVSPropertyOp13
 70
     1
102
RTVSPropertyOp14
 70
     1
102
RTVSPropertyOp15
 70
     1
102
RTVSPropertyOp16
 70
     1
102
RTVSPropertyOp17
 70
     1
102
RTVSPropertyOp18
 70
     1
102
RTVSPropertyOp19
 70
     1
102
RTVSPropertyOp20
 70
     1
102
RTVSPropertyOp21
 70
     1
102
RTVSPropertyOp22
 70
     1
102
RTVSPropertyOp23
 70
     1
102
RTVSPropertyOp24
 70
     1
102
RTVSPropertyOp25
 70
     1
102
RTVSPropertyOp26
 70
     1
102
RTVSPropertyOp27
 70
     1
102
RTVSPropertyOp28
 70
     1
102
RTVSPropertyOp29
 70
     1
102
RTVSPropertyOp30
 70
     1
102
RTVSPropertyOp31
 70
     1
102
RTVSPropertyOp32
 70
     1
102
RTVSPropertyOp33
 70
     1
102
RTVSPropertyOp34
 70
     1
102
RTVSPropertyOp35
 70
     1
102
RTVSPropertyOp36
 70
     1
102
RTVSPropertyOp37
 70
     1
102
RTVSPropertyOp38
 70
     1
102
RTVSPropertyOp39
 70
     1
102
RTVSPropertyOp40
 70
     1
102
RTVSPropertyOp41
 70
     1
102
RTVSPropertyOp42
 70
     1
102
RTVSPropertyOp43
 70
     1
102
RTVSPropertyOp44
 70
     1
102
RTVSPropertyOp45
 70
     1
102
RTVSPropertyOp46
 70
     1
102
RTVSPropertyOp47
 70
     1
102
RTVSPropertyOp48
 70
     1
102
RTVSPropertyOp49
 70
     1
102
RTVSPropertyOp50
 70
     1
102
RTVSPropertyOp51
 70
     0
102
RTVSPropertyOp52
 70
     0
102
RTVSPropertyOp53
 70
     1
102
RTVSPropertyOp54
 70
     1
102
RTVSPropertyOp55
 70
     1
102
RTVSPropertyOp56
 70
     1
102
RTVSPropertyOp57
 70
     1
102
RTVSPropertyOp58
 70
     1
102
RTVSPropertyOp59
 70
     1
102
RTVSPropertyOp60
 70
     1
102
RTVSPropertyOp61
 70
     1
102
RTVSPropertyOp62
 70
     1
  0
XRECORD
  5
30C
102
{ACAD_REACTORS
330
30B
102
}
330
30B
100
AcDbXrecord
280
     1
102
RTVSPost2010Prop28
280
     0
102
RTVSPost2010PropOp28
 70
     1
102
RTVSPost2010Prop29
280
     1
102
RTVSPost2010PropOp29
 70
     1
102
RTVSPost2010Prop30
280
     1
102
RTVSPost2010PropOp30
 70
     1
102
RTVSPost2010Prop31
280
     0
102
RTVSPost2010PropOp31
 70
     1
102
RTVSPost2010Prop32
280
     0
102
RTVSPost2010PropOp32
 70
     1
102
RTVSPost2010Prop33
280
     0
102
RTVSPost2010PropOp33
 70
     1
102
RTVSPost2010Prop34
280
     0
102
RTVSPost2010PropOp34
 70
     1
102
RTVSPost2010Prop35
280
     0
102
RTVSPost2010PropOp35
 70
     1
102
RTVSPost2010Prop36
280
     0
102
RTVSPost2010PropOp36
 70
     1
102
RTVSPost2010Prop37
 90
       50
102
RTVSPost2010PropOp37
 70
     1
102
RTVSPost2010Prop38
140
0.0
102
RTVSPost2010PropOp38
 70
     1
102
RTVSPost2010Prop39
140
1.0
102
RTVSPost2010PropOp39
 70
     1
102
RTVSPost2010Prop40
 90
        0
102
RTVSPost2010PropOp40
 70
     1
102
RTVSPost2010Prop41ColorIndex
 90
       18
102
RTVSPost2010Prop41ColorRGB
 90
        0
102
RTVSPost2010PropOp41
 70
     1
102
RTVSPost2010Prop42
 90
       50
102
RTVSPost2010PropOp42
 70
     1
102
RTVSPost2010Prop43
 90
        3
102
RTVSPost2010PropOp43
 70
     1
102
RTVSPost2010Prop44ColorIndex
 90
        5
102
RTVSPost2010Prop44ColorRGB
 90
      255
102
RTVSPost2010PropOp44
 70
     1
102
RTVSPost2010Prop45
280
     0
102
RTVSPost2010PropOp45
 70
     1
102
RTVSPost2010Prop46
 90
       50
102
RTVSPost2010PropOp46
 70
     1
102
RTVSPost2010Prop47
 90
       50
102
RTVSPost2010PropOp47
 70
     1
102
RTVSPost2010Prop48
 90
       50
102
RTVSPost2010PropOp48
 70
     1
102
RTVSPost2010Prop49
280
     0
102
RTVSPost2010PropOp49
 70
     1
102
RTVSPost2010Prop50
 90
       50
102
RTVSPost2010PropOp50
 70
     1
102
RTVSPost2010Prop51ColorIndex
 90
      256
102
RTVSPost2010Prop51ColorRGB
 90
-16777216
102
RTVSPost2010PropOp51
 70
     0
102
RTVSPost2010Prop52
140
1.0
102
RTVSPost2010PropOp52
 70
     0
102
RTVSPost2010Prop53
 90
        2
102
RTVSPost2010PropOp53
 70
     1
102
RTVSPost2010Prop54
  1
strokes_ogs.tif
102
RTVSPost2010PropOp54
 70
     1
102
RTVSPost2010Prop55
280
     0
102
RTVSPost2010PropOp55
 70
     1
102
RTVSPost2010Prop56
140
1.0
102
RTVSPost2010PropOp56
 70
     1
102
RTVSPost2010Prop57
140
1.0
102
RTVSPost2010PropOp57
 70
     1
102
RTVSPropertyOp0
 70
     1
102
RTVSPropertyOp1
 70
     1
102
RTVSPropertyOp2
 70
     1
102
RTVSPropertyOp3
 70
     1
102
RTVSPropertyOp4
 70
     1
102
RTVSPropertyOp5
 70
     1
102
RTVSPropertyOp6
 70
     1
102
RTVSPropertyOp7
 70
     1
102
RTVSPropertyOp8
 70
     1
102
RTVSPropertyOp9
 70
     1
102
RTVSPropertyOp10
 70
     1
102
RTVSPropertyOp11
 70
     1
102
RTVSPropertyOp12
 70
     1
102
RTVSPropertyOp13
 70
     1
102
RTVSPropertyOp14
 70
     1
102
RTVSPropertyOp15
 70
     1
102
RTVSPropertyOp16
 70
     1
102
RTVSPropertyOp17
 70
     1
102
RTVSPropertyOp18
 70
     1
102
RTVSPropertyOp19
 70
     1
102
RTVSPropertyOp20
 70
     1
102
RTVSPropertyOp21
 70
     1
102
RTVSPropertyOp22
 70
     1
102
RTVSPropertyOp23
 70
     1
102
RTVSPropertyOp24
 70
     1
102
RTVSPropertyOp25
 70
     1
102
RTVSPropertyOp26
 70
     1
102
RTVSPropertyOp27
 70
     1
102
RTVSPropertyOp28
 70
     1
102
RTVSPropertyOp29
 70
     1
102
RTVSPropertyOp30
 70
     1
102
RTVSPropertyOp31
 70
     1
102
RTVSPropertyOp32
 70
     1
102
RTVSPropertyOp33
 70
     1
102
RTVSPropertyOp34
 70
     1
102
RTVSPropertyOp35
 70
     1
102
RTVSPropertyOp36
 70
     1
102
RTVSPropertyOp37
 70
     1
102
RTVSPropertyOp38
 70
     1
102
RTVSPropertyOp39
 70
     1
102
RTVSPropertyOp40
 70
     1
102
RTVSPropertyOp41
 70
     1
102
RTVSPropertyOp42
 70
     1
102
RTVSPropertyOp43
 70
     1
102
RTVSPropertyOp44
 70
     1
102
RTVSPropertyOp45
 70
     1
102
RTVSPropertyOp46
 70
     1
102
RTVSPropertyOp47
 70
     1
102
RTVSPropertyOp48
 70
     1
102
RTVSPropertyOp49
 70
     1
102
RTVSPropertyOp50
 70
     1
102
RTVSPropertyOp51
 70
     0
102
RTVSPropertyOp52
 70
     0
102
RTVSPropertyOp53
 70
     1
102
RTVSPropertyOp54
 70
     1
102
RTVSPropertyOp55
 70
     1
102
RTVSPropertyOp56
 70
     1
102
RTVSPropertyOp57
 70
     1
102
RTVSPropertyOp58
 70
     1
102
RTVSPropertyOp59
 70
     1
102
RTVSPropertyOp60
 70
     1
102
RTVSPropertyOp61
 70
     1
102
RTVSPropertyOp62
 70
     1
  0
XRECORD
  5
314
102
{ACAD_REACTORS
330
313
102
}
330
313
100
AcDbXrecord
280
     1
102
RTVSPost2010Prop28
280
     0
102
RTVSPost2010PropOp28
 70
     1
102
RTVSPost2010Prop29
280
     1
102
RTVSPost2010PropOp29
 70
     1
102
RTVSPost2010Prop30
280
     1
102
RTVSPost2010PropOp30
 70
     1
102
RTVSPost2010Prop31
280
     0
102
RTVSPost2010PropOp31
 70
     1
102
RTVSPost2010Prop32
280
     0
102
RTVSPost2010PropOp32
 70
     1
102
RTVSPost2010Prop33
280
     0
102
RTVSPost2010PropOp33
 70
     1
102
RTVSPost2010Prop34
280
     0
102
RTVSPost2010PropOp34
 70
     1
102
RTVSPost2010Prop35
280
     0
102
RTVSPost2010PropOp35
 70
     1
102
RTVSPost2010Prop36
280
     0
102
RTVSPost2010PropOp36
 70
     1
102
RTVSPost2010Prop37
 90
       50
102
RTVSPost2010PropOp37
 70
     1
102
RTVSPost2010Prop38
140
0.0
102
RTVSPost2010PropOp38
 70
     1
102
RTVSPost2010Prop39
140
1.0
102
RTVSPost2010PropOp39
 70
     1
102
RTVSPost2010Prop40
 90
        0
102
RTVSPost2010PropOp40
 70
     1
102
RTVSPost2010Prop41ColorIndex
 90
       18
102
RTVSPost2010Prop41ColorRGB
 90
        0
102
RTVSPost2010PropOp41
 70
     1
102
RTVSPost2010Prop42
 90
       50
102
RTVSPost2010PropOp42
 70
     1
102
RTVSPost2010Prop43
 90
        3
102
RTVSPost2010PropOp43
 70
     1
102
RTVSPost2010Prop44ColorIndex
 90
        5
102
RTVSPost2010Prop44ColorRGB
 90
      255
102
RTVSPost2010PropOp44
 70
     1
102
RTVSPost2010Prop45
280
     0
102
RTVSPost2010PropOp45
 70
     1
102
RTVSPost2010Prop46
 90
       50
102
RTVSPost2010PropOp46
 70
     1
102
RTVSPost2010Prop47
 90
       50
102
RTVSPost2010PropOp47
 70
     1
102
RTVSPost2010Prop48
 90
       50
102
RTVSPost2010PropOp48
 70
     1
102
RTVSPost2010Prop49
280
     0
102
RTVSPost2010PropOp49
 70
     1
102
RTVSPost2010Prop50
 90
       50
102
RTVSPost2010PropOp50
 70
     1
102
RTVSPost2010Prop51ColorIndex
 90
      256
102
RTVSPost2010Prop51ColorRGB
 90
-16777216
102
RTVSPost2010PropOp51
 70
     0
102
RTVSPost2010Prop52
140
1.0
102
RTVSPost2010PropOp52
 70
     0
102
RTVSPost2010Prop53
 90
        2
102
RTVSPost2010PropOp53
 70
     1
102
RTVSPost2010Prop54
  1
strokes_ogs.tif
102
RTVSPost2010PropOp54
 70
     1
102
RTVSPost2010Prop55
280
     0
102
RTVSPost2010PropOp55
 70
     1
102
RTVSPost2010Prop56
140
1.0
102
RTVSPost2010PropOp56
 70
     1
102
RTVSPost2010Prop57
140
1.0
102
RTVSPost2010PropOp57
 70
     1
102
RTVSPropertyOp0
 70
     1
102
RTVSPropertyOp1
 70
     1
102
RTVSPropertyOp2
 70
     1
102
RTVSPropertyOp3
 70
     1
102
RTVSPropertyOp4
 70
     1
102
RTVSPropertyOp5
 70
     1
102
RTVSPropertyOp6
 70
     1
102
RTVSPropertyOp7
 70
     1
102
RTVSPropertyOp8
 70
     1
102
RTVSPropertyOp9
 70
     1
102
RTVSPropertyOp10
 70
     1
102
RTVSPropertyOp11
 70
     1
102
RTVSPropertyOp12
 70
     1
102
RTVSPropertyOp13
 70
     1
102
RTVSPropertyOp14
 70
     1
102
RTVSPropertyOp15
 70
     1
102
RTVSPropertyOp16
 70
     1
102
RTVSPropertyOp17
 70
     1
102
RTVSPropertyOp18
 70
     1
102
RTVSPropertyOp19
 70
     1
102
RTVSPropertyOp20
 70
     1
102
RTVSPropertyOp21
 70
     1
102
RTVSPropertyOp22
 70
     1
102
RTVSPropertyOp23
 70
     1
102
RTVSPropertyOp24
 70
     1
102
RTVSPropertyOp25
 70
     1
102
RTVSPropertyOp26
 70
     1
102
RTVSPropertyOp27
 70
     1
102
RTVSPropertyOp28
 70
     1
102
RTVSPropertyOp29
 70
     1
102
RTVSPropertyOp30
 70
     1
102
RTVSPropertyOp31
 70
     1
102
RTVSPropertyOp32
 70
     1
102
RTVSPropertyOp33
 70
     1
102
RTVSPropertyOp34
 70
     1
102
RTVSPropertyOp35
 70
     1
102
RTVSPropertyOp36
 70
     1
102
RTVSPropertyOp37
 70
     1
102
RTVSPropertyOp38
 70
     1
102
RTVSPropertyOp39
 70
     1
102
RTVSPropertyOp40
 70
     1
102
RTVSPropertyOp41
 70
     1
102
RTVSPropertyOp42
 70
     1
102
RTVSPropertyOp43
 70
     1
102
RTVSPropertyOp44
 70
     1
102
RTVSPropertyOp45
 70
     1
102
RTVSPropertyOp46
 70
     1
102
RTVSPropertyOp47
 70
     1
102
RTVSPropertyOp48
 70
     1
102
RTVSPropertyOp49
 70
     1
102
RTVSPropertyOp50
 70
     1
102
RTVSPropertyOp51
 70
     0
102
RTVSPropertyOp52
 70
     0
102
RTVSPropertyOp53
 70
     1
102
RTVSPropertyOp54
 70
     1
102
RTVSPropertyOp55
 70
     1
102
RTVSPropertyOp56
 70
     1
102
RTVSPropertyOp57
 70
     1
102
RTVSPropertyOp58
 70
     1
102
RTVSPropertyOp59
 70
     1
102
RTVSPropertyOp60
 70
     1
102
RTVSPropertyOp61
 70
     1
102
RTVSPropertyOp62
 70
     1
  0
XRECORD
  5
306
102
{ACAD_REACTORS
330
305
102
}
330
305
100
AcDbXrecord
280
     1
102
RTVSPost2010Prop28
280
     0
102
RTVSPost2010PropOp28
 70
     1
102
RTVSPost2010Prop29
280
     1
102
RTVSPost2010PropOp29
 70
     1
102
RTVSPost2010Prop30
280
     1
102
RTVSPost2010PropOp30
 70
     1
102
RTVSPost2010Prop31
280
     0
102
RTVSPost2010PropOp31
 70
     1
102
RTVSPost2010Prop32
280
     0
102
RTVSPost2010PropOp32
 70
     1
102
RTVSPost2010Prop33
280
     0
102
RTVSPost2010PropOp33
 70
     1
102
RTVSPost2010Prop34
280
     0
102
RTVSPost2010PropOp34
 70
     1
102
RTVSPost2010Prop35
280
     0
102
RTVSPost2010PropOp35
 70
     1
102
RTVSPost2010Prop36
280
     0
102
RTVSPost2010PropOp36
 70
     1
102
RTVSPost2010Prop37
 90
       50
102
RTVSPost2010PropOp37
 70
     1
102
RTVSPost2010Prop38
140
0.0
102
RTVSPost2010PropOp38
 70
     1
102
RTVSPost2010Prop39
140
1.0
102
RTVSPost2010PropOp39
 70
     1
102
RTVSPost2010Prop40
 90
        0
102
RTVSPost2010PropOp40
 70
     1
102
RTVSPost2010Prop41ColorIndex
 90
       18
102
RTVSPost2010Prop41ColorRGB
 90
        0
102
RTVSPost2010PropOp41
 70
     1
102
RTVSPost2010Prop42
 90
       50
102
RTVSPost2010PropOp42
 70
     1
102
RTVSPost2010Prop43
 90
        3
102
RTVSPost2010PropOp43
 70
     1
102
RTVSPost2010Prop44ColorIndex
 90
        5
102
RTVSPost2010Prop44ColorRGB
 90
      255
102
RTVSPost2010PropOp44
 70
     1
102
RTVSPost2010Prop45
280
     0
102
RTVSPost2010PropOp45
 70
     1
102
RTVSPost2010Prop46
 90
       50
102
RTVSPost2010PropOp46
 70
     1
102
RTVSPost2010Prop47
 90
       50
102
RTVSPost2010PropOp47
 70
     1
102
RTVSPost2010Prop48
 90
       50
102
RTVSPost2010PropOp48
 70
     1
102
RTVSPost2010Prop49
280
     0
102
RTVSPost2010PropOp49
 70
     1
102
RTVSPost2010Prop50
 90
       50
102
RTVSPost2010PropOp50
 70
     1
102
RTVSPost2010Prop51ColorIndex
 90
      256
102
RTVSPost2010Prop51ColorRGB
 90
-16777216
102
RTVSPost2010PropOp51
 70
     0
102
RTVSPost2010Prop52
140
1.0
102
RTVSPost2010PropOp52
 70
     0
102
RTVSPost2010Prop53
 90
        2
102
RTVSPost2010PropOp53
 70
     1
102
RTVSPost2010Prop54
  1
strokes_ogs.tif
102
RTVSPost2010PropOp54
 70
     1
102
RTVSPost2010Prop55
280
     0
102
RTVSPost2010PropOp55
 70
     1
102
RTVSPost2010Prop56
140
1.0
102
RTVSPost2010PropOp56
 70
     1
102
RTVSPost2010Prop57
140
1.0
102
RTVSPost2010PropOp57
 70
     1
102
RTVSPropertyOp0
 70
     1
102
RTVSPropertyOp1
 70
     1
102
RTVSPropertyOp2
 70
     1
102
RTVSPropertyOp3
 70
     1
102
RTVSPropertyOp4
 70
     1
102
RTVSPropertyOp5
 70
     1
102
RTVSPropertyOp6
 70
     1
102
RTVSPropertyOp7
 70
     1
102
RTVSPropertyOp8
 70
     1
102
RTVSPropertyOp9
 70
     1
102
RTVSPropertyOp10
 70
     1
102
RTVSPropertyOp11
 70
     1
102
RTVSPropertyOp12
 70
     1
102
RTVSPropertyOp13
 70
     1
102
RTVSPropertyOp14
 70
     1
102
RTVSPropertyOp15
 70
     1
102
RTVSPropertyOp16
 70
     1
102
RTVSPropertyOp17
 70
     1
102
RTVSPropertyOp18
 70
     1
102
RTVSPropertyOp19
 70
     1
102
RTVSPropertyOp20
 70
     1
102
RTVSPropertyOp21
 70
     1
102
RTVSPropertyOp22
 70
     1
102
RTVSPropertyOp23
 70
     1
102
RTVSPropertyOp24
 70
     1
102
RTVSPropertyOp25
 70
     1
102
RTVSPropertyOp26
 70
     1
102
RTVSPropertyOp27
 70
     1
102
RTVSPropertyOp28
 70
     1
102
RTVSPropertyOp29
 70
     1
102
RTVSPropertyOp30
 70
     1
102
RTVSPropertyOp31
 70
     1
102
RTVSPropertyOp32
 70
     1
102
RTVSPropertyOp33
 70
     1
102
RTVSPropertyOp34
 70
     1
102
RTVSPropertyOp35
 70
     1
102
RTVSPropertyOp36
 70
     1
102
RTVSPropertyOp37
 70
     1
102
RTVSPropertyOp38
 70
     1
102
RTVSPropertyOp39
 70
     1
102
RTVSPropertyOp40
 70
     1
102
RTVSPropertyOp41
 70
     1
102
RTVSPropertyOp42
 70
     1
102
RTVSPropertyOp43
 70
     1
102
RTVSPropertyOp44
 70
     1
102
RTVSPropertyOp45
 70
     1
102
RTVSPropertyOp46
 70
     1
102
RTVSPropertyOp47
 70
     1
102
RTVSPropertyOp48
 70
     1
102
RTVSPropertyOp49
 70
     1
102
RTVSPropertyOp50
 70
     1
102
RTVSPropertyOp51
 70
     0
102
RTVSPropertyOp52
 70
     0
102
RTVSPropertyOp53
 70
     1
102
RTVSPropertyOp54
 70
     1
102
RTVSPropertyOp55
 70
     1
102
RTVSPropertyOp56
 70
     1
102
RTVSPropertyOp57
 70
     1
102
RTVSPropertyOp58
 70
     1
102
RTVSPropertyOp59
 70
     1
102
RTVSPropertyOp60
 70
     1
102
RTVSPropertyOp61
 70
     1
102
RTVSPropertyOp62
 70
     1
  0
XRECORD
  5
30A
102
{ACAD_REACTORS
330
309
102
}
330
309
100
AcDbXrecord
280
     1
102
RTVSPost2010Prop28
280
     0
102
RTVSPost2010PropOp28
 70
     1
102
RTVSPost2010Prop29
280
     1
102
RTVSPost2010PropOp29
 70
     1
102
RTVSPost2010Prop30
280
     1
102
RTVSPost2010PropOp30
 70
     1
102
RTVSPost2010Prop31
280
     0
102
RTVSPost2010PropOp31
 70
     1
102
RTVSPost2010Prop32
280
     0
102
RTVSPost2010PropOp32
 70
     1
102
RTVSPost2010Prop33
280
     0
102
RTVSPost2010PropOp33
 70
     1
102
RTVSPost2010Prop34
280
     0
102
RTVSPost2010PropOp34
 70
     1
102
RTVSPost2010Prop35
280
     0
102
RTVSPost2010PropOp35
 70
     1
102
RTVSPost2010Prop36
280
     0
102
RTVSPost2010PropOp36
 70
     1
102
RTVSPost2010Prop37
 90
       50
102
RTVSPost2010PropOp37
 70
     1
102
RTVSPost2010Prop38
140
0.0
102
RTVSPost2010PropOp38
 70
     1
102
RTVSPost2010Prop39
140
1.0
102
RTVSPost2010PropOp39
 70
     1
102
RTVSPost2010Prop40
 90
        0
102
RTVSPost2010PropOp40
 70
     1
102
RTVSPost2010Prop41ColorIndex
 90
       18
102
RTVSPost2010Prop41ColorRGB
 90
        0
102
RTVSPost2010PropOp41
 70
     1
102
RTVSPost2010Prop42
 90
       50
102
RTVSPost2010PropOp42
 70
     1
102
RTVSPost2010Prop43
 90
        3
102
RTVSPost2010PropOp43
 70
     1
102
RTVSPost2010Prop44ColorIndex
 90
        5
102
RTVSPost2010Prop44ColorRGB
 90
      255
102
RTVSPost2010PropOp44
 70
     1
102
RTVSPost2010Prop45
280
     0
102
RTVSPost2010PropOp45
 70
     1
102
RTVSPost2010Prop46
 90
       50
102
RTVSPost2010PropOp46
 70
     1
102
RTVSPost2010Prop47
 90
       50
102
RTVSPost2010PropOp47
 70
     1
102
RTVSPost2010Prop48
 90
       50
102
RTVSPost2010PropOp48
 70
     1
102
RTVSPost2010Prop49
280
     0
102
RTVSPost2010PropOp49
 70
     1
102
RTVSPost2010Prop50
 90
       50
102
RTVSPost2010PropOp50
 70
     1
102
RTVSPost2010Prop51ColorIndex
 90
      256
102
RTVSPost2010Prop51ColorRGB
 90
-16777216
102
RTVSPost2010PropOp51
 70
     0
102
RTVSPost2010Prop52
140
1.0
102
RTVSPost2010PropOp52
 70
     0
102
RTVSPost2010Prop53
 90
        2
102
RTVSPost2010PropOp53
 70
     1
102
RTVSPost2010Prop54
  1
strokes_ogs.tif
102
RTVSPost2010PropOp54
 70
     1
102
RTVSPost2010Prop55
280
     0
102
RTVSPost2010PropOp55
 70
     1
102
RTVSPost2010Prop56
140
1.0
102
RTVSPost2010PropOp56
 70
     1
102
RTVSPost2010Prop57
140
1.0
102
RTVSPost2010PropOp57
 70
     1
102
RTVSPropertyOp0
 70
     1
102
RTVSPropertyOp1
 70
     1
102
RTVSPropertyOp2
 70
     1
102
RTVSPropertyOp3
 70
     1
102
RTVSPropertyOp4
 70
     1
102
RTVSPropertyOp5
 70
     1
102
RTVSPropertyOp6
 70
     1
102
RTVSPropertyOp7
 70
     1
102
RTVSPropertyOp8
 70
     1
102
RTVSPropertyOp9
 70
     1
102
RTVSPropertyOp10
 70
     1
102
RTVSPropertyOp11
 70
     1
102
RTVSPropertyOp12
 70
     1
102
RTVSPropertyOp13
 70
     1
102
RTVSPropertyOp14
 70
     1
102
RTVSPropertyOp15
 70
     1
102
RTVSPropertyOp16
 70
     1
102
RTVSPropertyOp17
 70
     1
102
RTVSPropertyOp18
 70
     1
102
RTVSPropertyOp19
 70
     1
102
RTVSPropertyOp20
 70
     1
102
RTVSPropertyOp21
 70
     1
102
RTVSPropertyOp22
 70
     1
102
RTVSPropertyOp23
 70
     1
102
RTVSPropertyOp24
 70
     1
102
RTVSPropertyOp25
 70
     1
102
RTVSPropertyOp26
 70
     1
102
RTVSPropertyOp27
 70
     1
102
RTVSPropertyOp28
 70
     1
102
RTVSPropertyOp29
 70
     1
102
RTVSPropertyOp30
 70
     1
102
RTVSPropertyOp31
 70
     1
102
RTVSPropertyOp32
 70
     1
102
RTVSPropertyOp33
 70
     1
102
RTVSPropertyOp34
 70
     1
102
RTVSPropertyOp35
 70
     1
102
RTVSPropertyOp36
 70
     1
102
RTVSPropertyOp37
 70
     1
102
RTVSPropertyOp38
 70
     1
102
RTVSPropertyOp39
 70
     1
102
RTVSPropertyOp40
 70
     1
102
RTVSPropertyOp41
 70
     1
102
RTVSPropertyOp42
 70
     1
102
RTVSPropertyOp43
 70
     1
102
RTVSPropertyOp44
 70
     1
102
RTVSPropertyOp45
 70
     1
102
RTVSPropertyOp46
 70
     1
102
RTVSPropertyOp47
 70
     1
102
RTVSPropertyOp48
 70
     1
102
RTVSPropertyOp49
 70
     1
102
RTVSPropertyOp50
 70
     1
102
RTVSPropertyOp51
 70
     0
102
RTVSPropertyOp52
 70
     0
102
RTVSPropertyOp53
 70
     1
102
RTVSPropertyOp54
 70
     1
102
RTVSPropertyOp55
 70
     1
102
RTVSPropertyOp56
 70
     1
102
RTVSPropertyOp57
 70
     1
102
RTVSPropertyOp58
 70
     1
102
RTVSPropertyOp59
 70
     1
102
RTVSPropertyOp60
 70
     1
102
RTVSPropertyOp61
 70
     1
102
RTVSPropertyOp62
 70
     1
  0
XRECORD
  5
324
102
{ACAD_REACTORS
330
323
102
}
330
323
100
AcDbXrecord
280
     1
102
RTVSPost2010Prop28
280
     0
102
RTVSPost2010PropOp28
 70
     0
102
RTVSPost2010Prop29
280
     1
102
RTVSPost2010PropOp29
 70
     0
102
RTVSPost2010Prop30
280
     1
102
RTVSPost2010PropOp30
 70
     0
102
RTVSPost2010Prop31
280
     0
102
RTVSPost2010PropOp31
 70
     0
102
RTVSPost2010Prop32
280
     0
102
RTVSPost2010PropOp32
 70
     0
102
RTVSPost2010Prop33
280
     0
102
RTVSPost2010PropOp33
 70
     0
102
RTVSPost2010Prop34
280
     0
102
RTVSPost2010PropOp34
 70
     0
102
RTVSPost2010Prop35
280
     0
102
RTVSPost2010PropOp35
 70
     0
102
RTVSPost2010Prop36
280
     0
102
RTVSPost2010PropOp36
 70
     0
102
RTVSPost2010Prop37
 90
       50
102
RTVSPost2010PropOp37
 70
     0
102
RTVSPost2010Prop38
140
0.0
102
RTVSPost2010PropOp38
 70
     0
102
RTVSPost2010Prop39
140
1.0
102
RTVSPost2010PropOp39
 70
     0
102
RTVSPost2010Prop40
 90
        0
102
RTVSPost2010PropOp40
 70
     0
102
RTVSPost2010Prop41ColorIndex
 90
       18
102
RTVSPost2010Prop41ColorRGB
 90
        0
102
RTVSPost2010PropOp41
 70
     0
102
RTVSPost2010Prop42
 90
       50
102
RTVSPost2010PropOp42
 70
     0
102
RTVSPost2010Prop43
 90
        3
102
RTVSPost2010PropOp43
 70
     0
102
RTVSPost2010Prop44ColorIndex
 90
        5
102
RTVSPost2010Prop44ColorRGB
 90
      255
102
RTVSPost2010PropOp44
 70
     0
102
RTVSPost2010Prop45
280
     0
102
RTVSPost2010PropOp45
 70
     0
102
RTVSPost2010Prop46
 90
       50
102
RTVSPost2010PropOp46
 70
     0
102
RTVSPost2010Prop47
 90
       50
102
RTVSPost2010PropOp47
 70
     0
102
RTVSPost2010Prop48
 90
       50
102
RTVSPost2010PropOp48
 70
     0
102
RTVSPost2010Prop49
280
     0
102
RTVSPost2010PropOp49
 70
     0
102
RTVSPost2010Prop50
 90
       50
102
RTVSPost2010PropOp50
 70
     0
102
RTVSPost2010Prop51ColorIndex
 90
      256
102
RTVSPost2010Prop51ColorRGB
 90
-16777216
102
RTVSPost2010PropOp51
 70
     0
102
RTVSPost2010Prop52
140
1.0
102
RTVSPost2010PropOp52
 70
     0
102
RTVSPost2010Prop53
 90
        2
102
RTVSPost2010PropOp53
 70
     0
102
RTVSPost2010Prop54
  1
strokes_ogs.tif
102
RTVSPost2010PropOp54
 70
     0
102
RTVSPost2010Prop55
280
     0
102
RTVSPost2010PropOp55
 70
     0
102
RTVSPost2010Prop56
140
1.0
102
RTVSPost2010PropOp56
 70
     0
102
RTVSPost2010Prop57
140
1.0
102
RTVSPost2010PropOp57
 70
     0
102
RTVSPropertyOp0
 70
     0
102
RTVSPropertyOp1
 70
     0
102
RTVSPropertyOp2
 70
     0
102
RTVSPropertyOp3
 70
     0
102
RTVSPropertyOp4
 70
     0
102
RTVSPropertyOp5
 70
     0
102
RTVSPropertyOp6
 70
     0
102
RTVSPropertyOp7
 70
     0
102
RTVSPropertyOp8
 70
     0
102
RTVSPropertyOp9
 70
     0
102
RTVSPropertyOp10
 70
     0
102
RTVSPropertyOp11
 70
     0
102
RTVSPropertyOp12
 70
     0
102
RTVSPropertyOp13
 70
     0
102
RTVSPropertyOp14
 70
     2
102
RTVSPropertyOp15
 70
     0
102
RTVSPropertyOp16
 70
     0
102
RTVSPropertyOp17
 70
     0
102
RTVSPropertyOp18
 70
     0
102
RTVSPropertyOp19
 70
     0
102
RTVSPropertyOp20
 70
     0
102
RTVSPropertyOp21
 70
     0
102
RTVSPropertyOp22
 70
     0
102
RTVSPropertyOp23
 70
     0
102
RTVSPropertyOp24
 70
     0
102
RTVSPropertyOp25
 70
     0
102
RTVSPropertyOp26
 70
     0
102
RTVSPropertyOp27
 70
     0
102
RTVSPropertyOp28
 70
     0
102
RTVSPropertyOp29
 70
     0
102
RTVSPropertyOp30
 70
     0
102
RTVSPropertyOp31
 70
     0
102
RTVSPropertyOp32
 70
     0
102
RTVSPropertyOp33
 70
     0
102
RTVSPropertyOp34
 70
     0
102
RTVSPropertyOp35
 70
     0
102
RTVSPropertyOp36
 70
     0
102
RTVSPropertyOp37
 70
     0
102
RTVSPropertyOp38
 70
     0
102
RTVSPropertyOp39
 70
     0
102
RTVSPropertyOp40
 70
     0
102
RTVSPropertyOp41
 70
     0
102
RTVSPropertyOp42
 70
     0
102
RTVSPropertyOp43
 70
     0
102
RTVSPropertyOp44
 70
     0
102
RTVSPropertyOp45
 70
     0
102
RTVSPropertyOp46
 70
     0
102
RTVSPropertyOp47
 70
     0
102
RTVSPropertyOp48
 70
     0
102
RTVSPropertyOp49
 70
     0
102
RTVSPropertyOp50
 70
     0
102
RTVSPropertyOp51
 70
     0
102
RTVSPropertyOp52
 70
     0
102
RTVSPropertyOp53
 70
     0
102
RTVSPropertyOp54
 70
     0
102
RTVSPropertyOp55
 70
     0
102
RTVSPropertyOp56
 70
     0
102
RTVSPropertyOp57
 70
     0
102
RTVSPropertyOp58
 70
     0
102
RTVSPropertyOp59
 70
     0
102
RTVSPropertyOp60
 70
     0
102
RTVSPropertyOp61
 70
     0
102
RTVSPropertyOp62
 70
     0
  0
XRECORD
  5
312
102
{ACAD_REACTORS
330
311
102
}
330
311
100
AcDbXrecord
280
     1
102
RTVSPost2010Prop28
280
     0
102
RTVSPost2010PropOp28
 70
     1
102
RTVSPost2010Prop29
280
     1
102
RTVSPost2010PropOp29
 70
     1
102
RTVSPost2010Prop30
280
     1
102
RTVSPost2010PropOp30
 70
     1
102
RTVSPost2010Prop31
280
     0
102
RTVSPost2010PropOp31
 70
     1
102
RTVSPost2010Prop32
280
     0
102
RTVSPost2010PropOp32
 70
     1
102
RTVSPost2010Prop33
280
     0
102
RTVSPost2010PropOp33
 70
     1
102
RTVSPost2010Prop34
280
     0
102
RTVSPost2010PropOp34
 70
     1
102
RTVSPost2010Prop35
280
     0
102
RTVSPost2010PropOp35
 70
     1
102
RTVSPost2010Prop36
280
     0
102
RTVSPost2010PropOp36
 70
     1
102
RTVSPost2010Prop37
 90
       50
102
RTVSPost2010PropOp37
 70
     1
102
RTVSPost2010Prop38
140
0.0
102
RTVSPost2010PropOp38
 70
     1
102
RTVSPost2010Prop39
140
1.0
102
RTVSPost2010PropOp39
 70
     1
102
RTVSPost2010Prop40
 90
        0
102
RTVSPost2010PropOp40
 70
     1
102
RTVSPost2010Prop41ColorIndex
 90
       18
102
RTVSPost2010Prop41ColorRGB
 90
        0
102
RTVSPost2010PropOp41
 70
     1
102
RTVSPost2010Prop42
 90
       50
102
RTVSPost2010PropOp42
 70
     1
102
RTVSPost2010Prop43
 90
        3
102
RTVSPost2010PropOp43
 70
     1
102
RTVSPost2010Prop44ColorIndex
 90
        5
102
RTVSPost2010Prop44ColorRGB
 90
      255
102
RTVSPost2010PropOp44
 70
     1
102
RTVSPost2010Prop45
280
     0
102
RTVSPost2010PropOp45
 70
     1
102
RTVSPost2010Prop46
 90
       50
102
RTVSPost2010PropOp46
 70
     1
102
RTVSPost2010Prop47
 90
       50
102
RTVSPost2010PropOp47
 70
     1
102
RTVSPost2010Prop48
 90
       50
102
RTVSPost2010PropOp48
 70
     1
102
RTVSPost2010Prop49
280
     0
102
RTVSPost2010PropOp49
 70
     1
102
RTVSPost2010Prop50
 90
       50
102
RTVSPost2010PropOp50
 70
     1
102
RTVSPost2010Prop51ColorIndex
 90
      256
102
RTVSPost2010Prop51ColorRGB
 90
-16777216
102
RTVSPost2010PropOp51
 70
     0
102
RTVSPost2010Prop52
140
1.0
102
RTVSPost2010PropOp52
 70
     0
102
RTVSPost2010Prop53
 90
        2
102
RTVSPost2010PropOp53
 70
     1
102
RTVSPost2010Prop54
  1
strokes_ogs.tif
102
RTVSPost2010PropOp54
 70
     1
102
RTVSPost2010Prop55
280
     0
102
RTVSPost2010PropOp55
 70
     1
102
RTVSPost2010Prop56
140
1.0
102
RTVSPost2010PropOp56
 70
     1
102
RTVSPost2010Prop57
140
1.0
102
RTVSPost2010PropOp57
 70
     1
102
RTVSPropertyOp0
 70
     1
102
RTVSPropertyOp1
 70
     1
102
RTVSPropertyOp2
 70
     1
102
RTVSPropertyOp3
 70
     1
102
RTVSPropertyOp4
 70
     1
102
RTVSPropertyOp5
 70
     1
102
RTVSPropertyOp6
 70
     1
102
RTVSPropertyOp7
 70
     1
102
RTVSPropertyOp8
 70
     1
102
RTVSPropertyOp9
 70
     1
102
RTVSPropertyOp10
 70
     1
102
RTVSPropertyOp11
 70
     1
102
RTVSPropertyOp12
 70
     1
102
RTVSPropertyOp13
 70
     1
102
RTVSPropertyOp14
 70
     1
102
RTVSPropertyOp15
 70
     1
102
RTVSPropertyOp16
 70
     1
102
RTVSPropertyOp17
 70
     1
102
RTVSPropertyOp18
 70
     1
102
RTVSPropertyOp19
 70
     1
102
RTVSPropertyOp20
 70
     1
102
RTVSPropertyOp21
 70
     1
102
RTVSPropertyOp22
 70
     1
102
RTVSPropertyOp23
 70
     1
102
RTVSPropertyOp24
 70
     1
102
RTVSPropertyOp25
 70
     1
102
RTVSPropertyOp26
 70
     1
102
RTVSPropertyOp27
 70
     1
102
RTVSPropertyOp28
 70
     1
102
RTVSPropertyOp29
 70
     1
102
RTVSPropertyOp30
 70
     1
102
RTVSPropertyOp31
 70
     1
102
RTVSPropertyOp32
 70
     1
102
RTVSPropertyOp33
 70
     1
102
RTVSPropertyOp34
 70
     1
102
RTVSPropertyOp35
 70
     1
102
RTVSPropertyOp36
 70
     1
102
RTVSPropertyOp37
 70
     1
102
RTVSPropertyOp38
 70
     1
102
RTVSPropertyOp39
 70
     1
102
RTVSPropertyOp40
 70
     1
102
RTVSPropertyOp41
 70
     1
102
RTVSPropertyOp42
 70
     1
102
RTVSPropertyOp43
 70
     1
102
RTVSPropertyOp44
 70
     1
102
RTVSPropertyOp45
 70
     1
102
RTVSPropertyOp46
 70
     1
102
RTVSPropertyOp47
 70
     1
102
RTVSPropertyOp48
 70
     1
102
RTVSPropertyOp49
 70
     1
102
RTVSPropertyOp50
 70
     1
102
RTVSPropertyOp51
 70
     0
102
RTVSPropertyOp52
 70
     0
102
RTVSPropertyOp53
 70
     1
102
RTVSPropertyOp54
 70
     1
102
RTVSPropertyOp55
 70
     1
102
RTVSPropertyOp56
 70
     1
102
RTVSPropertyOp57
 70
     1
102
RTVSPropertyOp58
 70
     1
102
RTVSPropertyOp59
 70
     1
102
RTVSPropertyOp60
 70
     1
102
RTVSPropertyOp61
 70
     1
102
RTVSPropertyOp62
 70
     1
  0
XRECORD
  5
2F6
102
{ACAD_REACTORS
330
2F5
102
}
330
2F5
100
AcDbXrecord
280
     1
102
RTVSPost2010Prop28
280
     0
102
RTVSPost2010PropOp28
 70
     1
102
RTVSPost2010Prop29
280
     1
102
RTVSPost2010PropOp29
 70
     1
102
RTVSPost2010Prop30
280
     1
102
RTVSPost2010PropOp30
 70
     1
102
RTVSPost2010Prop31
280
     0
102
RTVSPost2010PropOp31
 70
     1
102
RTVSPost2010Prop32
280
     0
102
RTVSPost2010PropOp32
 70
     1
102
RTVSPost2010Prop33
280
     0
102
RTVSPost2010PropOp33
 70
     1
102
RTVSPost2010Prop34
280
     0
102
RTVSPost2010PropOp34
 70
     1
102
RTVSPost2010Prop35
280
     0
102
RTVSPost2010PropOp35
 70
     1
102
RTVSPost2010Prop36
280
     0
102
RTVSPost2010PropOp36
 70
     1
102
RTVSPost2010Prop37
 90
       50
102
RTVSPost2010PropOp37
 70
     1
102
RTVSPost2010Prop38
140
0.0
102
RTVSPost2010PropOp38
 70
     1
102
RTVSPost2010Prop39
140
1.0
102
RTVSPost2010PropOp39
 70
     1
102
RTVSPost2010Prop40
 90
        0
102
RTVSPost2010PropOp40
 70
     1
102
RTVSPost2010Prop41ColorIndex
 90
       18
102
RTVSPost2010Prop41ColorRGB
 90
        0
102
RTVSPost2010PropOp41
 70
     1
102
RTVSPost2010Prop42
 90
       50
102
RTVSPost2010PropOp42
 70
     1
102
RTVSPost2010Prop43
 90
        3
102
RTVSPost2010PropOp43
 70
     1
102
RTVSPost2010Prop44ColorIndex
 90
        5
102
RTVSPost2010Prop44ColorRGB
 90
      255
102
RTVSPost2010PropOp44
 70
     1
102
RTVSPost2010Prop45
280
     0
102
RTVSPost2010PropOp45
 70
     1
102
RTVSPost2010Prop46
 90
       50
102
RTVSPost2010PropOp46
 70
     1
102
RTVSPost2010Prop47
 90
       50
102
RTVSPost2010PropOp47
 70
     1
102
RTVSPost2010Prop48
 90
       50
102
RTVSPost2010PropOp48
 70
     1
102
RTVSPost2010Prop49
280
     0
102
RTVSPost2010PropOp49
 70
     1
102
RTVSPost2010Prop50
 90
       50
102
RTVSPost2010PropOp50
 70
     1
102
RTVSPost2010Prop51ColorIndex
 90
      256
102
RTVSPost2010Prop51ColorRGB
 90
-16777216
102
RTVSPost2010PropOp51
 70
     0
102
RTVSPost2010Prop52
140
1.0
102
RTVSPost2010PropOp52
 70
     0
102
RTVSPost2010Prop53
 90
        2
102
RTVSPost2010PropOp53
 70
     1
102
RTVSPost2010Prop54
  1
strokes_ogs.tif
102
RTVSPost2010PropOp54
 70
     1
102
RTVSPost2010Prop55
280
     0
102
RTVSPost2010PropOp55
 70
     1
102
RTVSPost2010Prop56
140
1.0
102
RTVSPost2010PropOp56
 70
     1
102
RTVSPost2010Prop57
140
1.0
102
RTVSPost2010PropOp57
 70
     1
102
RTVSPropertyOp0
 70
     1
102
RTVSPropertyOp1
 70
     1
102
RTVSPropertyOp2
 70
     1
102
RTVSPropertyOp3
 70
     1
102
RTVSPropertyOp4
 70
     1
102
RTVSPropertyOp5
 70
     1
102
RTVSPropertyOp6
 70
     1
102
RTVSPropertyOp7
 70
     1
102
RTVSPropertyOp8
 70
     1
102
RTVSPropertyOp9
 70
     1
102
RTVSPropertyOp10
 70
     1
102
RTVSPropertyOp11
 70
     1
102
RTVSPropertyOp12
 70
     1
102
RTVSPropertyOp13
 70
     1
102
RTVSPropertyOp14
 70
     1
102
RTVSPropertyOp15
 70
     1
102
RTVSPropertyOp16
 70
     1
102
RTVSPropertyOp17
 70
     1
102
RTVSPropertyOp18
 70
     1
102
RTVSPropertyOp19
 70
     1
102
RTVSPropertyOp20
 70
     1
102
RTVSPropertyOp21
 70
     1
102
RTVSPropertyOp22
 70
     1
102
RTVSPropertyOp23
 70
     1
102
RTVSPropertyOp24
 70
     1
102
RTVSPropertyOp25
 70
     1
102
RTVSPropertyOp26
 70
     1
102
RTVSPropertyOp27
 70
     1
102
RTVSPropertyOp28
 70
     1
102
RTVSPropertyOp29
 70
     1
102
RTVSPropertyOp30
 70
     1
102
RTVSPropertyOp31
 70
     1
102
RTVSPropertyOp32
 70
     1
102
RTVSPropertyOp33
 70
     1
102
RTVSPropertyOp34
 70
     1
102
RTVSPropertyOp35
 70
     1
102
RTVSPropertyOp36
 70
     1
102
RTVSPropertyOp37
 70
     1
102
RTVSPropertyOp38
 70
     1
102
RTVSPropertyOp39
 70
     1
102
RTVSPropertyOp40
 70
     1
102
RTVSPropertyOp41
 70
     1
102
RTVSPropertyOp42
 70
     1
102
RTVSPropertyOp43
 70
     1
102
RTVSPropertyOp44
 70
     1
102
RTVSPropertyOp45
 70
     1
102
RTVSPropertyOp46
 70
     1
102
RTVSPropertyOp47
 70
     1
102
RTVSPropertyOp48
 70
     1
102
RTVSPropertyOp49
 70
     1
102
RTVSPropertyOp50
 70
     1
102
RTVSPropertyOp51
 70
     0
102
RTVSPropertyOp52
 70
     0
102
RTVSPropertyOp53
 70
     1
102
RTVSPropertyOp54
 70
     1
102
RTVSPropertyOp55
 70
     1
102
RTVSPropertyOp56
 70
     1
102
RTVSPropertyOp57
 70
     1
102
RTVSPropertyOp58
 70
     1
102
RTVSPropertyOp59
 70
     1
102
RTVSPropertyOp60
 70
     1
102
RTVSPropertyOp61
 70
     1
102
RTVSPropertyOp62
 70
     1
  0
XRECORD
  5
2F8
102
{ACAD_REACTORS
330
2F7
102
}
330
2F7
100
AcDbXrecord
280
     1
102
RTVSPost2010Prop28
280
     0
102
RTVSPost2010PropOp28
 70
     1
102
RTVSPost2010Prop29
280
     1
102
RTVSPost2010PropOp29
 70
     1
102
RTVSPost2010Prop30
280
     1
102
RTVSPost2010PropOp30
 70
     1
102
RTVSPost2010Prop31
280
     0
102
RTVSPost2010PropOp31
 70
     1
102
RTVSPost2010Prop32
280
     0
102
RTVSPost2010PropOp32
 70
     1
102
RTVSPost2010Prop33
280
     0
102
RTVSPost2010PropOp33
 70
     1
102
RTVSPost2010Prop34
280
     0
102
RTVSPost2010PropOp34
 70
     1
102
RTVSPost2010Prop35
280
     0
102
RTVSPost2010PropOp35
 70
     1
102
RTVSPost2010Prop36
280
     0
102
RTVSPost2010PropOp36
 70
     1
102
RTVSPost2010Prop37
 90
       50
102
RTVSPost2010PropOp37
 70
     1
102
RTVSPost2010Prop38
140
0.0
102
RTVSPost2010PropOp38
 70
     1
102
RTVSPost2010Prop39
140
1.0
102
RTVSPost2010PropOp39
 70
     1
102
RTVSPost2010Prop40
 90
        0
102
RTVSPost2010PropOp40
 70
     1
102
RTVSPost2010Prop41ColorIndex
 90
       18
102
RTVSPost2010Prop41ColorRGB
 90
        0
102
RTVSPost2010PropOp41
 70
     1
102
RTVSPost2010Prop42
 90
       50
102
RTVSPost2010PropOp42
 70
     1
102
RTVSPost2010Prop43
 90
        3
102
RTVSPost2010PropOp43
 70
     1
102
RTVSPost2010Prop44ColorIndex
 90
        5
102
RTVSPost2010Prop44ColorRGB
 90
      255
102
RTVSPost2010PropOp44
 70
     1
102
RTVSPost2010Prop45
280
     0
102
RTVSPost2010PropOp45
 70
     1
102
RTVSPost2010Prop46
 90
       50
102
RTVSPost2010PropOp46
 70
     1
102
RTVSPost2010Prop47
 90
       50
102
RTVSPost2010PropOp47
 70
     1
102
RTVSPost2010Prop48
 90
       50
102
RTVSPost2010PropOp48
 70
     1
102
RTVSPost2010Prop49
280
     0
102
RTVSPost2010PropOp49
 70
     1
102
RTVSPost2010Prop50
 90
       50
102
RTVSPost2010PropOp50
 70
     1
102
RTVSPost2010Prop51ColorIndex
 90
      256
102
RTVSPost2010Prop51ColorRGB
 90
-16777216
102
RTVSPost2010PropOp51
 70
     0
102
RTVSPost2010Prop52
140
1.0
102
RTVSPost2010PropOp52
 70
     0
102
RTVSPost2010Prop53
 90
        2
102
RTVSPost2010PropOp53
 70
     1
102
RTVSPost2010Prop54
  1
strokes_ogs.tif
102
RTVSPost2010PropOp54
 70
     1
102
RTVSPost2010Prop55
280
     0
102
RTVSPost2010PropOp55
 70
     1
102
RTVSPost2010Prop56
140
1.0
102
RTVSPost2010PropOp56
 70
     1
102
RTVSPost2010Prop57
140
1.0
102
RTVSPost2010PropOp57
 70
     1
102
RTVSPropertyOp0
 70
     1
102
RTVSPropertyOp1
 70
     1
102
RTVSPropertyOp2
 70
     1
102
RTVSPropertyOp3
 70
     1
102
RTVSPropertyOp4
 70
     1
102
RTVSPropertyOp5
 70
     1
102
RTVSPropertyOp6
 70
     1
102
RTVSPropertyOp7
 70
     1
102
RTVSPropertyOp8
 70
     1
102
RTVSPropertyOp9
 70
     1
102
RTVSPropertyOp10
 70
     1
102
RTVSPropertyOp11
 70
     1
102
RTVSPropertyOp12
 70
     1
102
RTVSPropertyOp13
 70
     1
102
RTVSPropertyOp14
 70
     1
102
RTVSPropertyOp15
 70
     1
102
RTVSPropertyOp16
 70
     1
102
RTVSPropertyOp17
 70
     1
102
RTVSPropertyOp18
 70
     1
102
RTVSPropertyOp19
 70
     1
102
RTVSPropertyOp20
 70
     1
102
RTVSPropertyOp21
 70
     1
102
RTVSPropertyOp22
 70
     1
102
RTVSPropertyOp23
 70
     1
102
RTVSPropertyOp24
 70
     1
102
RTVSPropertyOp25
 70
     1
102
RTVSPropertyOp26
 70
     1
102
RTVSPropertyOp27
 70
     1
102
RTVSPropertyOp28
 70
     1
102
RTVSPropertyOp29
 70
     1
102
RTVSPropertyOp30
 70
     1
102
RTVSPropertyOp31
 70
     1
102
RTVSPropertyOp32
 70
     1
102
RTVSPropertyOp33
 70
     1
102
RTVSPropertyOp34
 70
     1
102
RTVSPropertyOp35
 70
     1
102
RTVSPropertyOp36
 70
     1
102
RTVSPropertyOp37
 70
     1
102
RTVSPropertyOp38
 70
     1
102
RTVSPropertyOp39
 70
     1
102
RTVSPropertyOp40
 70
     1
102
RTVSPropertyOp41
 70
     1
102
RTVSPropertyOp42
 70
     1
102
RTVSPropertyOp43
 70
     1
102
RTVSPropertyOp44
 70
     1
102
RTVSPropertyOp45
 70
     1
102
RTVSPropertyOp46
 70
     1
102
RTVSPropertyOp47
 70
     1
102
RTVSPropertyOp48
 70
     1
102
RTVSPropertyOp49
 70
     1
102
RTVSPropertyOp50
 70
     1
102
RTVSPropertyOp51
 70
     0
102
RTVSPropertyOp52
 70
     0
102
RTVSPropertyOp53
 70
     1
102
RTVSPropertyOp54
 70
     1
102
RTVSPropertyOp55
 70
     1
102
RTVSPropertyOp56
 70
     1
102
RTVSPropertyOp57
 70
     1
102
RTVSPropertyOp58
 70
     1
102
RTVSPropertyOp59
 70
     1
102
RTVSPropertyOp60
 70
     1
102
RTVSPropertyOp61
 70
     1
102
RTVSPropertyOp62
 70
     1
  0
XRECORD
  5
2FA
102
{ACAD_REACTORS
330
2F9
102
}
330
2F9
100
AcDbXrecord
280
     1
102
RTVSPost2010Prop28
280
     0
102
RTVSPost2010PropOp28
 70
     1
102
RTVSPost2010Prop29
280
     1
102
RTVSPost2010PropOp29
 70
     1
102
RTVSPost2010Prop30
280
     1
102
RTVSPost2010PropOp30
 70
     1
102
RTVSPost2010Prop31
280
     0
102
RTVSPost2010PropOp31
 70
     1
102
RTVSPost2010Prop32
280
     0
102
RTVSPost2010PropOp32
 70
     1
102
RTVSPost2010Prop33
280
     0
102
RTVSPost2010PropOp33
 70
     1
102
RTVSPost2010Prop34
280
     0
102
RTVSPost2010PropOp34
 70
     1
102
RTVSPost2010Prop35
280
     0
102
RTVSPost2010PropOp35
 70
     1
102
RTVSPost2010Prop36
280
     0
102
RTVSPost2010PropOp36
 70
     1
102
RTVSPost2010Prop37
 90
       50
102
RTVSPost2010PropOp37
 70
     1
102
RTVSPost2010Prop38
140
0.0
102
RTVSPost2010PropOp38
 70
     1
102
RTVSPost2010Prop39
140
1.0
102
RTVSPost2010PropOp39
 70
     1
102
RTVSPost2010Prop40
 90
        0
102
RTVSPost2010PropOp40
 70
     1
102
RTVSPost2010Prop41ColorIndex
 90
       18
102
RTVSPost2010Prop41ColorRGB
 90
        0
102
RTVSPost2010PropOp41
 70
     1
102
RTVSPost2010Prop42
 90
       50
102
RTVSPost2010PropOp42
 70
     1
102
RTVSPost2010Prop43
 90
        3
102
RTVSPost2010PropOp43
 70
     1
102
RTVSPost2010Prop44ColorIndex
 90
        5
102
RTVSPost2010Prop44ColorRGB
 90
      255
102
RTVSPost2010PropOp44
 70
     1
102
RTVSPost2010Prop45
280
     0
102
RTVSPost2010PropOp45
 70
     1
102
RTVSPost2010Prop46
 90
       50
102
RTVSPost2010PropOp46
 70
     1
102
RTVSPost2010Prop47
 90
       50
102
RTVSPost2010PropOp47
 70
     1
102
RTVSPost2010Prop48
 90
       50
102
RTVSPost2010PropOp48
 70
     1
102
RTVSPost2010Prop49
280
     0
102
RTVSPost2010PropOp49
 70
     1
102
RTVSPost2010Prop50
 90
       50
102
RTVSPost2010PropOp50
 70
     1
102
RTVSPost2010Prop51ColorIndex
 90
      256
102
RTVSPost2010Prop51ColorRGB
 90
-16777216
102
RTVSPost2010PropOp51
 70
     0
102
RTVSPost2010Prop52
140
1.0
102
RTVSPost2010PropOp52
 70
     0
102
RTVSPost2010Prop53
 90
        2
102
RTVSPost2010PropOp53
 70
     1
102
RTVSPost2010Prop54
  1
strokes_ogs.tif
102
RTVSPost2010PropOp54
 70
     1
102
RTVSPost2010Prop55
280
     0
102
RTVSPost2010PropOp55
 70
     1
102
RTVSPost2010Prop56
140
1.0
102
RTVSPost2010PropOp56
 70
     1
102
RTVSPost2010Prop57
140
1.0
102
RTVSPost2010PropOp57
 70
     1
102
RTVSPropertyOp0
 70
     1
102
RTVSPropertyOp1
 70
     1
102
RTVSPropertyOp2
 70
     1
102
RTVSPropertyOp3
 70
     1
102
RTVSPropertyOp4
 70
     1
102
RTVSPropertyOp5
 70
     1
102
RTVSPropertyOp6
 70
     1
102
RTVSPropertyOp7
 70
     1
102
RTVSPropertyOp8
 70
     1
102
RTVSPropertyOp9
 70
     1
102
RTVSPropertyOp10
 70
     1
102
RTVSPropertyOp11
 70
     1
102
RTVSPropertyOp12
 70
     1
102
RTVSPropertyOp13
 70
     1
102
RTVSPropertyOp14
 70
     1
102
RTVSPropertyOp15
 70
     1
102
RTVSPropertyOp16
 70
     1
102
RTVSPropertyOp17
 70
     1
102
RTVSPropertyOp18
 70
     1
102
RTVSPropertyOp19
 70
     1
102
RTVSPropertyOp20
 70
     1
102
RTVSPropertyOp21
 70
     1
102
RTVSPropertyOp22
 70
     1
102
RTVSPropertyOp23
 70
     1
102
RTVSPropertyOp24
 70
     1
102
RTVSPropertyOp25
 70
     1
102
RTVSPropertyOp26
 70
     1
102
RTVSPropertyOp27
 70
     1
102
RTVSPropertyOp28
 70
     1
102
RTVSPropertyOp29
 70
     1
102
RTVSPropertyOp30
 70
     1
102
RTVSPropertyOp31
 70
     1
102
RTVSPropertyOp32
 70
     1
102
RTVSPropertyOp33
 70
     1
102
RTVSPropertyOp34
 70
     1
102
RTVSPropertyOp35
 70
     1
102
RTVSPropertyOp36
 70
     1
102
RTVSPropertyOp37
 70
     1
102
RTVSPropertyOp38
 70
     1
102
RTVSPropertyOp39
 70
     1
102
RTVSPropertyOp40
 70
     1
102
RTVSPropertyOp41
 70
     1
102
RTVSPropertyOp42
 70
     1
102
RTVSPropertyOp43
 70
     1
102
RTVSPropertyOp44
 70
     1
102
RTVSPropertyOp45
 70
     1
102
RTVSPropertyOp46
 70
     1
102
RTVSPropertyOp47
 70
     1
102
RTVSPropertyOp48
 70
     1
102
RTVSPropertyOp49
 70
     1
102
RTVSPropertyOp50
 70
     1
102
RTVSPropertyOp51
 70
     0
102
RTVSPropertyOp52
 70
     0
102
RTVSPropertyOp53
 70
     1
102
RTVSPropertyOp54
 70
     1
102
RTVSPropertyOp55
 70
     1
102
RTVSPropertyOp56
 70
     1
102
RTVSPropertyOp57
 70
     1
102
RTVSPropertyOp58
 70
     1
102
RTVSPropertyOp59
 70
     1
102
RTVSPropertyOp60
 70
     1
102
RTVSPropertyOp61
 70
     1
102
RTVSPropertyOp62
 70
     1
  0
XRECORD
  5
2FC
102
{ACAD_REACTORS
330
2FB
102
}
330
2FB
100
AcDbXrecord
280
     1
102
RTVSPost2010Prop28
280
     0
102
RTVSPost2010PropOp28
 70
     1
102
RTVSPost2010Prop29
280
     1
102
RTVSPost2010PropOp29
 70
     1
102
RTVSPost2010Prop30
280
     1
102
RTVSPost2010PropOp30
 70
     1
102
RTVSPost2010Prop31
280
     0
102
RTVSPost2010PropOp31
 70
     1
102
RTVSPost2010Prop32
280
     0
102
RTVSPost2010PropOp32
 70
     1
102
RTVSPost2010Prop33
280
     0
102
RTVSPost2010PropOp33
 70
     1
102
RTVSPost2010Prop34
280
     0
102
RTVSPost2010PropOp34
 70
     1
102
RTVSPost2010Prop35
280
     0
102
RTVSPost2010PropOp35
 70
     1
102
RTVSPost2010Prop36
280
     0
102
RTVSPost2010PropOp36
 70
     1
102
RTVSPost2010Prop37
 90
       50
102
RTVSPost2010PropOp37
 70
     1
102
RTVSPost2010Prop38
140
0.0
102
RTVSPost2010PropOp38
 70
     1
102
RTVSPost2010Prop39
140
1.0
102
RTVSPost2010PropOp39
 70
     1
102
RTVSPost2010Prop40
 90
        0
102
RTVSPost2010PropOp40
 70
     1
102
RTVSPost2010Prop41ColorIndex
 90
       18
102
RTVSPost2010Prop41ColorRGB
 90
        0
102
RTVSPost2010PropOp41
 70
     1
102
RTVSPost2010Prop42
 90
       50
102
RTVSPost2010PropOp42
 70
     1
102
RTVSPost2010Prop43
 90
        3
102
RTVSPost2010PropOp43
 70
     1
102
RTVSPost2010Prop44ColorIndex
 90
        5
102
RTVSPost2010Prop44ColorRGB
 90
      255
102
RTVSPost2010PropOp44
 70
     1
102
RTVSPost2010Prop45
280
     0
102
RTVSPost2010PropOp45
 70
     1
102
RTVSPost2010Prop46
 90
       50
102
RTVSPost2010PropOp46
 70
     1
102
RTVSPost2010Prop47
 90
       50
102
RTVSPost2010PropOp47
 70
     1
102
RTVSPost2010Prop48
 90
       50
102
RTVSPost2010PropOp48
 70
     1
102
RTVSPost2010Prop49
280
     0
102
RTVSPost2010PropOp49
 70
     1
102
RTVSPost2010Prop50
 90
       50
102
RTVSPost2010PropOp50
 70
     1
102
RTVSPost2010Prop51ColorIndex
 90
      256
102
RTVSPost2010Prop51ColorRGB
 90
-16777216
102
RTVSPost2010PropOp51
 70
     0
102
RTVSPost2010Prop52
140
1.0
102
RTVSPost2010PropOp52
 70
     0
102
RTVSPost2010Prop53
 90
        2
102
RTVSPost2010PropOp53
 70
     1
102
RTVSPost2010Prop54
  1
strokes_ogs.tif
102
RTVSPost2010PropOp54
 70
     1
102
RTVSPost2010Prop55
280
     0
102
RTVSPost2010PropOp55
 70
     1
102
RTVSPost2010Prop56
140
1.0
102
RTVSPost2010PropOp56
 70
     1
102
RTVSPost2010Prop57
140
1.0
102
RTVSPost2010PropOp57
 70
     1
102
RTVSPropertyOp0
 70
     1
102
RTVSPropertyOp1
 70
     1
102
RTVSPropertyOp2
 70
     1
102
RTVSPropertyOp3
 70
     1
102
RTVSPropertyOp4
 70
     1
102
RTVSPropertyOp5
 70
     1
102
RTVSPropertyOp6
 70
     1
102
RTVSPropertyOp7
 70
     1
102
RTVSPropertyOp8
 70
     1
102
RTVSPropertyOp9
 70
     1
102
RTVSPropertyOp10
 70
     1
102
RTVSPropertyOp11
 70
     1
102
RTVSPropertyOp12
 70
     1
102
RTVSPropertyOp13
 70
     1
102
RTVSPropertyOp14
 70
     1
102
RTVSPropertyOp15
 70
     1
102
RTVSPropertyOp16
 70
     1
102
RTVSPropertyOp17
 70
     1
102
RTVSPropertyOp18
 70
     1
102
RTVSPropertyOp19
 70
     1
102
RTVSPropertyOp20
 70
     1
102
RTVSPropertyOp21
 70
     1
102
RTVSPropertyOp22
 70
     1
102
RTVSPropertyOp23
 70
     1
102
RTVSPropertyOp24
 70
     1
102
RTVSPropertyOp25
 70
     1
102
RTVSPropertyOp26
 70
     1
102
RTVSPropertyOp27
 70
     1
102
RTVSPropertyOp28
 70
     1
102
RTVSPropertyOp29
 70
     1
102
RTVSPropertyOp30
 70
     1
102
RTVSPropertyOp31
 70
     1
102
RTVSPropertyOp32
 70
     1
102
RTVSPropertyOp33
 70
     1
102
RTVSPropertyOp34
 70
     1
102
RTVSPropertyOp35
 70
     1
102
RTVSPropertyOp36
 70
     1
102
RTVSPropertyOp37
 70
     1
102
RTVSPropertyOp38
 70
     1
102
RTVSPropertyOp39
 70
     1
102
RTVSPropertyOp40
 70
     1
102
RTVSPropertyOp41
 70
     1
102
RTVSPropertyOp42
 70
     1
102
RTVSPropertyOp43
 70
     1
102
RTVSPropertyOp44
 70
     1
102
RTVSPropertyOp45
 70
     1
102
RTVSPropertyOp46
 70
     1
102
RTVSPropertyOp47
 70
     1
102
RTVSPropertyOp48
 70
     1
102
RTVSPropertyOp49
 70
     1
102
RTVSPropertyOp50
 70
     1
102
RTVSPropertyOp51
 70
     0
102
RTVSPropertyOp52
 70
     0
102
RTVSPropertyOp53
 70
     1
102
RTVSPropertyOp54
 70
     1
102
RTVSPropertyOp55
 70
     1
102
RTVSPropertyOp56
 70
     1
102
RTVSPropertyOp57
 70
     1
102
RTVSPropertyOp58
 70
     1
102
RTVSPropertyOp59
 70
     1
102
RTVSPropertyOp60
 70
     1
102
RTVSPropertyOp61
 70
     1
102
RTVSPropertyOp62
 70
     1
  0
XRECORD
  5
304
102
{ACAD_REACTORS
330
303
102
}
330
303
100
AcDbXrecord
280
     1
102
RTVSPost2010Prop28
280
     0
102
RTVSPost2010PropOp28
 70
     1
102
RTVSPost2010Prop29
280
     1
102
RTVSPost2010PropOp29
 70
     1
102
RTVSPost2010Prop30
280
     1
102
RTVSPost2010PropOp30
 70
     1
102
RTVSPost2010Prop31
280
     0
102
RTVSPost2010PropOp31
 70
     1
102
RTVSPost2010Prop32
280
     0
102
RTVSPost2010PropOp32
 70
     1
102
RTVSPost2010Prop33
280
     0
102
RTVSPost2010PropOp33
 70
     1
102
RTVSPost2010Prop34
280
     0
102
RTVSPost2010PropOp34
 70
     1
102
RTVSPost2010Prop35
280
     0
102
RTVSPost2010PropOp35
 70
     1
102
RTVSPost2010Prop36
280
     0
102
RTVSPost2010PropOp36
 70
     1
102
RTVSPost2010Prop37
 90
       50
102
RTVSPost2010PropOp37
 70
     1
102
RTVSPost2010Prop38
140
0.0
102
RTVSPost2010PropOp38
 70
     1
102
RTVSPost2010Prop39
140
1.0
102
RTVSPost2010PropOp39
 70
     1
102
RTVSPost2010Prop40
 90
        0
102
RTVSPost2010PropOp40
 70
     1
102
RTVSPost2010Prop41ColorIndex
 90
       18
102
RTVSPost2010Prop41ColorRGB
 90
        0
102
RTVSPost2010PropOp41
 70
     1
102
RTVSPost2010Prop42
 90
       50
102
RTVSPost2010PropOp42
 70
     1
102
RTVSPost2010Prop43
 90
        3
102
RTVSPost2010PropOp43
 70
     1
102
RTVSPost2010Prop44ColorIndex
 90
        5
102
RTVSPost2010Prop44ColorRGB
 90
      255
102
RTVSPost2010PropOp44
 70
     1
102
RTVSPost2010Prop45
280
     0
102
RTVSPost2010PropOp45
 70
     1
102
RTVSPost2010Prop46
 90
       50
102
RTVSPost2010PropOp46
 70
     1
102
RTVSPost2010Prop47
 90
       50
102
RTVSPost2010PropOp47
 70
     1
102
RTVSPost2010Prop48
 90
       50
102
RTVSPost2010PropOp48
 70
     1
102
RTVSPost2010Prop49
280
     0
102
RTVSPost2010PropOp49
 70
     1
102
RTVSPost2010Prop50
 90
       50
102
RTVSPost2010PropOp50
 70
     1
102
RTVSPost2010Prop51ColorIndex
 90
      256
102
RTVSPost2010Prop51ColorRGB
 90
-16777216
102
RTVSPost2010PropOp51
 70
     0
102
RTVSPost2010Prop52
140
1.0
102
RTVSPost2010PropOp52
 70
     0
102
RTVSPost2010Prop53
 90
        2
102
RTVSPost2010PropOp53
 70
     1
102
RTVSPost2010Prop54
  1
strokes_ogs.tif
102
RTVSPost2010PropOp54
 70
     1
102
RTVSPost2010Prop55
280
     0
102
RTVSPost2010PropOp55
 70
     1
102
RTVSPost2010Prop56
140
1.0
102
RTVSPost2010PropOp56
 70
     1
102
RTVSPost2010Prop57
140
1.0
102
RTVSPost2010PropOp57
 70
     1
102
RTVSPropertyOp0
 70
     1
102
RTVSPropertyOp1
 70
     1
102
RTVSPropertyOp2
 70
     1
102
RTVSPropertyOp3
 70
     1
102
RTVSPropertyOp4
 70
     1
102
RTVSPropertyOp5
 70
     1
102
RTVSPropertyOp6
 70
     1
102
RTVSPropertyOp7
 70
     1
102
RTVSPropertyOp8
 70
     1
102
RTVSPropertyOp9
 70
     1
102
RTVSPropertyOp10
 70
     1
102
RTVSPropertyOp11
 70
     1
102
RTVSPropertyOp12
 70
     1
102
RTVSPropertyOp13
 70
     1
102
RTVSPropertyOp14
 70
     1
102
RTVSPropertyOp15
 70
     1
102
RTVSPropertyOp16
 70
     1
102
RTVSPropertyOp17
 70
     1
102
RTVSPropertyOp18
 70
     1
102
RTVSPropertyOp19
 70
     1
102
RTVSPropertyOp20
 70
     1
102
RTVSPropertyOp21
 70
     1
102
RTVSPropertyOp22
 70
     1
102
RTVSPropertyOp23
 70
     1
102
RTVSPropertyOp24
 70
     1
102
RTVSPropertyOp25
 70
     1
102
RTVSPropertyOp26
 70
     1
102
RTVSPropertyOp27
 70
     1
102
RTVSPropertyOp28
 70
     1
102
RTVSPropertyOp29
 70
     1
102
RTVSPropertyOp30
 70
     1
102
RTVSPropertyOp31
 70
     1
102
RTVSPropertyOp32
 70
     1
102
RTVSPropertyOp33
 70
     1
102
RTVSPropertyOp34
 70
     1
102
RTVSPropertyOp35
 70
     1
102
RTVSPropertyOp36
 70
     1
102
RTVSPropertyOp37
 70
     1
102
RTVSPropertyOp38
 70
     1
102
RTVSPropertyOp39
 70
     1
102
RTVSPropertyOp40
 70
     1
102
RTVSPropertyOp41
 70
     1
102
RTVSPropertyOp42
 70
     1
102
RTVSPropertyOp43
 70
     1
102
RTVSPropertyOp44
 70
     1
102
RTVSPropertyOp45
 70
     1
102
RTVSPropertyOp46
 70
     1
102
RTVSPropertyOp47
 70
     1
102
RTVSPropertyOp48
 70
     1
102
RTVSPropertyOp49
 70
     1
102
RTVSPropertyOp50
 70
     1
102
RTVSPropertyOp51
 70
     0
102
RTVSPropertyOp52
 70
     0
102
RTVSPropertyOp53
 70
     1
102
RTVSPropertyOp54
 70
     1
102
RTVSPropertyOp55
 70
     1
102
RTVSPropertyOp56
 70
     1
102
RTVSPropertyOp57
 70
     1
102
RTVSPropertyOp58
 70
     1
102
RTVSPropertyOp59
 70
     1
102
RTVSPropertyOp60
 70
     1
102
RTVSPropertyOp61
 70
     1
102
RTVSPropertyOp62
 70
     1
  0
XRECORD
  5
320
102
{ACAD_REACTORS
330
31F
102
}
330
31F
100
AcDbXrecord
280
     1
102
RTVSPost2010Prop28
280
     0
102
RTVSPost2010PropOp28
 70
     0
102
RTVSPost2010Prop29
280
     1
102
RTVSPost2010PropOp29
 70
     0
102
RTVSPost2010Prop30
280
     1
102
RTVSPost2010PropOp30
 70
     0
102
RTVSPost2010Prop31
280
     0
102
RTVSPost2010PropOp31
 70
     0
102
RTVSPost2010Prop32
280
     0
102
RTVSPost2010PropOp32
 70
     0
102
RTVSPost2010Prop33
280
     0
102
RTVSPost2010PropOp33
 70
     0
102
RTVSPost2010Prop34
280
     0
102
RTVSPost2010PropOp34
 70
     0
102
RTVSPost2010Prop35
280
     0
102
RTVSPost2010PropOp35
 70
     0
102
RTVSPost2010Prop36
280
     0
102
RTVSPost2010PropOp36
 70
     0
102
RTVSPost2010Prop37
 90
       50
102
RTVSPost2010PropOp37
 70
     0
102
RTVSPost2010Prop38
140
0.0
102
RTVSPost2010PropOp38
 70
     0
102
RTVSPost2010Prop39
140
1.0
102
RTVSPost2010PropOp39
 70
     0
102
RTVSPost2010Prop40
 90
        0
102
RTVSPost2010PropOp40
 70
     0
102
RTVSPost2010Prop41ColorIndex
 90
       18
102
RTVSPost2010Prop41ColorRGB
 90
        0
102
RTVSPost2010PropOp41
 70
     0
102
RTVSPost2010Prop42
 90
       50
102
RTVSPost2010PropOp42
 70
     0
102
RTVSPost2010Prop43
 90
        3
102
RTVSPost2010PropOp43
 70
     0
102
RTVSPost2010Prop44ColorIndex
 90
        5
102
RTVSPost2010Prop44ColorRGB
 90
      255
102
RTVSPost2010PropOp44
 70
     0
102
RTVSPost2010Prop45
280
     0
102
RTVSPost2010PropOp45
 70
     0
102
RTVSPost2010Prop46
 90
       50
102
RTVSPost2010PropOp46
 70
     0
102
RTVSPost2010Prop47
 90
       50
102
RTVSPost2010PropOp47
 70
     0
102
RTVSPost2010Prop48
 90
       50
102
RTVSPost2010PropOp48
 70
     0
102
RTVSPost2010Prop49
280
     0
102
RTVSPost2010PropOp49
 70
     0
102
RTVSPost2010Prop50
 90
       50
102
RTVSPost2010PropOp50
 70
     0
102
RTVSPost2010Prop51ColorIndex
 90
      256
102
RTVSPost2010Prop51ColorRGB
 90
-16777216
102
RTVSPost2010PropOp51
 70
     0
102
RTVSPost2010Prop52
140
1.0
102
RTVSPost2010PropOp52
 70
     0
102
RTVSPost2010Prop53
 90
        2
102
RTVSPost2010PropOp53
 70
     0
102
RTVSPost2010Prop54
  1
strokes_ogs.tif
102
RTVSPost2010PropOp54
 70
     0
102
RTVSPost2010Prop55
280
     0
102
RTVSPost2010PropOp55
 70
     0
102
RTVSPost2010Prop56
140
1.0
102
RTVSPost2010PropOp56
 70
     0
102
RTVSPost2010Prop57
140
1.0
102
RTVSPost2010PropOp57
 70
     0
102
RTVSPropertyOp0
 70
     0
102
RTVSPropertyOp1
 70
     0
102
RTVSPropertyOp2
 70
     0
102
RTVSPropertyOp3
 70
     0
102
RTVSPropertyOp4
 70
     0
102
RTVSPropertyOp5
 70
     0
102
RTVSPropertyOp6
 70
     0
102
RTVSPropertyOp7
 70
     0
102
RTVSPropertyOp8
 70
     0
102
RTVSPropertyOp9
 70
     0
102
RTVSPropertyOp10
 70
     0
102
RTVSPropertyOp11
 70
     0
102
RTVSPropertyOp12
 70
     0
102
RTVSPropertyOp13
 70
     0
102
RTVSPropertyOp14
 70
     2
102
RTVSPropertyOp15
 70
     0
102
RTVSPropertyOp16
 70
     0
102
RTVSPropertyOp17
 70
     0
102
RTVSPropertyOp18
 70
     0
102
RTVSPropertyOp19
 70
     0
102
RTVSPropertyOp20
 70
     0
102
RTVSPropertyOp21
 70
     0
102
RTVSPropertyOp22
 70
     0
102
RTVSPropertyOp23
 70
     0
102
RTVSPropertyOp24
 70
     0
102
RTVSPropertyOp25
 70
     0
102
RTVSPropertyOp26
 70
     0
102
RTVSPropertyOp27
 70
     0
102
RTVSPropertyOp28
 70
     0
102
RTVSPropertyOp29
 70
     0
102
RTVSPropertyOp30
 70
     0
102
RTVSPropertyOp31
 70
     0
102
RTVSPropertyOp32
 70
     0
102
RTVSPropertyOp33
 70
     0
102
RTVSPropertyOp34
 70
     0
102
RTVSPropertyOp35
 70
     0
102
RTVSPropertyOp36
 70
     0
102
RTVSPropertyOp37
 70
     0
102
RTVSPropertyOp38
 70
     0
102
RTVSPropertyOp39
 70
     0
102
RTVSPropertyOp40
 70
     0
102
RTVSPropertyOp41
 70
     0
102
RTVSPropertyOp42
 70
     0
102
RTVSPropertyOp43
 70
     0
102
RTVSPropertyOp44
 70
     0
102
RTVSPropertyOp45
 70
     0
102
RTVSPropertyOp46
 70
     0
102
RTVSPropertyOp47
 70
     0
102
RTVSPropertyOp48
 70
     0
102
RTVSPropertyOp49
 70
     0
102
RTVSPropertyOp50
 70
     0
102
RTVSPropertyOp51
 70
     0
102
RTVSPropertyOp52
 70
     0
102
RTVSPropertyOp53
 70
     0
102
RTVSPropertyOp54
 70
     0
102
RTVSPropertyOp55
 70
     0
102
RTVSPropertyOp56
 70
     0
102
RTVSPropertyOp57
 70
     0
102
RTVSPropertyOp58
 70
     0
102
RTVSPropertyOp59
 70
     0
102
RTVSPropertyOp60
 70
     0
102
RTVSPropertyOp61
 70
     0
102
RTVSPropertyOp62
 70
     0
  0
XRECORD
  5
310
102
{ACAD_REACTORS
330
30F
102
}
330
30F
100
AcDbXrecord
280
     1
102
RTVSPost2010Prop28
280
     0
102
RTVSPost2010PropOp28
 70
     1
102
RTVSPost2010Prop29
280
     1
102
RTVSPost2010PropOp29
 70
     1
102
RTVSPost2010Prop30
280
     1
102
RTVSPost2010PropOp30
 70
     1
102
RTVSPost2010Prop31
280
     0
102
RTVSPost2010PropOp31
 70
     1
102
RTVSPost2010Prop32
280
     0
102
RTVSPost2010PropOp32
 70
     1
102
RTVSPost2010Prop33
280
     0
102
RTVSPost2010PropOp33
 70
     1
102
RTVSPost2010Prop34
280
     0
102
RTVSPost2010PropOp34
 70
     1
102
RTVSPost2010Prop35
280
     0
102
RTVSPost2010PropOp35
 70
     1
102
RTVSPost2010Prop36
280
     0
102
RTVSPost2010PropOp36
 70
     1
102
RTVSPost2010Prop37
 90
       50
102
RTVSPost2010PropOp37
 70
     1
102
RTVSPost2010Prop38
140
0.0
102
RTVSPost2010PropOp38
 70
     1
102
RTVSPost2010Prop39
140
1.0
102
RTVSPost2010PropOp39
 70
     1
102
RTVSPost2010Prop40
 90
        0
102
RTVSPost2010PropOp40
 70
     1
102
RTVSPost2010Prop41ColorIndex
 90
       18
102
RTVSPost2010Prop41ColorRGB
 90
        0
102
RTVSPost2010PropOp41
 70
     1
102
RTVSPost2010Prop42
 90
       50
102
RTVSPost2010PropOp42
 70
     1
102
RTVSPost2010Prop43
 90
        3
102
RTVSPost2010PropOp43
 70
     1
102
RTVSPost2010Prop44ColorIndex
 90
        5
102
RTVSPost2010Prop44ColorRGB
 90
      255
102
RTVSPost2010PropOp44
 70
     1
102
RTVSPost2010Prop45
280
     0
102
RTVSPost2010PropOp45
 70
     1
102
RTVSPost2010Prop46
 90
       50
102
RTVSPost2010PropOp46
 70
     1
102
RTVSPost2010Prop47
 90
       50
102
RTVSPost2010PropOp47
 70
     1
102
RTVSPost2010Prop48
 90
       50
102
RTVSPost2010PropOp48
 70
     1
102
RTVSPost2010Prop49
280
     0
102
RTVSPost2010PropOp49
 70
     1
102
RTVSPost2010Prop50
 90
       50
102
RTVSPost2010PropOp50
 70
     1
102
RTVSPost2010Prop51ColorIndex
 90
      256
102
RTVSPost2010Prop51ColorRGB
 90
-16777216
102
RTVSPost2010PropOp51
 70
     0
102
RTVSPost2010Prop52
140
1.0
102
RTVSPost2010PropOp52
 70
     0
102
RTVSPost2010Prop53
 90
        2
102
RTVSPost2010PropOp53
 70
     1
102
RTVSPost2010Prop54
  1
strokes_ogs.tif
102
RTVSPost2010PropOp54
 70
     1
102
RTVSPost2010Prop55
280
     0
102
RTVSPost2010PropOp55
 70
     1
102
RTVSPost2010Prop56
140
1.0
102
RTVSPost2010PropOp56
 70
     1
102
RTVSPost2010Prop57
140
1.0
102
RTVSPost2010PropOp57
 70
     1
102
RTVSPropertyOp0
 70
     1
102
RTVSPropertyOp1
 70
     1
102
RTVSPropertyOp2
 70
     1
102
RTVSPropertyOp3
 70
     1
102
RTVSPropertyOp4
 70
     1
102
RTVSPropertyOp5
 70
     1
102
RTVSPropertyOp6
 70
     1
102
RTVSPropertyOp7
 70
     1
102
RTVSPropertyOp8
 70
     1
102
RTVSPropertyOp9
 70
     1
102
RTVSPropertyOp10
 70
     1
102
RTVSPropertyOp11
 70
     1
102
RTVSPropertyOp12
 70
     1
102
RTVSPropertyOp13
 70
     1
102
RTVSPropertyOp14
 70
     1
102
RTVSPropertyOp15
 70
     1
102
RTVSPropertyOp16
 70
     1
102
RTVSPropertyOp17
 70
     1
102
RTVSPropertyOp18
 70
     1
102
RTVSPropertyOp19
 70
     1
102
RTVSPropertyOp20
 70
     1
102
RTVSPropertyOp21
 70
     1
102
RTVSPropertyOp22
 70
     1
102
RTVSPropertyOp23
 70
     1
102
RTVSPropertyOp24
 70
     1
102
RTVSPropertyOp25
 70
     1
102
RTVSPropertyOp26
 70
     1
102
RTVSPropertyOp27
 70
     1
102
RTVSPropertyOp28
 70
     1
102
RTVSPropertyOp29
 70
     1
102
RTVSPropertyOp30
 70
     1
102
RTVSPropertyOp31
 70
     1
102
RTVSPropertyOp32
 70
     1
102
RTVSPropertyOp33
 70
     1
102
RTVSPropertyOp34
 70
     1
102
RTVSPropertyOp35
 70
     1
102
RTVSPropertyOp36
 70
     1
102
RTVSPropertyOp37
 70
     1
102
RTVSPropertyOp38
 70
     1
102
RTVSPropertyOp39
 70
     1
102
RTVSPropertyOp40
 70
     1
102
RTVSPropertyOp41
 70
     1
102
RTVSPropertyOp42
 70
     1
102
RTVSPropertyOp43
 70
     1
102
RTVSPropertyOp44
 70
     1
102
RTVSPropertyOp45
 70
     1
102
RTVSPropertyOp46
 70
     1
102
RTVSPropertyOp47
 70
     1
102
RTVSPropertyOp48
 70
     1
102
RTVSPropertyOp49
 70
     1
102
RTVSPropertyOp50
 70
     1
102
RTVSPropertyOp51
 70
     0
102
RTVSPropertyOp52
 70
     0
102
RTVSPropertyOp53
 70
     1
102
RTVSPropertyOp54
 70
     1
102
RTVSPropertyOp55
 70
     1
102
RTVSPropertyOp56
 70
     1
102
RTVSPropertyOp57
 70
     1
102
RTVSPropertyOp58
 70
     1
102
RTVSPropertyOp59
 70
     1
102
RTVSPropertyOp60
 70
     1
102
RTVSPropertyOp61
 70
     1
102
RTVSPropertyOp62
 70
     1
  0
XRECORD
  5
322
102
{ACAD_REACTORS
330
321
102
}
330
321
100
AcDbXrecord
280
     1
102
RTVSPost2010Prop28
280
     0
102
RTVSPost2010PropOp28
 70
     0
102
RTVSPost2010Prop29
280
     1
102
RTVSPost2010PropOp29
 70
     0
102
RTVSPost2010Prop30
280
     1
102
RTVSPost2010PropOp30
 70
     0
102
RTVSPost2010Prop31
280
     0
102
RTVSPost2010PropOp31
 70
     0
102
RTVSPost2010Prop32
280
     0
102
RTVSPost2010PropOp32
 70
     0
102
RTVSPost2010Prop33
280
     0
102
RTVSPost2010PropOp33
 70
     0
102
RTVSPost2010Prop34
280
     0
102
RTVSPost2010PropOp34
 70
     0
102
RTVSPost2010Prop35
280
     0
102
RTVSPost2010PropOp35
 70
     0
102
RTVSPost2010Prop36
280
     0
102
RTVSPost2010PropOp36
 70
     0
102
RTVSPost2010Prop37
 90
       50
102
RTVSPost2010PropOp37
 70
     0
102
RTVSPost2010Prop38
140
0.0
102
RTVSPost2010PropOp38
 70
     0
102
RTVSPost2010Prop39
140
1.0
102
RTVSPost2010PropOp39
 70
     0
102
RTVSPost2010Prop40
 90
        0
102
RTVSPost2010PropOp40
 70
     0
102
RTVSPost2010Prop41ColorIndex
 90
       18
102
RTVSPost2010Prop41ColorRGB
 90
        0
102
RTVSPost2010PropOp41
 70
     0
102
RTVSPost2010Prop42
 90
       50
102
RTVSPost2010PropOp42
 70
     0
102
RTVSPost2010Prop43
 90
        3
102
RTVSPost2010PropOp43
 70
     0
102
RTVSPost2010Prop44ColorIndex
 90
        5
102
RTVSPost2010Prop44ColorRGB
 90
      255
102
RTVSPost2010PropOp44
 70
     0
102
RTVSPost2010Prop45
280
     0
102
RTVSPost2010PropOp45
 70
     0
102
RTVSPost2010Prop46
 90
       50
102
RTVSPost2010PropOp46
 70
     0
102
RTVSPost2010Prop47
 90
       50
102
RTVSPost2010PropOp47
 70
     0
102
RTVSPost2010Prop48
 90
       50
102
RTVSPost2010PropOp48
 70
     0
102
RTVSPost2010Prop49
280
     0
102
RTVSPost2010PropOp49
 70
     0
102
RTVSPost2010Prop50
 90
       50
102
RTVSPost2010PropOp50
 70
     0
102
RTVSPost2010Prop51ColorIndex
 90
      256
102
RTVSPost2010Prop51ColorRGB
 90
-16777216
102
RTVSPost2010PropOp51
 70
     0
102
RTVSPost2010Prop52
140
1.0
102
RTVSPost2010PropOp52
 70
     0
102
RTVSPost2010Prop53
 90
        2
102
RTVSPost2010PropOp53
 70
     0
102
RTVSPost2010Prop54
  1
strokes_ogs.tif
102
RTVSPost2010PropOp54
 70
     0
102
RTVSPost2010Prop55
280
     0
102
RTVSPost2010PropOp55
 70
     0
102
RTVSPost2010Prop56
140
1.0
102
RTVSPost2010PropOp56
 70
     0
102
RTVSPost2010Prop57
140
1.0
102
RTVSPost2010PropOp57
 70
     0
102
RTVSPropertyOp0
 70
     0
102
RTVSPropertyOp1
 70
     0
102
RTVSPropertyOp2
 70
     0
102
RTVSPropertyOp3
 70
     0
102
RTVSPropertyOp4
 70
     0
102
RTVSPropertyOp5
 70
     0
102
RTVSPropertyOp6
 70
     0
102
RTVSPropertyOp7
 70
     0
102
RTVSPropertyOp8
 70
     0
102
RTVSPropertyOp9
 70
     0
102
RTVSPropertyOp10
 70
     0
102
RTVSPropertyOp11
 70
     0
102
RTVSPropertyOp12
 70
     0
102
RTVSPropertyOp13
 70
     0
102
RTVSPropertyOp14
 70
     2
102
RTVSPropertyOp15
 70
     0
102
RTVSPropertyOp16
 70
     0
102
RTVSPropertyOp17
 70
     0
102
RTVSPropertyOp18
 70
     0
102
RTVSPropertyOp19
 70
     0
102
RTVSPropertyOp20
 70
     0
102
RTVSPropertyOp21
 70
     0
102
RTVSPropertyOp22
 70
     0
102
RTVSPropertyOp23
 70
     0
102
RTVSPropertyOp24
 70
     0
102
RTVSPropertyOp25
 70
     0
102
RTVSPropertyOp26
 70
     0
102
RTVSPropertyOp27
 70
     0
102
RTVSPropertyOp28
 70
     0
102
RTVSPropertyOp29
 70
     0
102
RTVSPropertyOp30
 70
     0
102
RTVSPropertyOp31
 70
     0
102
RTVSPropertyOp32
 70
     0
102
RTVSPropertyOp33
 70
     0
102
RTVSPropertyOp34
 70
     0
102
RTVSPropertyOp35
 70
     0
102
RTVSPropertyOp36
 70
     0
102
RTVSPropertyOp37
 70
     0
102
RTVSPropertyOp38
 70
     0
102
RTVSPropertyOp39
 70
     0
102
RTVSPropertyOp40
 70
     0
102
RTVSPropertyOp41
 70
     0
102
RTVSPropertyOp42
 70
     0
102
RTVSPropertyOp43
 70
     0
102
RTVSPropertyOp44
 70
     0
102
RTVSPropertyOp45
 70
     0
102
RTVSPropertyOp46
 70
     0
102
RTVSPropertyOp47
 70
     0
102
RTVSPropertyOp48
 70
     0
102
RTVSPropertyOp49
 70
     0
102
RTVSPropertyOp50
 70
     0
102
RTVSPropertyOp51
 70
     0
102
RTVSPropertyOp52
 70
     0
102
RTVSPropertyOp53
 70
     0
102
RTVSPropertyOp54
 70
     0
102
RTVSPropertyOp55
 70
     0
102
RTVSPropertyOp56
 70
     0
102
RTVSPropertyOp57
 70
     0
102
RTVSPropertyOp58
 70
     0
102
RTVSPropertyOp59
 70
     0
102
RTVSPropertyOp60
 70
     0
102
RTVSPropertyOp61
 70
     0
102
RTVSPropertyOp62
 70
     0
  0
XRECORD
  5
308
102
{ACAD_REACTORS
330
307
102
}
330
307
100
AcDbXrecord
280
     1
102
RTVSPost2010Prop28
280
     0
102
RTVSPost2010PropOp28
 70
     1
102
RTVSPost2010Prop29
280
     1
102
RTVSPost2010PropOp29
 70
     1
102
RTVSPost2010Prop30
280
     1
102
RTVSPost2010PropOp30
 70
     1
102
RTVSPost2010Prop31
280
     0
102
RTVSPost2010PropOp31
 70
     1
102
RTVSPost2010Prop32
280
     0
102
RTVSPost2010PropOp32
 70
     1
102
RTVSPost2010Prop33
280
     0
102
RTVSPost2010PropOp33
 70
     1
102
RTVSPost2010Prop34
280
     0
102
RTVSPost2010PropOp34
 70
     1
102
RTVSPost2010Prop35
280
     0
102
RTVSPost2010PropOp35
 70
     1
102
RTVSPost2010Prop36
280
     0
102
RTVSPost2010PropOp36
 70
     1
102
RTVSPost2010Prop37
 90
       50
102
RTVSPost2010PropOp37
 70
     1
102
RTVSPost2010Prop38
140
0.0
102
RTVSPost2010PropOp38
 70
     1
102
RTVSPost2010Prop39
140
1.0
102
RTVSPost2010PropOp39
 70
     1
102
RTVSPost2010Prop40
 90
        0
102
RTVSPost2010PropOp40
 70
     1
102
RTVSPost2010Prop41ColorIndex
 90
       18
102
RTVSPost2010Prop41ColorRGB
 90
        0
102
RTVSPost2010PropOp41
 70
     1
102
RTVSPost2010Prop42
 90
       50
102
RTVSPost2010PropOp42
 70
     1
102
RTVSPost2010Prop43
 90
        3
102
RTVSPost2010PropOp43
 70
     1
102
RTVSPost2010Prop44ColorIndex
 90
        5
102
RTVSPost2010Prop44ColorRGB
 90
      255
102
RTVSPost2010PropOp44
 70
     1
102
RTVSPost2010Prop45
280
     0
102
RTVSPost2010PropOp45
 70
     1
102
RTVSPost2010Prop46
 90
       50
102
RTVSPost2010PropOp46
 70
     1
102
RTVSPost2010Prop47
 90
       50
102
RTVSPost2010PropOp47
 70
     1
102
RTVSPost2010Prop48
 90
       50
102
RTVSPost2010PropOp48
 70
     1
102
RTVSPost2010Prop49
280
     0
102
RTVSPost2010PropOp49
 70
     1
102
RTVSPost2010Prop50
 90
       50
102
RTVSPost2010PropOp50
 70
     1
102
RTVSPost2010Prop51ColorIndex
 90
      256
102
RTVSPost2010Prop51ColorRGB
 90
-16777216
102
RTVSPost2010PropOp51
 70
     0
102
RTVSPost2010Prop52
140
1.0
102
RTVSPost2010PropOp52
 70
     0
102
RTVSPost2010Prop53
 90
        2
102
RTVSPost2010PropOp53
 70
     1
102
RTVSPost2010Prop54
  1
strokes_ogs.tif
102
RTVSPost2010PropOp54
 70
     1
102
RTVSPost2010Prop55
280
     0
102
RTVSPost2010PropOp55
 70
     1
102
RTVSPost2010Prop56
140
1.0
102
RTVSPost2010PropOp56
 70
     1
102
RTVSPost2010Prop57
140
1.0
102
RTVSPost2010PropOp57
 70
     1
102
RTVSPropertyOp0
 70
     1
102
RTVSPropertyOp1
 70
     1
102
RTVSPropertyOp2
 70
     1
102
RTVSPropertyOp3
 70
     1
102
RTVSPropertyOp4
 70
     1
102
RTVSPropertyOp5
 70
     1
102
RTVSPropertyOp6
 70
     1
102
RTVSPropertyOp7
 70
     1
102
RTVSPropertyOp8
 70
     1
102
RTVSPropertyOp9
 70
     1
102
RTVSPropertyOp10
 70
     1
102
RTVSPropertyOp11
 70
     1
102
RTVSPropertyOp12
 70
     1
102
RTVSPropertyOp13
 70
     1
102
RTVSPropertyOp14
 70
     1
102
RTVSPropertyOp15
 70
     1
102
RTVSPropertyOp16
 70
     1
102
RTVSPropertyOp17
 70
     1
102
RTVSPropertyOp18
 70
     1
102
RTVSPropertyOp19
 70
     1
102
RTVSPropertyOp20
 70
     1
102
RTVSPropertyOp21
 70
     1
102
RTVSPropertyOp22
 70
     1
102
RTVSPropertyOp23
 70
     1
102
RTVSPropertyOp24
 70
     1
102
RTVSPropertyOp25
 70
     1
102
RTVSPropertyOp26
 70
     1
102
RTVSPropertyOp27
 70
     1
102
RTVSPropertyOp28
 70
     1
102
RTVSPropertyOp29
 70
     1
102
RTVSPropertyOp30
 70
     1
102
RTVSPropertyOp31
 70
     1
102
RTVSPropertyOp32
 70
     1
102
RTVSPropertyOp33
 70
     1
102
RTVSPropertyOp34
 70
     1
102
RTVSPropertyOp35
 70
     1
102
RTVSPropertyOp36
 70
     1
102
RTVSPropertyOp37
 70
     1
102
RTVSPropertyOp38
 70
     1
102
RTVSPropertyOp39
 70
     1
102
RTVSPropertyOp40
 70
     1
102
RTVSPropertyOp41
 70
     1
102
RTVSPropertyOp42
 70
     1
102
RTVSPropertyOp43
 70
     1
102
RTVSPropertyOp44
 70
     1
102
RTVSPropertyOp45
 70
     1
102
RTVSPropertyOp46
 70
     1
102
RTVSPropertyOp47
 70
     1
102
RTVSPropertyOp48
 70
     1
102
RTVSPropertyOp49
 70
     1
102
RTVSPropertyOp50
 70
     1
102
RTVSPropertyOp51
 70
     0
102
RTVSPropertyOp52
 70
     0
102
RTVSPropertyOp53
 70
     1
102
RTVSPropertyOp54
 70
     1
102
RTVSPropertyOp55
 70
     1
102
RTVSPropertyOp56
 70
     1
102
RTVSPropertyOp57
 70
     1
102
RTVSPropertyOp58
 70
     1
102
RTVSPropertyOp59
 70
     1
102
RTVSPropertyOp60
 70
     1
102
RTVSPropertyOp61
 70
     1
102
RTVSPropertyOp62
 70
     1
  0
XRECORD
  5
31E
102
{ACAD_REACTORS
330
31D
102
}
330
31D
100
AcDbXrecord
280
     1
102
RTVSPost2010Prop28
280
     0
102
RTVSPost2010PropOp28
 70
     1
102
RTVSPost2010Prop29
280
     1
102
RTVSPost2010PropOp29
 70
     1
102
RTVSPost2010Prop30
280
     1
102
RTVSPost2010PropOp30
 70
     1
102
RTVSPost2010Prop31
280
     0
102
RTVSPost2010PropOp31
 70
     1
102
RTVSPost2010Prop32
280
     0
102
RTVSPost2010PropOp32
 70
     1
102
RTVSPost2010Prop33
280
     0
102
RTVSPost2010PropOp33
 70
     1
102
RTVSPost2010Prop34
280
     0
102
RTVSPost2010PropOp34
 70
     1
102
RTVSPost2010Prop35
280
     0
102
RTVSPost2010PropOp35
 70
     1
102
RTVSPost2010Prop36
280
     0
102
RTVSPost2010PropOp36
 70
     1
102
RTVSPost2010Prop37
 90
       50
102
RTVSPost2010PropOp37
 70
     1
102
RTVSPost2010Prop38
140
0.0
102
RTVSPost2010PropOp38
 70
     1
102
RTVSPost2010Prop39
140
1.0
102
RTVSPost2010PropOp39
 70
     1
102
RTVSPost2010Prop40
 90
        0
102
RTVSPost2010PropOp40
 70
     1
102
RTVSPost2010Prop41ColorIndex
 90
       18
102
RTVSPost2010Prop41ColorRGB
 90
        0
102
RTVSPost2010PropOp41
 70
     1
102
RTVSPost2010Prop42
 90
       50
102
RTVSPost2010PropOp42
 70
     1
102
RTVSPost2010Prop43
 90
        3
102
RTVSPost2010PropOp43
 70
     1
102
RTVSPost2010Prop44ColorIndex
 90
        5
102
RTVSPost2010Prop44ColorRGB
 90
      255
102
RTVSPost2010PropOp44
 70
     1
102
RTVSPost2010Prop45
280
     0
102
RTVSPost2010PropOp45
 70
     1
102
RTVSPost2010Prop46
 90
       50
102
RTVSPost2010PropOp46
 70
     1
102
RTVSPost2010Prop47
 90
       50
102
RTVSPost2010PropOp47
 70
     1
102
RTVSPost2010Prop48
 90
       50
102
RTVSPost2010PropOp48
 70
     1
102
RTVSPost2010Prop49
280
     0
102
RTVSPost2010PropOp49
 70
     1
102
RTVSPost2010Prop50
 90
       50
102
RTVSPost2010PropOp50
 70
     1
102
RTVSPost2010Prop51ColorIndex
 90
      256
102
RTVSPost2010Prop51ColorRGB
 90
-16777216
102
RTVSPost2010PropOp51
 70
     0
102
RTVSPost2010Prop52
140
1.0
102
RTVSPost2010PropOp52
 70
     0
102
RTVSPost2010Prop53
 90
        2
102
RTVSPost2010PropOp53
 70
     1
102
RTVSPost2010Prop54
  1
strokes_ogs.tif
102
RTVSPost2010PropOp54
 70
     1
102
RTVSPost2010Prop55
280
     0
102
RTVSPost2010PropOp55
 70
     1
102
RTVSPost2010Prop56
140
1.0
102
RTVSPost2010PropOp56
 70
     1
102
RTVSPost2010Prop57
140
1.0
102
RTVSPost2010PropOp57
 70
     1
102
RTVSPropertyOp0
 70
     1
102
RTVSPropertyOp1
 70
     1
102
RTVSPropertyOp2
 70
     1
102
RTVSPropertyOp3
 70
     1
102
RTVSPropertyOp4
 70
     1
102
RTVSPropertyOp5
 70
     1
102
RTVSPropertyOp6
 70
     1
102
RTVSPropertyOp7
 70
     1
102
RTVSPropertyOp8
 70
     1
102
RTVSPropertyOp9
 70
     1
102
RTVSPropertyOp10
 70
     1
102
RTVSPropertyOp11
 70
     1
102
RTVSPropertyOp12
 70
     1
102
RTVSPropertyOp13
 70
     1
102
RTVSPropertyOp14
 70
     1
102
RTVSPropertyOp15
 70
     1
102
RTVSPropertyOp16
 70
     1
102
RTVSPropertyOp17
 70
     1
102
RTVSPropertyOp18
 70
     1
102
RTVSPropertyOp19
 70
     1
102
RTVSPropertyOp20
 70
     1
102
RTVSPropertyOp21
 70
     1
102
RTVSPropertyOp22
 70
     1
102
RTVSPropertyOp23
 70
     1
102
RTVSPropertyOp24
 70
     1
102
RTVSPropertyOp25
 70
     1
102
RTVSPropertyOp26
 70
     1
102
RTVSPropertyOp27
 70
     1
102
RTVSPropertyOp28
 70
     1
102
RTVSPropertyOp29
 70
     1
102
RTVSPropertyOp30
 70
     1
102
RTVSPropertyOp31
 70
     1
102
RTVSPropertyOp32
 70
     1
102
RTVSPropertyOp33
 70
     1
102
RTVSPropertyOp34
 70
     1
102
RTVSPropertyOp35
 70
     1
102
RTVSPropertyOp36
 70
     1
102
RTVSPropertyOp37
 70
     1
102
RTVSPropertyOp38
 70
     1
102
RTVSPropertyOp39
 70
     1
102
RTVSPropertyOp40
 70
     1
102
RTVSPropertyOp41
 70
     1
102
RTVSPropertyOp42
 70
     1
102
RTVSPropertyOp43
 70
     1
102
RTVSPropertyOp44
 70
     1
102
RTVSPropertyOp45
 70
     1
102
RTVSPropertyOp46
 70
     1
102
RTVSPropertyOp47
 70
     1
102
RTVSPropertyOp48
 70
     1
102
RTVSPropertyOp49
 70
     1
102
RTVSPropertyOp50
 70
     1
102
RTVSPropertyOp51
 70
     0
102
RTVSPropertyOp52
 70
     0
102
RTVSPropertyOp53
 70
     1
102
RTVSPropertyOp54
 70
     1
102
RTVSPropertyOp55
 70
     1
102
RTVSPropertyOp56
 70
     1
102
RTVSPropertyOp57
 70
     1
102
RTVSPropertyOp58
 70
     1
102
RTVSPropertyOp59
 70
     1
102
RTVSPropertyOp60
 70
     1
102
RTVSPropertyOp61
 70
     1
102
RTVSPropertyOp62
 70
     1
  0
XRECORD
  5
31C
102
{ACAD_REACTORS
330
31B
102
}
330
31B
100
AcDbXrecord
280
     1
102
RTVSPost2010Prop28
280
     0
102
RTVSPost2010PropOp28
 70
     1
102
RTVSPost2010Prop29
280
     1
102
RTVSPost2010PropOp29
 70
     1
102
RTVSPost2010Prop30
280
     1
102
RTVSPost2010PropOp30
 70
     1
102
RTVSPost2010Prop31
280
     0
102
RTVSPost2010PropOp31
 70
     1
102
RTVSPost2010Prop32
280
     0
102
RTVSPost2010PropOp32
 70
     1
102
RTVSPost2010Prop33
280
     0
102
RTVSPost2010PropOp33
 70
     1
102
RTVSPost2010Prop34
280
     0
102
RTVSPost2010PropOp34
 70
     1
102
RTVSPost2010Prop35
280
     0
102
RTVSPost2010PropOp35
 70
     1
102
RTVSPost2010Prop36
280
     0
102
RTVSPost2010PropOp36
 70
     1
102
RTVSPost2010Prop37
 90
       50
102
RTVSPost2010PropOp37
 70
     1
102
RTVSPost2010Prop38
140
0.0
102
RTVSPost2010PropOp38
 70
     1
102
RTVSPost2010Prop39
140
1.0
102
RTVSPost2010PropOp39
 70
     1
102
RTVSPost2010Prop40
 90
        0
102
RTVSPost2010PropOp40
 70
     1
102
RTVSPost2010Prop41ColorIndex
 90
       18
102
RTVSPost2010Prop41ColorRGB
 90
        0
102
RTVSPost2010PropOp41
 70
     1
102
RTVSPost2010Prop42
 90
       50
102
RTVSPost2010PropOp42
 70
     1
102
RTVSPost2010Prop43
 90
        3
102
RTVSPost2010PropOp43
 70
     1
102
RTVSPost2010Prop44ColorIndex
 90
        5
102
RTVSPost2010Prop44ColorRGB
 90
      255
102
RTVSPost2010PropOp44
 70
     1
102
RTVSPost2010Prop45
280
     0
102
RTVSPost2010PropOp45
 70
     1
102
RTVSPost2010Prop46
 90
       50
102
RTVSPost2010PropOp46
 70
     1
102
RTVSPost2010Prop47
 90
       50
102
RTVSPost2010PropOp47
 70
     1
102
RTVSPost2010Prop48
 90
       50
102
RTVSPost2010PropOp48
 70
     1
102
RTVSPost2010Prop49
280
     0
102
RTVSPost2010PropOp49
 70
     1
102
RTVSPost2010Prop50
 90
       50
102
RTVSPost2010PropOp50
 70
     1
102
RTVSPost2010Prop51ColorIndex
 90
      256
102
RTVSPost2010Prop51ColorRGB
 90
-16777216
102
RTVSPost2010PropOp51
 70
     0
102
RTVSPost2010Prop52
140
1.0
102
RTVSPost2010PropOp52
 70
     0
102
RTVSPost2010Prop53
 90
        2
102
RTVSPost2010PropOp53
 70
     1
102
RTVSPost2010Prop54
  1
strokes_ogs.tif
102
RTVSPost2010PropOp54
 70
     1
102
RTVSPost2010Prop55
280
     0
102
RTVSPost2010PropOp55
 70
     1
102
RTVSPost2010Prop56
140
1.0
102
RTVSPost2010PropOp56
 70
     1
102
RTVSPost2010Prop57
140
1.0
102
RTVSPost2010PropOp57
 70
     1
102
RTVSPropertyOp0
 70
     1
102
RTVSPropertyOp1
 70
     1
102
RTVSPropertyOp2
 70
     1
102
RTVSPropertyOp3
 70
     1
102
RTVSPropertyOp4
 70
     1
102
RTVSPropertyOp5
 70
     1
102
RTVSPropertyOp6
 70
     1
102
RTVSPropertyOp7
 70
     1
102
RTVSPropertyOp8
 70
     1
102
RTVSPropertyOp9
 70
     1
102
RTVSPropertyOp10
 70
     1
102
RTVSPropertyOp11
 70
     1
102
RTVSPropertyOp12
 70
     1
102
RTVSPropertyOp13
 70
     1
102
RTVSPropertyOp14
 70
     1
102
RTVSPropertyOp15
 70
     1
102
RTVSPropertyOp16
 70
     1
102
RTVSPropertyOp17
 70
     1
102
RTVSPropertyOp18
 70
     1
102
RTVSPropertyOp19
 70
     1
102
RTVSPropertyOp20
 70
     1
102
RTVSPropertyOp21
 70
     1
102
RTVSPropertyOp22
 70
     1
102
RTVSPropertyOp23
 70
     1
102
RTVSPropertyOp24
 70
     1
102
RTVSPropertyOp25
 70
     1
102
RTVSPropertyOp26
 70
     1
102
RTVSPropertyOp27
 70
     1
102
RTVSPropertyOp28
 70
     1
102
RTVSPropertyOp29
 70
     1
102
RTVSPropertyOp30
 70
     1
102
RTVSPropertyOp31
 70
     1
102
RTVSPropertyOp32
 70
     1
102
RTVSPropertyOp33
 70
     1
102
RTVSPropertyOp34
 70
     1
102
RTVSPropertyOp35
 70
     1
102
RTVSPropertyOp36
 70
     1
102
RTVSPropertyOp37
 70
     1
102
RTVSPropertyOp38
 70
     1
102
RTVSPropertyOp39
 70
     1
102
RTVSPropertyOp40
 70
     1
102
RTVSPropertyOp41
 70
     1
102
RTVSPropertyOp42
 70
     1
102
RTVSPropertyOp43
 70
     1
102
RTVSPropertyOp44
 70
     1
102
RTVSPropertyOp45
 70
     1
102
RTVSPropertyOp46
 70
     1
102
RTVSPropertyOp47
 70
     1
102
RTVSPropertyOp48
 70
     1
102
RTVSPropertyOp49
 70
     1
102
RTVSPropertyOp50
 70
     1
102
RTVSPropertyOp51
 70
     0
102
RTVSPropertyOp52
 70
     0
102
RTVSPropertyOp53
 70
     1
102
RTVSPropertyOp54
 70
     1
102
RTVSPropertyOp55
 70
     1
102
RTVSPropertyOp56
 70
     1
102
RTVSPropertyOp57
 70
     1
102
RTVSPropertyOp58
 70
     1
102
RTVSPropertyOp59
 70
     1
102
RTVSPropertyOp60
 70
     1
102
RTVSPropertyOp61
 70
     1
102
RTVSPropertyOp62
 70
     1
  0
XRECORD
  5
316
102
{ACAD_REACTORS
330
315
102
}
330
315
100
AcDbXrecord
280
     1
102
RTVSPost2010Prop28
280
     0
102
RTVSPost2010PropOp28
 70
     1
102
RTVSPost2010Prop29
280
     1
102
RTVSPost2010PropOp29
 70
     1
102
RTVSPost2010Prop30
280
     1
102
RTVSPost2010PropOp30
 70
     1
102
RTVSPost2010Prop31
280
     0
102
RTVSPost2010PropOp31
 70
     1
102
RTVSPost2010Prop32
280
     0
102
RTVSPost2010PropOp32
 70
     1
102
RTVSPost2010Prop33
280
     0
102
RTVSPost2010PropOp33
 70
     1
102
RTVSPost2010Prop34
280
     0
102
RTVSPost2010PropOp34
 70
     1
102
RTVSPost2010Prop35
280
     0
102
RTVSPost2010PropOp35
 70
     1
102
RTVSPost2010Prop36
280
     0
102
RTVSPost2010PropOp36
 70
     1
102
RTVSPost2010Prop37
 90
       50
102
RTVSPost2010PropOp37
 70
     1
102
RTVSPost2010Prop38
140
0.0
102
RTVSPost2010PropOp38
 70
     1
102
RTVSPost2010Prop39
140
1.0
102
RTVSPost2010PropOp39
 70
     1
102
RTVSPost2010Prop40
 90
        0
102
RTVSPost2010PropOp40
 70
     1
102
RTVSPost2010Prop41ColorIndex
 90
       18
102
RTVSPost2010Prop41ColorRGB
 90
        0
102
RTVSPost2010PropOp41
 70
     1
102
RTVSPost2010Prop42
 90
       50
102
RTVSPost2010PropOp42
 70
     1
102
RTVSPost2010Prop43
 90
        3
102
RTVSPost2010PropOp43
 70
     1
102
RTVSPost2010Prop44ColorIndex
 90
        5
102
RTVSPost2010Prop44ColorRGB
 90
      255
102
RTVSPost2010PropOp44
 70
     1
102
RTVSPost2010Prop45
280
     0
102
RTVSPost2010PropOp45
 70
     1
102
RTVSPost2010Prop46
 90
       50
102
RTVSPost2010PropOp46
 70
     1
102
RTVSPost2010Prop47
 90
       50
102
RTVSPost2010PropOp47
 70
     1
102
RTVSPost2010Prop48
 90
       50
102
RTVSPost2010PropOp48
 70
     1
102
RTVSPost2010Prop49
280
     0
102
RTVSPost2010PropOp49
 70
     1
102
RTVSPost2010Prop50
 90
       50
102
RTVSPost2010PropOp50
 70
     1
102
RTVSPost2010Prop51ColorIndex
 90
      256
102
RTVSPost2010Prop51ColorRGB
 90
-16777216
102
RTVSPost2010PropOp51
 70
     0
102
RTVSPost2010Prop52
140
1.0
102
RTVSPost2010PropOp52
 70
     0
102
RTVSPost2010Prop53
 90
        2
102
RTVSPost2010PropOp53
 70
     1
102
RTVSPost2010Prop54
  1
strokes_ogs.tif
102
RTVSPost2010PropOp54
 70
     1
102
RTVSPost2010Prop55
280
     0
102
RTVSPost2010PropOp55
 70
     1
102
RTVSPost2010Prop56
140
1.0
102
RTVSPost2010PropOp56
 70
     1
102
RTVSPost2010Prop57
140
1.0
102
RTVSPost2010PropOp57
 70
     1
102
RTVSPropertyOp0
 70
     1
102
RTVSPropertyOp1
 70
     1
102
RTVSPropertyOp2
 70
     1
102
RTVSPropertyOp3
 70
     1
102
RTVSPropertyOp4
 70
     1
102
RTVSPropertyOp5
 70
     1
102
RTVSPropertyOp6
 70
     1
102
RTVSPropertyOp7
 70
     1
102
RTVSPropertyOp8
 70
     1
102
RTVSPropertyOp9
 70
     1
102
RTVSPropertyOp10
 70
     1
102
RTVSPropertyOp11
 70
     1
102
RTVSPropertyOp12
 70
     1
102
RTVSPropertyOp13
 70
     1
102
RTVSPropertyOp14
 70
     1
102
RTVSPropertyOp15
 70
     1
102
RTVSPropertyOp16
 70
     1
102
RTVSPropertyOp17
 70
     1
102
RTVSPropertyOp18
 70
     1
102
RTVSPropertyOp19
 70
     1
102
RTVSPropertyOp20
 70
     1
102
RTVSPropertyOp21
 70
     1
102
RTVSPropertyOp22
 70
     1
102
RTVSPropertyOp23
 70
     1
102
RTVSPropertyOp24
 70
     1
102
RTVSPropertyOp25
 70
     1
102
RTVSPropertyOp26
 70
     1
102
RTVSPropertyOp27
 70
     1
102
RTVSPropertyOp28
 70
     1
102
RTVSPropertyOp29
 70
     1
102
RTVSPropertyOp30
 70
     1
102
RTVSPropertyOp31
 70
     1
102
RTVSPropertyOp32
 70
     1
102
RTVSPropertyOp33
 70
     1
102
RTVSPropertyOp34
 70
     1
102
RTVSPropertyOp35
 70
     1
102
RTVSPropertyOp36
 70
     1
102
RTVSPropertyOp37
 70
     1
102
RTVSPropertyOp38
 70
     1
102
RTVSPropertyOp39
 70
     1
102
RTVSPropertyOp40
 70
     1
102
RTVSPropertyOp41
 70
     1
102
RTVSPropertyOp42
 70
     1
102
RTVSPropertyOp43
 70
     1
102
RTVSPropertyOp44
 70
     1
102
RTVSPropertyOp45
 70
     1
102
RTVSPropertyOp46
 70
     1
102
RTVSPropertyOp47
 70
     1
102
RTVSPropertyOp48
 70
     1
102
RTVSPropertyOp49
 70
     1
102
RTVSPropertyOp50
 70
     1
102
RTVSPropertyOp51
 70
     0
102
RTVSPropertyOp52
 70
     0
102
RTVSPropertyOp53
 70
     1
102
RTVSPropertyOp54
 70
     1
102
RTVSPropertyOp55
 70
     1
102
RTVSPropertyOp56
 70
     1
102
RTVSPropertyOp57
 70
     1
102
RTVSPropertyOp58
 70
     1
102
RTVSPropertyOp59
 70
     1
102
RTVSPropertyOp60
 70
     1
102
RTVSPropertyOp61
 70
     1
102
RTVSPropertyOp62
 70
     1
  0
XRECORD
  5
318
102
{ACAD_REACTORS
330
317
102
}
330
317
100
AcDbXrecord
280
     1
102
RTVSPost2010Prop28
280
     0
102
RTVSPost2010PropOp28
 70
     1
102
RTVSPost2010Prop29
280
     1
102
RTVSPost2010PropOp29
 70
     1
102
RTVSPost2010Prop30
280
     1
102
RTVSPost2010PropOp30
 70
     1
102
RTVSPost2010Prop31
280
     0
102
RTVSPost2010PropOp31
 70
     1
102
RTVSPost2010Prop32
280
     0
102
RTVSPost2010PropOp32
 70
     1
102
RTVSPost2010Prop33
280
     0
102
RTVSPost2010PropOp33
 70
     1
102
RTVSPost2010Prop34
280
     0
102
RTVSPost2010PropOp34
 70
     1
102
RTVSPost2010Prop35
280
     0
102
RTVSPost2010PropOp35
 70
     1
102
RTVSPost2010Prop36
280
     0
102
RTVSPost2010PropOp36
 70
     1
102
RTVSPost2010Prop37
 90
       50
102
RTVSPost2010PropOp37
 70
     1
102
RTVSPost2010Prop38
140
0.0
102
RTVSPost2010PropOp38
 70
     1
102
RTVSPost2010Prop39
140
1.0
102
RTVSPost2010PropOp39
 70
     1
102
RTVSPost2010Prop40
 90
        0
102
RTVSPost2010PropOp40
 70
     1
102
RTVSPost2010Prop41ColorIndex
 90
       18
102
RTVSPost2010Prop41ColorRGB
 90
        0
102
RTVSPost2010PropOp41
 70
     1
102
RTVSPost2010Prop42
 90
       50
102
RTVSPost2010PropOp42
 70
     1
102
RTVSPost2010Prop43
 90
        3
102
RTVSPost2010PropOp43
 70
     1
102
RTVSPost2010Prop44ColorIndex
 90
        5
102
RTVSPost2010Prop44ColorRGB
 90
      255
102
RTVSPost2010PropOp44
 70
     1
102
RTVSPost2010Prop45
280
     0
102
RTVSPost2010PropOp45
 70
     1
102
RTVSPost2010Prop46
 90
       50
102
RTVSPost2010PropOp46
 70
     1
102
RTVSPost2010Prop47
 90
       50
102
RTVSPost2010PropOp47
 70
     1
102
RTVSPost2010Prop48
 90
       50
102
RTVSPost2010PropOp48
 70
     1
102
RTVSPost2010Prop49
280
     0
102
RTVSPost2010PropOp49
 70
     1
102
RTVSPost2010Prop50
 90
       50
102
RTVSPost2010PropOp50
 70
     1
102
RTVSPost2010Prop51ColorIndex
 90
      256
102
RTVSPost2010Prop51ColorRGB
 90
-16777216
102
RTVSPost2010PropOp51
 70
     0
102
RTVSPost2010Prop52
140
1.0
102
RTVSPost2010PropOp52
 70
     0
102
RTVSPost2010Prop53
 90
        2
102
RTVSPost2010PropOp53
 70
     1
102
RTVSPost2010Prop54
  1
strokes_ogs.tif
102
RTVSPost2010PropOp54
 70
     1
102
RTVSPost2010Prop55
280
     0
102
RTVSPost2010PropOp55
 70
     1
102
RTVSPost2010Prop56
140
1.0
102
RTVSPost2010PropOp56
 70
     1
102
RTVSPost2010Prop57
140
1.0
102
RTVSPost2010PropOp57
 70
     1
102
RTVSPropertyOp0
 70
     1
102
RTVSPropertyOp1
 70
     1
102
RTVSPropertyOp2
 70
     1
102
RTVSPropertyOp3
 70
     1
102
RTVSPropertyOp4
 70
     1
102
RTVSPropertyOp5
 70
     1
102
RTVSPropertyOp6
 70
     1
102
RTVSPropertyOp7
 70
     1
102
RTVSPropertyOp8
 70
     1
102
RTVSPropertyOp9
 70
     1
102
RTVSPropertyOp10
 70
     1
102
RTVSPropertyOp11
 70
     1
102
RTVSPropertyOp12
 70
     1
102
RTVSPropertyOp13
 70
     1
102
RTVSPropertyOp14
 70
     1
102
RTVSPropertyOp15
 70
     1
102
RTVSPropertyOp16
 70
     1
102
RTVSPropertyOp17
 70
     1
102
RTVSPropertyOp18
 70
     1
102
RTVSPropertyOp19
 70
     1
102
RTVSPropertyOp20
 70
     1
102
RTVSPropertyOp21
 70
     1
102
RTVSPropertyOp22
 70
     1
102
RTVSPropertyOp23
 70
     1
102
RTVSPropertyOp24
 70
     1
102
RTVSPropertyOp25
 70
     1
102
RTVSPropertyOp26
 70
     1
102
RTVSPropertyOp27
 70
     1
102
RTVSPropertyOp28
 70
     1
102
RTVSPropertyOp29
 70
     1
102
RTVSPropertyOp30
 70
     1
102
RTVSPropertyOp31
 70
     1
102
RTVSPropertyOp32
 70
     1
102
RTVSPropertyOp33
 70
     1
102
RTVSPropertyOp34
 70
     1
102
RTVSPropertyOp35
 70
     1
102
RTVSPropertyOp36
 70
     1
102
RTVSPropertyOp37
 70
     1
102
RTVSPropertyOp38
 70
     1
102
RTVSPropertyOp39
 70
     1
102
RTVSPropertyOp40
 70
     1
102
RTVSPropertyOp41
 70
     1
102
RTVSPropertyOp42
 70
     1
102
RTVSPropertyOp43
 70
     1
102
RTVSPropertyOp44
 70
     1
102
RTVSPropertyOp45
 70
     1
102
RTVSPropertyOp46
 70
     1
102
RTVSPropertyOp47
 70
     1
102
RTVSPropertyOp48
 70
     1
102
RTVSPropertyOp49
 70
     1
102
RTVSPropertyOp50
 70
     1
102
RTVSPropertyOp51
 70
     0
102
RTVSPropertyOp52
 70
     0
102
RTVSPropertyOp53
 70
     1
102
RTVSPropertyOp54
 70
     1
102
RTVSPropertyOp55
 70
     1
102
RTVSPropertyOp56
 70
     1
102
RTVSPropertyOp57
 70
     1
102
RTVSPropertyOp58
 70
     1
102
RTVSPropertyOp59
 70
     1
102
RTVSPropertyOp60
 70
     1
102
RTVSPropertyOp61
 70
     1
102
RTVSPropertyOp62
 70
     1
  0
XRECORD
  5
30E
102
{ACAD_REACTORS
330
30D
102
}
330
30D
100
AcDbXrecord
280
     1
102
RTVSPost2010Prop28
280
     0
102
RTVSPost2010PropOp28
 70
     1
102
RTVSPost2010Prop29
280
     1
102
RTVSPost2010PropOp29
 70
     1
102
RTVSPost2010Prop30
280
     1
102
RTVSPost2010PropOp30
 70
     1
102
RTVSPost2010Prop31
280
     0
102
RTVSPost2010PropOp31
 70
     1
102
RTVSPost2010Prop32
280
     0
102
RTVSPost2010PropOp32
 70
     1
102
RTVSPost2010Prop33
280
     0
102
RTVSPost2010PropOp33
 70
     1
102
RTVSPost2010Prop34
280
     0
102
RTVSPost2010PropOp34
 70
     1
102
RTVSPost2010Prop35
280
     0
102
RTVSPost2010PropOp35
 70
     1
102
RTVSPost2010Prop36
280
     0
102
RTVSPost2010PropOp36
 70
     1
102
RTVSPost2010Prop37
 90
       50
102
RTVSPost2010PropOp37
 70
     1
102
RTVSPost2010Prop38
140
0.0
102
RTVSPost2010PropOp38
 70
     1
102
RTVSPost2010Prop39
140
1.0
102
RTVSPost2010PropOp39
 70
     1
102
RTVSPost2010Prop40
 90
        0
102
RTVSPost2010PropOp40
 70
     1
102
RTVSPost2010Prop41ColorIndex
 90
       18
102
RTVSPost2010Prop41ColorRGB
 90
        0
102
RTVSPost2010PropOp41
 70
     1
102
RTVSPost2010Prop42
 90
       50
102
RTVSPost2010PropOp42
 70
     1
102
RTVSPost2010Prop43
 90
        3
102
RTVSPost2010PropOp43
 70
     1
102
RTVSPost2010Prop44ColorIndex
 90
        5
102
RTVSPost2010Prop44ColorRGB
 90
      255
102
RTVSPost2010PropOp44
 70
     1
102
RTVSPost2010Prop45
280
     0
102
RTVSPost2010PropOp45
 70
     1
102
RTVSPost2010Prop46
 90
       50
102
RTVSPost2010PropOp46
 70
     1
102
RTVSPost2010Prop47
 90
       50
102
RTVSPost2010PropOp47
 70
     1
102
RTVSPost2010Prop48
 90
       50
102
RTVSPost2010PropOp48
 70
     1
102
RTVSPost2010Prop49
280
     0
102
RTVSPost2010PropOp49
 70
     1
102
RTVSPost2010Prop50
 90
       50
102
RTVSPost2010PropOp50
 70
     1
102
RTVSPost2010Prop51ColorIndex
 90
      256
102
RTVSPost2010Prop51ColorRGB
 90
-16777216
102
RTVSPost2010PropOp51
 70
     0
102
RTVSPost2010Prop52
140
1.0
102
RTVSPost2010PropOp52
 70
     0
102
RTVSPost2010Prop53
 90
        2
102
RTVSPost2010PropOp53
 70
     1
102
RTVSPost2010Prop54
  1
strokes_ogs.tif
102
RTVSPost2010PropOp54
 70
     1
102
RTVSPost2010Prop55
280
     0
102
RTVSPost2010PropOp55
 70
     1
102
RTVSPost2010Prop56
140
1.0
102
RTVSPost2010PropOp56
 70
     1
102
RTVSPost2010Prop57
140
1.0
102
RTVSPost2010PropOp57
 70
     1
102
RTVSPropertyOp0
 70
     1
102
RTVSPropertyOp1
 70
     1
102
RTVSPropertyOp2
 70
     1
102
RTVSPropertyOp3
 70
     1
102
RTVSPropertyOp4
 70
     1
102
RTVSPropertyOp5
 70
     1
102
RTVSPropertyOp6
 70
     1
102
RTVSPropertyOp7
 70
     1
102
RTVSPropertyOp8
 70
     1
102
RTVSPropertyOp9
 70
     1
102
RTVSPropertyOp10
 70
     1
102
RTVSPropertyOp11
 70
     1
102
RTVSPropertyOp12
 70
     1
102
RTVSPropertyOp13
 70
     1
102
RTVSPropertyOp14
 70
     1
102
RTVSPropertyOp15
 70
     1
102
RTVSPropertyOp16
 70
     1
102
RTVSPropertyOp17
 70
     1
102
RTVSPropertyOp18
 70
     1
102
RTVSPropertyOp19
 70
     1
102
RTVSPropertyOp20
 70
     1
102
RTVSPropertyOp21
 70
     1
102
RTVSPropertyOp22
 70
     1
102
RTVSPropertyOp23
 70
     1
102
RTVSPropertyOp24
 70
     1
102
RTVSPropertyOp25
 70
     1
102
RTVSPropertyOp26
 70
     1
102
RTVSPropertyOp27
 70
     1
102
RTVSPropertyOp28
 70
     1
102
RTVSPropertyOp29
 70
     1
102
RTVSPropertyOp30
 70
     1
102
RTVSPropertyOp31
 70
     1
102
RTVSPropertyOp32
 70
     1
102
RTVSPropertyOp33
 70
     1
102
RTVSPropertyOp34
 70
     1
102
RTVSPropertyOp35
 70
     1
102
RTVSPropertyOp36
 70
     1
102
RTVSPropertyOp37
 70
     1
102
RTVSPropertyOp38
 70
     1
102
RTVSPropertyOp39
 70
     1
102
RTVSPropertyOp40
 70
     1
102
RTVSPropertyOp41
 70
     1
102
RTVSPropertyOp42
 70
     1
102
RTVSPropertyOp43
 70
     1
102
RTVSPropertyOp44
 70
     1
102
RTVSPropertyOp45
 70
     1
102
RTVSPropertyOp46
 70
     1
102
RTVSPropertyOp47
 70
     1
102
RTVSPropertyOp48
 70
     1
102
RTVSPropertyOp49
 70
     1
102
RTVSPropertyOp50
 70
     1
102
RTVSPropertyOp51
 70
     0
102
RTVSPropertyOp52
 70
     0
102
RTVSPropertyOp53
 70
     1
102
RTVSPropertyOp54
 70
     1
102
RTVSPropertyOp55
 70
     1
102
RTVSPropertyOp56
 70
     1
102
RTVSPropertyOp57
 70
     1
102
RTVSPropertyOp58
 70
     1
102
RTVSPropertyOp59
 70
     1
102
RTVSPropertyOp60
 70
     1
102
RTVSPropertyOp61
 70
     1
102
RTVSPropertyOp62
 70
     1
  0
XRECORD
  5
302
102
{ACAD_REACTORS
330
301
102
}
330
301
100
AcDbXrecord
280
     1
102
RTVSPost2010Prop28
280
     0
102
RTVSPost2010PropOp28
 70
     1
102
RTVSPost2010Prop29
280
     1
102
RTVSPost2010PropOp29
 70
     1
102
RTVSPost2010Prop30
280
     1
102
RTVSPost2010PropOp30
 70
     1
102
RTVSPost2010Prop31
280
     0
102
RTVSPost2010PropOp31
 70
     1
102
RTVSPost2010Prop32
280
     0
102
RTVSPost2010PropOp32
 70
     1
102
RTVSPost2010Prop33
280
     0
102
RTVSPost2010PropOp33
 70
     1
102
RTVSPost2010Prop34
280
     0
102
RTVSPost2010PropOp34
 70
     1
102
RTVSPost2010Prop35
280
     0
102
RTVSPost2010PropOp35
 70
     1
102
RTVSPost2010Prop36
280
     0
102
RTVSPost2010PropOp36
 70
     1
102
RTVSPost2010Prop37
 90
       50
102
RTVSPost2010PropOp37
 70
     1
102
RTVSPost2010Prop38
140
0.0
102
RTVSPost2010PropOp38
 70
     1
102
RTVSPost2010Prop39
140
1.0
102
RTVSPost2010PropOp39
 70
     1
102
RTVSPost2010Prop40
 90
        0
102
RTVSPost2010PropOp40
 70
     1
102
RTVSPost2010Prop41ColorIndex
 90
       18
102
RTVSPost2010Prop41ColorRGB
 90
        0
102
RTVSPost2010PropOp41
 70
     1
102
RTVSPost2010Prop42
 90
       50
102
RTVSPost2010PropOp42
 70
     1
102
RTVSPost2010Prop43
 90
        3
102
RTVSPost2010PropOp43
 70
     1
102
RTVSPost2010Prop44ColorIndex
 90
        5
102
RTVSPost2010Prop44ColorRGB
 90
      255
102
RTVSPost2010PropOp44
 70
     1
102
RTVSPost2010Prop45
280
     0
102
RTVSPost2010PropOp45
 70
     1
102
RTVSPost2010Prop46
 90
       50
102
RTVSPost2010PropOp46
 70
     1
102
RTVSPost2010Prop47
 90
       50
102
RTVSPost2010PropOp47
 70
     1
102
RTVSPost2010Prop48
 90
       50
102
RTVSPost2010PropOp48
 70
     1
102
RTVSPost2010Prop49
280
     0
102
RTVSPost2010PropOp49
 70
     1
102
RTVSPost2010Prop50
 90
       50
102
RTVSPost2010PropOp50
 70
     1
102
RTVSPost2010Prop51ColorIndex
 90
      256
102
RTVSPost2010Prop51ColorRGB
 90
-16777216
102
RTVSPost2010PropOp51
 70
     0
102
RTVSPost2010Prop52
140
1.0
102
RTVSPost2010PropOp52
 70
     0
102
RTVSPost2010Prop53
 90
        2
102
RTVSPost2010PropOp53
 70
     1
102
RTVSPost2010Prop54
  1
strokes_ogs.tif
102
RTVSPost2010PropOp54
 70
     1
102
RTVSPost2010Prop55
280
     0
102
RTVSPost2010PropOp55
 70
     1
102
RTVSPost2010Prop56
140
1.0
102
RTVSPost2010PropOp56
 70
     1
102
RTVSPost2010Prop57
140
1.0
102
RTVSPost2010PropOp57
 70
     1
102
RTVSPropertyOp0
 70
     1
102
RTVSPropertyOp1
 70
     1
102
RTVSPropertyOp2
 70
     1
102
RTVSPropertyOp3
 70
     1
102
RTVSPropertyOp4
 70
     1
102
RTVSPropertyOp5
 70
     1
102
RTVSPropertyOp6
 70
     1
102
RTVSPropertyOp7
 70
     1
102
RTVSPropertyOp8
 70
     1
102
RTVSPropertyOp9
 70
     1
102
RTVSPropertyOp10
 70
     1
102
RTVSPropertyOp11
 70
     1
102
RTVSPropertyOp12
 70
     1
102
RTVSPropertyOp13
 70
     1
102
RTVSPropertyOp14
 70
     1
102
RTVSPropertyOp15
 70
     1
102
RTVSPropertyOp16
 70
     1
102
RTVSPropertyOp17
 70
     1
102
RTVSPropertyOp18
 70
     1
102
RTVSPropertyOp19
 70
     1
102
RTVSPropertyOp20
 70
     1
102
RTVSPropertyOp21
 70
     1
102
RTVSPropertyOp22
 70
     1
102
RTVSPropertyOp23
 70
     1
102
RTVSPropertyOp24
 70
     1
102
RTVSPropertyOp25
 70
     1
102
RTVSPropertyOp26
 70
     1
102
RTVSPropertyOp27
 70
     1
102
RTVSPropertyOp28
 70
     1
102
RTVSPropertyOp29
 70
     1
102
RTVSPropertyOp30
 70
     1
102
RTVSPropertyOp31
 70
     1
102
RTVSPropertyOp32
 70
     1
102
RTVSPropertyOp33
 70
     1
102
RTVSPropertyOp34
 70
     1
102
RTVSPropertyOp35
 70
     1
102
RTVSPropertyOp36
 70
     1
102
RTVSPropertyOp37
 70
     1
102
RTVSPropertyOp38
 70
     1
102
RTVSPropertyOp39
 70
     1
102
RTVSPropertyOp40
 70
     1
102
RTVSPropertyOp41
 70
     1
102
RTVSPropertyOp42
 70
     1
102
RTVSPropertyOp43
 70
     1
102
RTVSPropertyOp44
 70
     1
102
RTVSPropertyOp45
 70
     1
102
RTVSPropertyOp46
 70
     1
102
RTVSPropertyOp47
 70
     1
102
RTVSPropertyOp48
 70
     1
102
RTVSPropertyOp49
 70
     1
102
RTVSPropertyOp50
 70
     1
102
RTVSPropertyOp51
 70
     0
102
RTVSPropertyOp52
 70
     0
102
RTVSPropertyOp53
 70
     1
102
RTVSPropertyOp54
 70
     1
102
RTVSPropertyOp55
 70
     1
102
RTVSPropertyOp56
 70
     1
102
RTVSPropertyOp57
 70
     1
102
RTVSPropertyOp58
 70
     1
102
RTVSPropertyOp59
 70
     1
102
RTVSPropertyOp60
 70
     1
102
RTVSPropertyOp61
 70
     1
102
RTVSPropertyOp62
 70
     1
  0
XRECORD
  5
31A
102
{ACAD_REACTORS
330
319
102
}
330
319
100
AcDbXrecord
280
     1
102
RTVSPost2010Prop28
280
     0
102
RTVSPost2010PropOp28
 70
     1
102
RTVSPost2010Prop29
280
     1
102
RTVSPost2010PropOp29
 70
     1
102
RTVSPost2010Prop30
280
     1
102
RTVSPost2010PropOp30
 70
     1
102
RTVSPost2010Prop31
280
     0
102
RTVSPost2010PropOp31
 70
     1
102
RTVSPost2010Prop32
280
     0
102
RTVSPost2010PropOp32
 70
     1
102
RTVSPost2010Prop33
280
     0
102
RTVSPost2010PropOp33
 70
     1
102
RTVSPost2010Prop34
280
     0
102
RTVSPost2010PropOp34
 70
     1
102
RTVSPost2010Prop35
280
     0
102
RTVSPost2010PropOp35
 70
     1
102
RTVSPost2010Prop36
280
     0
102
RTVSPost2010PropOp36
 70
     1
102
RTVSPost2010Prop37
 90
       50
102
RTVSPost2010PropOp37
 70
     1
102
RTVSPost2010Prop38
140
0.0
102
RTVSPost2010PropOp38
 70
     1
102
RTVSPost2010Prop39
140
1.0
102
RTVSPost2010PropOp39
 70
     1
102
RTVSPost2010Prop40
 90
        0
102
RTVSPost2010PropOp40
 70
     1
102
RTVSPost2010Prop41ColorIndex
 90
       18
102
RTVSPost2010Prop41ColorRGB
 90
        0
102
RTVSPost2010PropOp41
 70
     1
102
RTVSPost2010Prop42
 90
       50
102
RTVSPost2010PropOp42
 70
     1
102
RTVSPost2010Prop43
 90
        3
102
RTVSPost2010PropOp43
 70
     1
102
RTVSPost2010Prop44ColorIndex
 90
        5
102
RTVSPost2010Prop44ColorRGB
 90
      255
102
RTVSPost2010PropOp44
 70
     1
102
RTVSPost2010Prop45
280
     0
102
RTVSPost2010PropOp45
 70
     1
102
RTVSPost2010Prop46
 90
       50
102
RTVSPost2010PropOp46
 70
     1
102
RTVSPost2010Prop47
 90
       50
102
RTVSPost2010PropOp47
 70
     1
102
RTVSPost2010Prop48
 90
       50
102
RTVSPost2010PropOp48
 70
     1
102
RTVSPost2010Prop49
280
     0
102
RTVSPost2010PropOp49
 70
     1
102
RTVSPost2010Prop50
 90
       50
102
RTVSPost2010PropOp50
 70
     1
102
RTVSPost2010Prop51ColorIndex
 90
      256
102
RTVSPost2010Prop51ColorRGB
 90
-16777216
102
RTVSPost2010PropOp51
 70
     0
102
RTVSPost2010Prop52
140
1.0
102
RTVSPost2010PropOp52
 70
     0
102
RTVSPost2010Prop53
 90
        2
102
RTVSPost2010PropOp53
 70
     1
102
RTVSPost2010Prop54
  1
strokes_ogs.tif
102
RTVSPost2010PropOp54
 70
     1
102
RTVSPost2010Prop55
280
     0
102
RTVSPost2010PropOp55
 70
     1
102
RTVSPost2010Prop56
140
1.0
102
RTVSPost2010PropOp56
 70
     1
102
RTVSPost2010Prop57
140
1.0
102
RTVSPost2010PropOp57
 70
     1
102
RTVSPropertyOp0
 70
     1
102
RTVSPropertyOp1
 70
     1
102
RTVSPropertyOp2
 70
     1
102
RTVSPropertyOp3
 70
     1
102
RTVSPropertyOp4
 70
     1
102
RTVSPropertyOp5
 70
     1
102
RTVSPropertyOp6
 70
     1
102
RTVSPropertyOp7
 70
     1
102
RTVSPropertyOp8
 70
     1
102
RTVSPropertyOp9
 70
     1
102
RTVSPropertyOp10
 70
     1
102
RTVSPropertyOp11
 70
     1
102
RTVSPropertyOp12
 70
     1
102
RTVSPropertyOp13
 70
     1
102
RTVSPropertyOp14
 70
     1
102
RTVSPropertyOp15
 70
     1
102
RTVSPropertyOp16
 70
     1
102
RTVSPropertyOp17
 70
     1
102
RTVSPropertyOp18
 70
     1
102
RTVSPropertyOp19
 70
     1
102
RTVSPropertyOp20
 70
     1
102
RTVSPropertyOp21
 70
     1
102
RTVSPropertyOp22
 70
     1
102
RTVSPropertyOp23
 70
     1
102
RTVSPropertyOp24
 70
     1
102
RTVSPropertyOp25
 70
     1
102
RTVSPropertyOp26
 70
     1
102
RTVSPropertyOp27
 70
     1
102
RTVSPropertyOp28
 70
     1
102
RTVSPropertyOp29
 70
     1
102
RTVSPropertyOp30
 70
     1
102
RTVSPropertyOp31
 70
     1
102
RTVSPropertyOp32
 70
     1
102
RTVSPropertyOp33
 70
     1
102
RTVSPropertyOp34
 70
     1
102
RTVSPropertyOp35
 70
     1
102
RTVSPropertyOp36
 70
     1
102
RTVSPropertyOp37
 70
     1
102
RTVSPropertyOp38
 70
     1
102
RTVSPropertyOp39
 70
     1
102
RTVSPropertyOp40
 70
     1
102
RTVSPropertyOp41
 70
     1
102
RTVSPropertyOp42
 70
     1
102
RTVSPropertyOp43
 70
     1
102
RTVSPropertyOp44
 70
     1
102
RTVSPropertyOp45
 70
     1
102
RTVSPropertyOp46
 70
     1
102
RTVSPropertyOp47
 70
     1
102
RTVSPropertyOp48
 70
     1
102
RTVSPropertyOp49
 70
     1
102
RTVSPropertyOp50
 70
     1
102
RTVSPropertyOp51
 70
     0
102
RTVSPropertyOp52
 70
     0
102
RTVSPropertyOp53
 70
     1
102
RTVSPropertyOp54
 70
     1
102
RTVSPropertyOp55
 70
     1
102
RTVSPropertyOp56
 70
     1
102
RTVSPropertyOp57
 70
     1
102
RTVSPropertyOp58
 70
     1
102
RTVSPropertyOp59
 70
     1
102
RTVSPropertyOp60
 70
     1
102
RTVSPropertyOp61
 70
     1
102
RTVSPropertyOp62
 70
     1
  0
ENDSEC
  0
EOF
